osu file format v14

[General]
AudioFilename: Niko - Pilot Is The Hero.mp3
AudioLeadIn: 0
PreviewTime: 39068
Countdown: 0
SampleSet: Soft
StackLeniency: 0.7
Mode: 0
LetterboxInBreaks: 1
WidescreenStoryboard: 0

[Editor]
Bookmarks: 45064
DistanceSpacing: 1
BeatDivisor: 4
GridSize: 4
TimelineZoom: 2.799999

[Metadata]
Title:Pilot Is The Hero
TitleUnicode:Pilot Is The Hero
Artist:Niko
ArtistUnicode:Niko
Creator:Ni-ma
Version:Another
Source:
Tags:niko eurobeat pilot is the hero ni-ma nima
BeatmapID:856898
BeatmapSetID:393339

[Difficulty]
HPDrainRate:6
CircleSize:4
OverallDifficulty:7
ApproachRate:9
SliderMultiplier:1.4
SliderTickRate:1

[Events]
//Background and Video events
0,0,"41125281_p0.jpg",0,0
//Break Periods
//Storyboard Layer 0 (Background)
//Storyboard Layer 1 (Fail)
//Storyboard Layer 2 (Pass)
//Storyboard Layer 3 (Foreground)
//Storyboard Sound Samples

[TimingPoints]
92,374.770453097478,4,2,0,75,1,0
3090,-66.6666666666667,4,2,0,75,0,0
14333,-66.6666666666667,4,2,0,75,0,0
20516,-50,4,2,0,75,0,0
21079,-66.6666666666667,4,2,0,75,0,0
26513,-50,4,2,0,75,0,0
27075,-66.6666666666667,4,2,0,75,0,0
39068,-50,4,2,0,75,0,1
61366,-133.333333333333,4,2,0,75,0,1
61460,-50,4,2,0,75,0,1
63053,-100,4,1,0,100,0,0

[HitObjects]
168,68,2715,6,8,L|208:28,3,35
160,184,3090,6,2,L|111:163,3,52.5000020027161
192,208,3464,2,2,B|216:320|352:280,1,157.500006008148
332,280,3839,1,2,0:0:0:0:
348,256,3933,1,2,0:0:0:0:
356,232,4026,1,2,0:0:0:0:
356,208,4120,1,2,0:0:0:0:
348,184,4214,1,2,0:0:0:0:
444,308,4401,5,8,0:0:0:0:
504,168,4589,6,2,L|456:128,3,52.5000020027161
444,116,4964,2,2,B|412:16|303:64,1,157.500006008148
296,68,5338,1,2,0:0:0:0:
273,79,5432,1,2,0:0:0:0:
256,96,5526,1,2,0:0:0:0:
245,118,5619,1,2,0:0:0:0:
239,147,5713,1,2,0:0:0:0:
156,12,5900,5,8,0:0:0:0:
72,136,6088,5,8,0:0:0:0:
72,136,6182,1,8,0:0:0:0:
72,136,6275,1,8,0:0:0:0:
72,136,6369,1,8,0:0:0:0:
72,136,6463,1,8,0:0:0:0:
144,212,6650,5,2,0:0:0:0:
144,212,6744,1,2,0:0:0:0:
144,212,6837,5,8,0:0:0:0:
156,228,6931,1,8,0:0:0:0:
172,244,7025,1,8,0:0:0:0:
184,260,7118,1,8,0:0:0:0:
196,276,7212,1,8,0:0:0:0:
288,348,7400,5,8,0:0:0:0:
288,348,7493,1,8,0:0:0:0:
336,328,7587,2,2,L|400:304,3,52.5000020027161
392,288,7962,2,2,L|400:208,3,52.5000020027161
416,216,8336,1,2,0:0:0:0:
432,200,8430,1,2,0:0:0:0:
448,176,8524,1,2,0:0:0:0:
448,152,8618,1,2,0:0:0:0:
440,128,8711,1,2,0:0:0:0:
416,112,8805,1,2,0:0:0:0:
392,112,8899,1,2,0:0:0:0:
368,128,8992,1,2,0:0:0:0:
360,152,9086,6,2,L|312:120,3,52.5000020027161
296,104,9461,2,2,B|344:-8|232:40|200:96,1,157.500006008148
200,88,9836,1,2,0:0:0:0:
184,108,9929,1,2,0:0:0:0:
172,132,10023,1,2,0:0:0:0:
160,156,10117,1,2,0:0:0:0:
152,180,10210,1,2,0:0:0:0:
80,320,10398,5,8,0:0:0:0:
184,280,10585,6,2,L|232:304,3,52.5000020027161
280,320,10960,2,2,B|233:212|345:260|356:290,1,157.500006008148
380,292,11335,1,2,0:0:0:0:
388,268,11428,1,2,0:0:0:0:
392,244,11522,1,2,0:0:0:0:
396,220,11616,1,2,0:0:0:0:
400,196,11709,1,2,0:0:0:0:
248,192,11897,5,8,0:0:0:0:
119,161,12084,5,8,0:0:0:0:
104,136,12178,1,8,0:0:0:0:
88,112,12272,1,8,0:0:0:0:
72,88,12365,1,8,0:0:0:0:
56,64,12459,1,8,0:0:0:0:
224,144,12646,5,8,0:0:0:0:
208,120,12740,1,8,0:0:0:0:
408,248,12927,5,8,0:0:0:0:
424,272,13021,1,8,0:0:0:0:
440,296,13115,1,8,0:0:0:0:
456,320,13208,1,8,0:0:0:0:
288,240,13396,5,8,0:0:0:0:
304,264,13490,1,8,0:0:0:0:
200,288,13677,5,8,0:0:0:0:
176,240,13771,1,8,0:0:0:0:
160,192,13864,1,8,0:0:0:0:
216,192,13958,1,8,0:0:0:0:
272,192,14052,1,8,0:0:0:0:
256,144,14145,1,8,0:0:0:0:
240,96,14239,1,12,0:0:0:0:
256,192,14333,12,0,14895,0:0:0:0:
308,280,15082,5,2,0:0:0:0:
488,232,15270,1,2,0:0:0:0:
356,100,15457,1,2,0:0:0:0:
384,200,15644,1,2,0:0:0:0:
356,100,15832,2,2,P|292:20|156:36,1,210.000008010865
64,216,16394,6,2,B|105:246|105:246|160:232,1,105.000004005432
272,196,16769,1,2,0:0:0:0:
124,152,16956,1,2,0:0:0:0:
192,320,17144,1,2,0:0:0:0:
360,160,17331,2,2,B|373:212|373:212|343:253,1,105.000004005432
284,108,17706,2,8,L|348:76,3,52.5000020027161
384,80,18080,6,2,B|424:100|424:100|436:136|480:144,1,105.000004005432
392,280,18455,1,2,0:0:0:0:
272,196,18643,2,2,B|241:222|241:222|227:327,1,105.000004005432
152,344,19017,2,2,B|188:378|188:378|243:381,1,105.000004005432
193,104,19392,6,2,B|184:156|184:156|216:192|168:208,1,105.000004005432
185,200,19767,1,6,0:0:0:0:
326,183,19954,1,2,0:0:0:0:
114,209,20142,1,2,0:0:0:0:
397,174,20329,1,2,0:0:0:0:
324,340,20610,6,6,B|332:268|332:268|260:212|293:132|293:132|276:84,1,210
412,80,21079,6,2,B|380:100|380:100|348:52|296:48,1,105.000004005432
188,0,21453,1,2,0:0:0:0:
287,147,21641,1,2,0:0:0:0:
152,128,21828,2,2,B|104:136|104:136|60:192,1,105.000004005432
69,180,22203,1,2,0:0:0:0:
240,292,22390,6,2,L|152:212,1,105.000004005432
228,84,22765,1,2,0:0:0:0:
44,72,22952,1,2,0:0:0:0:
162,221,23140,1,2,0:0:0:0:
152,128,23327,1,2,0:0:0:0:
72,184,23515,2,8,L|29:216,2,52.5000020027161
228,84,23889,5,2,0:0:0:0:
228,84,24077,2,2,L|356:52,1,105.000004005432
400,208,24452,1,2,0:0:0:0:
400,208,24639,2,2,L|272:240,1,105.000004005432
164,260,25014,2,2,P|181:211|221:177,1,105.000004005432
251,338,25389,2,2,P|200:350|149:342,1,105.000004005432
254,265,25763,5,12,0:0:0:0:
257,118,25951,1,8,0:0:0:0:
252,339,26138,1,8,0:0:0:0:
259,44,26325,1,12,0:0:0:0:
288,56,26419,5,2,0:0:0:0:
320,80,26513,1,2,0:0:0:0:
336,112,26607,1,2,0:0:0:0:
336,144,26700,1,2,0:0:0:0:
320,176,26794,1,2,0:0:0:0:
304,208,26888,1,2,0:0:0:0:
312,240,26981,1,2,0:0:0:0:
336,256,27075,1,2,0:0:0:0:
232,288,27450,6,2,L|144:256,1,52.5000020027161
50,353,27637,2,2,L|100:336,1,52.5000020027161
76,224,27825,2,2,L|108:136,1,52.5000020027161
200,152,28012,2,2,P|181:106|120:77,1,105.000004005432
272,56,28387,2,2,B|328:69|340:32|340:32|412:44,1,105.000004005432
396,120,28761,2,2,P|420:120|444:160,1,52.5000020027161
368,220,28949,2,2,P|368:244|408:268,1,52.5000020027161
464,212,29136,2,2,P|488:212|512:252,1,52.5000020027161
488,328,29324,2,2,B|448:332|448:332|388:368|388:368|320:360,1,157.500006008148
296,340,29698,2,2,B|234:266|235:317|163:231,1,157.500006008148
272,208,30073,5,8,0:0:0:0:
272,208,30167,1,8,0:0:0:0:
272,208,30261,1,8,0:0:0:0:
160,360,30448,1,8,0:0:0:0:
56,196,30635,2,2,B|78:156|78:156|169:150,1,105.000004005432
280,88,31010,2,2,P|311:46|358:23,2,105.000004005432
384,120,31572,5,2,0:0:0:0:
396,148,31666,1,2,0:0:0:0:
399,180,31760,1,2,0:0:0:0:
392,210,31853,1,2,0:0:0:0:
377,237,31947,1,2,0:0:0:0:
353,258,32041,1,2,0:0:0:0:
325,271,32134,1,2,0:0:0:0:
294,275,32228,1,2,0:0:0:0:
272,248,32322,5,6,0:0:0:0:
268,217,32415,1,2,0:0:0:0:
255,189,32509,1,2,0:0:0:0:
234,165,32603,1,2,0:0:0:0:
207,150,32697,1,2,0:0:0:0:
177,143,32790,1,2,0:0:0:0:
145,146,32884,1,2,0:0:0:0:
117,158,32978,1,2,0:0:0:0:
88,184,33071,2,6,B|64:208|88:256|64:304,1,105.000004005432
292,88,33446,6,2,L|380:120,1,52.5000020027161
440,0,33633,2,2,L|391:18,1,52.5000020027161
456,112,33821,2,2,L|424:200,1,52.5000020027161
336,200,34008,2,2,P|361:247|415:274,1,105.000004005432
284,336,34383,2,2,B|229:313|229:313|164:352,1,105.000004005432
96,264,34758,2,2,P|72:264|48:224,1,52.5000020027161
160,176,34945,2,2,P|160:152|120:128,1,52.5000020027161
48,128,35133,2,2,P|24:128|0:88,1,52.5000020027161
24,64,35320,2,2,B|120:64|80:32|192:32,1,157.500006008148
224,48,35695,2,2,B|285:121|284:70|356:156,1,157.500006008148
346,144,36069,5,8,0:0:0:0:
346,144,36163,1,8,0:0:0:0:
346,144,36257,1,8,0:0:0:0:
288,232,36444,1,8,0:0:0:0:
288,232,36538,1,8,0:0:0:0:
288,232,36632,1,8,0:0:0:0:
360,312,36819,5,8,0:0:0:0:
136,296,37006,2,2,L|96:248,1,52.5000020027161
88,240,37194,2,2,L|80:184,3,52.5000020027161
128,176,37569,2,2,L|136:120,3,52.5000020027161
160,96,37943,5,2,0:0:0:0:
184,69,38037,1,2,0:0:0:0:
219,59,38131,1,2,0:0:0:0:
253,71,38224,1,2,0:0:0:0:
272,96,38318,5,6,0:0:0:0:
260,130,38412,1,2,0:0:0:0:
270,165,38505,1,2,0:0:0:0:
297,189,38599,1,2,0:0:0:0:
328,192,38693,5,2,0:0:0:0:
352,165,38787,1,2,0:0:0:0:
387,155,38880,1,2,0:0:0:0:
421,167,38974,1,6,0:0:0:0:
421,167,39068,6,2,B|405:239|405:239|324:284,1,140
244,368,39442,2,2,B|181:328|181:328|199:232,1,140
52,232,39817,2,2,B|60:180|60:180|96:152|96:152|116:100,1,140
248,84,40192,2,2,B|288:76|288:76|294:26|376:0,1,140
370,89,40567,5,8,0:0:0:0:
153,77,40754,1,8,0:0:0:0:
141,294,40941,1,8,0:0:0:0:
358,306,41129,1,8,0:0:0:0:
248,220,41316,2,2,P|297:165|388:199,1,140
468,80,41691,2,2,B|523:129|489:220,1,140
252,224,42066,5,8,0:0:0:0:
252,224,42253,1,8,0:0:0:0:
141,294,42441,2,8,L|77:262,2,70
100,160,42815,1,8,0:0:0:0:
200,64,43003,1,8,0:0:0:0:
344,88,43190,1,8,0:0:0:0:
344,88,43377,2,2,B|440:120|344:224|464:272,1,210
439,259,43752,2,2,B|383:343|307:223|230:327,1,210
152,368,44127,5,8,0:0:0:0:
40,320,44314,2,2,L|104:240,2,70
136,48,44689,5,8,0:0:0:0:
152,80,44783,1,8,0:0:0:0:
168,112,44877,1,8,0:0:0:0:
184,144,44970,1,8,0:0:0:0:
200,176,45064,6,2,B|220:236|220:236|288:288,1,140
352,136,45439,2,2,B|414:96|493:152,1,140
389,284,45813,2,2,B|376:368|304:384,1,140
280,282,46188,2,2,B|232:270|232:270|184:314|112:254,1,140
148,278,46563,5,8,0:0:0:0:
376,96,46750,1,8,0:0:0:0:
317,240,46938,1,8,0:0:0:0:
196,144,47125,1,8,0:0:0:0:
40,172,47313,2,2,L|128:76,3,70
64,80,47687,2,2,L|152:-16,3,70
232,56,48062,6,2,B|307:63|314:170|314:170|374:163,1,210
368,163,48437,1,2,0:0:0:0:
404,340,48624,5,8,0:0:0:0:
404,340,48812,1,8,0:0:0:0:
268,292,48999,1,8,0:0:0:0:
268,292,49186,1,8,0:0:0:0:
120,320,49374,2,8,L|152:224,2,70
88,196,49749,2,8,L|19:208,2,70
104,168,50030,5,2,0:0:0:0:
136,152,50123,1,2,0:0:0:0:
168,144,50217,1,2,0:0:0:0:
200,144,50311,1,2,0:0:0:0:
232,160,50404,1,2,0:0:0:0:
248,192,50498,1,2,0:0:0:0:
256,224,50592,1,2,0:0:0:0:
256,256,50686,5,12,0:0:0:0:
288,240,50779,1,8,0:0:0:0:
320,224,50873,1,8,0:0:0:0:
352,208,50967,1,8,0:0:0:0:
384,192,51060,6,2,B|373:126|373:126|304:92,1,140
176,40,51435,2,2,B|88:52|88:52|36:100,1,140
28,224,51810,2,2,B|69:275|69:275|139:253,1,140
240,352,52185,2,2,B|301:327|301:327|352:381,1,140
464,256,52559,5,8,0:0:0:0:
256,240,52747,1,8,0:0:0:0:
360,56,52934,1,8,0:0:0:0:
360,264,53122,1,8,0:0:0:0:
152,264,53309,1,8,0:0:0:0:
152,56,53496,1,8,0:0:0:0:
48,256,53684,1,8,0:0:0:0:
256,240,53871,1,8,0:0:0:0:
156,176,54058,5,8,0:0:0:0:
156,176,54246,1,8,0:0:0:0:
348,96,54433,2,8,L|390:38,2,70
320,304,54808,1,8,0:0:0:0:
320,304,54995,1,8,0:0:0:0:
452,228,55183,1,8,0:0:0:0:
452,228,55370,2,2,B|384:224|384:224|320:164|240:232,1,210
255,220,55745,2,2,B|207:188|207:188|135:252|135:252|63:204,1,210
88,220,56120,5,8,0:0:0:0:
144,96,56307,2,2,L|96:40,2,70
376,336,56682,5,8,0:0:0:0:
360,304,56776,1,8,0:0:0:0:
344,272,56869,1,8,0:0:0:0:
328,240,56963,1,8,0:0:0:0:
316,212,57057,6,2,B|293:141|293:141|368:79,1,140
476,52,57431,2,2,B|500:128|444:184,1,140
36,52,57806,2,2,B|12:128|68:184,1,140
184,104,58181,2,2,B|236:168|192:236,1,140
447,203,58556,5,8,0:0:0:0:
65,181,58743,1,8,0:0:0:0:
319,151,58930,1,8,0:0:0:0:
193,233,59118,1,8,0:0:0:0:
280,304,59305,5,8,0:0:0:0:
319,151,59493,1,8,0:0:0:0:
193,233,59680,1,8,0:0:0:0:
232,80,59867,1,8,0:0:0:0:
368,56,60055,6,2,L|432:88,1,70
456,152,60242,2,2,L|392:184,1,70
336,224,60430,2,2,L|368:288,1,70
312,328,60617,2,2,L|249:296,2,70
108,314,60992,2,2,L|172:344,2,70
416,120,61366,5,2,0:0:0:0:
384,96,61460,1,2,0:0:0:0:
344,80,61554,2,2,L|272:64,3,70
232,80,61929,5,8,0:0:0:0:
216,120,62022,1,8,0:0:0:0:
200,160,62116,1,8,0:0:0:0:
184,200,62210,1,8,0:0:0:0:
184,240,62303,5,6,0:0:0:0:
216,272,62397,1,2,0:0:0:0:
256,280,62491,1,2,0:0:0:0:
296,264,62584,1,2,0:0:0:0:
320,232,62678,1,2,0:0:0:0:
352,208,62772,1,2,0:0:0:0:
392,208,62866,1,2,0:0:0:0:
424,232,62959,1,2,0:0:0:0:
432,264,63053,1,2,0:0:0:0:
256,192,63240,12,4,64552,0:0:0:0:
