osu file format v4

[General]
AudioFilename: 02-50 NIKO - NIGHT OF FIRE.ogg
AudioLeadIn: 0
AudioHash: efbb3bccd52e1e665c23bc4c6456a832
PreviewTime: -1
SampleSet: Normal

[Metadata]
Title:NIGHT OF FIRE
Artist:Niko
Creator:Bonesnake
Version:Easy

[Difficulty]
HPDrainRate:3
CircleSize:5
OverallDifficulty:3
SliderMultiplier: 1.4
SliderTickRate: 2

[Events]
0,0,"1.jpg"
2,35215,38380
2,70408,74905
2,131283,135780
3,0,163,162,255

[TimingPoints]
12,380.469245402663,4,1,0

[HitObjects]
32,32,1533,5,0,
192,32,2294,1,0,
256,352,3055,6,0,B|256:352|384:256|448:160|448:64|96:96,1,560
96,192,5148,1,0,
480,32,6099,5,0,
320,32,7621,1,0,
256,352,9143,6,0,B|256:352|128:256|64:160|64:64|416:32,1,560
384,160,11235,1,0,
96,256,12187,6,0,B|96:256|224:256|256:224|256:288|352:32,1,350
224,0,13708,6,2,B|224:0|-27:-12|0:224|32:320|224:352,1,560
288,0,16752,6,2,B|288:0|539:-12|512:224|480:320|288:352,1,560
160,352,19035,1,0,
32,160,19796,5,0,
224,160,20557,1,0,
416,160,21318,5,0,
320,256,22079,1,0,
128,256,22840,5,0,
128,64,23601,1,0,
320,64,24362,5,0,
416,64,24742,1,0,
416,160,25122,1,0,
320,160,25503,1,0,
256,256,26074,5,0,
160,224,26644,2,0,B|160:224|64:160|32:128,1,140
32,32,27405,2,6,B|32:32|372:18|450:41|480:256,1,560
384,288,29308,5,0,
288,320,29688,1,0,
192,320,30069,1,0,
96,288,30449,2,6,B|96:288|569:22|32:0|32:32,1,560
256,192,32351,12,4,35015
192,32,39580,6,0,B|192:32|352:32,1,140
256,96,40341,2,0,B|256:96|256:192,1,70
224,224,41102,5,0,
128,224,41483,1,0,
128,128,41863,1,0,
352,128,42623,5,0,
448,128,43004,1,0,
448,224,43384,1,0,
448,320,43765,1,0,
352,320,44146,6,0,B|352:320|160:320|64:192|64:64,1,420
128,32,45668,6,0,B|128:32|288:32,1,140
192,96,46429,2,0,B|192:96|192:192,1,70
192,32,47570,5,0,
192,128,47951,1,0,
192,224,48331,1,0,
320,224,49092,5,0,
320,128,49473,1,0,
320,32,49853,1,0,
224,32,50233,6,2,B|224:32|128:64|-34:189|256:352,1,420
224,256,51755,6,0,B|224:256|352:256|384:224|384:288|384:32,1,350
96,288,53467,6,0,B|96:288|96:64,1,210
192,32,54419,1,0,
224,160,55179,5,0,
320,160,55560,1,0,
416,160,55940,1,0,
512,160,56321,1,0,
480,256,56701,5,0,
480,352,57082,1,0,
384,352,57462,1,0,
288,352,57843,6,0,B|288:352|160:352|128:320|128:384|128:128,1,350
64,32,59555,6,2,B|64:32|448:32,1,350
448,160,61077,6,2,B|448:160|20:160,1,420
32,256,62789,5,0,
128,256,63169,1,0,
224,256,63550,1,0,
320,256,63930,2,4,B|320:256|320:160,1,70
320,32,64691,5,0,
224,32,65072,1,0,
128,32,65452,6,2,B|128:32|32:96|32:288|160:352|256:352,2,420
448,192,68876,5,0,
448,320,69257,1,0,
352,320,69637,2,4,B|352:320|256:256|256:128,1,210
32,64,76105,6,0,B|32:64|128:0|320:0|448:64,1,420
512,128,77627,6,0,B|512:128|480:192|384:224|256:256|90:230|-32:128,1,560
0,64,79530,5,2,
96,64,79910,1,2,
160,128,80291,1,2,
160,224,80671,2,2,B|160:224|0:224,3,140
32,320,82193,6,0,B|32:320|128:384|320:384|448:320,1,420
512,256,83715,6,0,B|512:256|480:192|384:160|256:128|90:154|-32:256,1,560
0,320,85618,5,2,
96,320,85998,1,2,
160,256,86379,1,2,
160,160,86759,2,2,B|160:160|0:160,3,140
32,64,88280,5,0,
128,64,88661,1,0,
224,64,89041,1,0,
416,32,89612,6,0,B|416:32|480:256|352:352|128:320,1,490
64,224,91324,5,0,
96,64,92085,5,0,
224,160,92846,5,0,
320,160,93226,1,0,
320,320,93987,5,0,
224,320,94368,1,0,
128,320,94748,1,0,
128,224,95129,1,0,
128,128,95510,5,0,
224,128,95890,1,0,
320,128,96270,1,0,
448,96,97031,6,0,B|448:96|448:256,3,140
448,352,98743,1,4,
320,352,99314,5,0,
320,256,99694,1,0,
320,256,99885,1,0,
353,336,100455,6,0,B|353:336|225:336|193:304|193:368|193:112,1,350
416,288,102167,6,0,B|416:288|416:64,1,210
320,32,103119,1,0,
288,160,103879,5,0,
192,160,104260,1,0,
96,160,104640,1,0,
0,160,105021,1,0,
32,256,105401,5,0,
32,352,105782,1,0,
128,352,106162,1,0,
224,352,106543,6,0,B|224:352|352:352|384:320|384:384|384:128,1,350
448,32,108255,6,2,B|448:32|64:32,1,350
64,160,109777,6,2,B|64:160|492:160,1,420
480,256,111489,5,0,
384,256,111869,1,0,
288,256,112250,1,0,
353,336,112630,6,0,B|353:336|225:336|193:304|193:368|193:112,1,350
96,320,114153,5,0,
192,320,114534,1,0,
288,320,114914,1,0,
384,320,115294,1,0,
352,224,115674,6,0,B|352:224|192:224,3,140
64,224,117577,5,0,
64,128,117957,1,0,
64,32,118338,1,4,
160,32,118718,5,0,
160,128,119098,1,0,
160,224,119479,1,0,
160,224,119669,1,0,
32,320,120430,6,0,B|32:320|32:192|32:32|0:32|128:32,1,350
224,32,121952,6,0,B|224:32|512:32|480:288,1,420
416,352,123664,5,0,
320,352,124044,1,0,
224,352,124425,1,0,
128,352,124806,1,0,
128,352,124996,1,0,
256,32,126327,5,0,
256,128,126708,1,0,
256,224,127088,1,0,
256,320,127469,1,0,
352,320,127849,5,0,
352,224,128230,1,0,
352,128,128610,1,0,
352,32,128991,1,0,
256,32,129371,5,0,
256,128,129752,1,0,
256,224,130132,6,0,B|256:224|128:224|96:192|96:256|96:0,1,350
192,96,136980,6,2,B|192:96|288:64|352:96,2,140
128,96,137932,1,2,
32,160,138883,1,0,
32,256,139263,1,0,
128,256,139644,1,0,
224,256,140024,6,0,B|224:256|384:256,3,140
512,256,141926,5,0,
480,160,142307,1,0,
384,160,142687,1,0,
320,96,143068,6,2,B|320:96|224:64|160:96,2,140
384,96,144020,1,2,
480,160,144971,1,0,
480,256,145351,1,0,
384,256,145732,1,0,
288,256,146112,6,0,B|288:256|128:256,3,140
32,160,148014,5,0,
96,96,148395,1,0,
192,96,148775,1,0,
288,96,149155,5,0,
288,192,149536,1,0,
288,288,149916,1,0,
288,288,150107,1,4,
