osu file format v10

[General]
AudioFilename: Niko - Made of Fire.mp3
AudioLeadIn: 1000
PreviewTime: 40703
Countdown: 0
SampleSet: None
StackLeniency: 0.7
Mode: 0
LetterboxInBreaks: 0

[Editor]
DistanceSpacing: 1.6
BeatDivisor: 4
GridSize: 8

[Metadata]
Title:Made of Fire
TitleUnicode:Made of Fire
Artist:Niko
ArtistUnicode:Niko
Creator:Jupiter
Version:Fire
Source:
Tags:insane stepmania
BeatmapID:186048
BeatmapSetID:62795

[Difficulty]
HPDrainRate:7
CircleSize:4
OverallDifficulty:7
ApproachRate:9
SliderMultiplier:1.8
SliderTickRate:1

[Events]
//Background and Video events
0,0,"27313177.jpg"
//Break Periods
//Storyboard Layer 0 (Background)
//Storyboard Layer 1 (Fail)
//Storyboard Layer 2 (Pass)
//Storyboard Layer 3 (Foreground)
//Storyboard Sound Samples
//Background Colour Transformations
3,100,163,162,255

[TimingPoints]
368,368.098159509202,4,1,0,70,1,0
1472,-66.6666666666667,4,1,0,70,0,0
1840,-100,4,1,0,70,0,0
2944,-66.6666666666667,4,1,0,70,0,0
3678,370.37037037037,4,1,0,70,1,0
9233,-66.6666666666667,4,1,0,70,0,0
9603,-100,4,1,0,70,0,0
15159,-66.6666666666667,4,1,0,70,0,0
15518,370.37037037037,4,1,0,60,1,0
18480,-66.6666666666667,4,1,0,60,0,0
18573,-66.6666666666667,4,1,0,10,0,0
18666,-66.6666666666667,4,1,0,60,0,0
18851,-66.6666666666667,4,1,0,10,0,0
19036,-66.6666666666667,4,1,0,60,0,0
19221,-66.6666666666667,4,1,0,10,0,0
19406,-66.6666666666667,4,1,0,60,0,0
19592,-66.6666666666667,4,1,0,10,0,0
19777,-66.6666666666667,4,1,0,60,0,0
19962,-100,4,1,0,60,0,0
24406,-66.6666666666667,4,1,0,60,0,0
24499,-66.6666666666667,4,1,0,10,0,0
24592,-66.6666666666667,4,1,0,60,0,0
24777,-66.6666666666667,4,1,0,10,0,0
24962,-66.6666666666667,4,1,0,60,0,0
25147,-66.6666666666667,4,1,0,10,0,0
25332,-66.6666666666667,4,1,0,60,0,0
25517,-66.6666666666667,4,1,0,10,0,0
25703,-66.6666666666667,4,1,0,60,0,0
27369,-100,4,1,0,60,0,0
39777,-100,4,1,0,10,0,0
40718,370.37037037037,4,1,0,70,1,1
40810,-100,4,1,0,70,0,0
61458,-66.6666666666667,4,1,0,70,0,0
64398,370.37037037037,4,1,0,70,1,0
69953,-66.6666666666667,4,1,0,70,0,0
70323,-100,4,1,0,70,0,0

[Colours]
Combo1 : 247,0,0
Combo2 : 255,160,66
Combo3 : 170,170,255

[HitObjects]
256,120,368,1,4,0:0:0
248,156,460,1,0,0:0:0
256,192,552,1,4,0:0:0
264,228,644,1,0,0:0:0
256,264,736,5,6,0:0:0
172,228,1104,1,4,0:0:0
340,156,1472,2,0,B|408:152|474:155,1,134.999995976687,6|0,0:0|0:0,0:0:0
475,156,2024,5,0,0:0:0
476,280,2208,2,0,B|412:288|340:280,1,135,6|0,0:0|0:0,0:0:0
356,324,2576,2,0,B|272:296,1,90,4|0,0:0|0:0,0:0:0
196,344,2944,2,0,B|100:248,1,134.999995976687,6|0,0:0|0:0,0:0:0
100,248,3496,5,0,0:0:0
48,128,3678,2,0,B|116:140|116:140|174:109,1,135,0|0,0:0|0:0,0:0:0
212,84,4048,1,8,0:0:0
268,152,4233,1,0,0:0:0
308,128,4326,1,0,0:0:0
368,196,4511,1,0,0:0:0
404,172,4603,1,0,0:0:0
472,232,4789,2,0,B|508:204,2,45,8|0|0,0:0|0:0|0:0,0:0:0
440,260,5066,1,0,0:0:0
400,284,5159,5,0,0:0:0
312,264,5344,1,0,0:0:0
276,288,5437,1,0,0:0:0
196,244,5622,1,0,0:0:0
160,268,5715,1,0,0:0:0
92,208,5900,2,0,B|55:233,3,45,0|0|0|0,0:0|0:0|0:0|0:0,0:0:0
128,184,6270,1,8,0:0:0
204,136,6455,1,0,0:0:0
276,84,6640,5,0,0:0:0
310,74,6733,1,0,0:0:0
346,76,6826,1,0,0:0:0
378,91,6918,1,0,0:0:0
403,116,7011,1,8,0:0:0
414,149,7103,1,0,0:0:0
412,185,7196,1,0,0:0:0
397,217,7289,1,0,0:0:0
367,237,7381,2,0,B|348:248|324:256,3,45,0|0|0|0,0:0|0:0|0:0|0:0,0:0:0
272,184,7752,2,0,B|291:173|313:165,3,45,8|0|0|0,0:0|0:0|0:0|0:0,0:0:0
232,204,8122,6,0,B|196:224|150:242,1,90,0|0,0:0|0:0,0:0:0
38,237,8400,2,0,B|64:205|100:172,1,90
256,296,8770,2,0,B|345:299,1,90
384,300,9048,1,0,0:0:0
420,300,9140,1,0,0:0:0
456,300,9233,6,0,B|456:168|456:168|472:152|472:152|472:36,1,269.999991953373,8|0,0:0|0:0,0:0:0
392,52,9696,1,0,0:0:0
392,64,9789,2,0,B|392:116,1,45
316,68,9974,1,8,0:0:0
316,80,10066,2,0,B|316:132,1,45
240,84,10252,1,0,0:0:0
240,96,10344,2,0,B|240:144,1,45
164,100,10529,1,0,0:0:0
164,112,10622,2,0,B|164:160,1,45,0|8,0:0|0:0,0:0:0
88,120,10807,1,0,0:0:0
88,132,10900,2,0,B|88:180,1,45
12,148,11085,6,0,B|12:240,1,90
12,276,11363,1,0,0:0:0
88,224,11548,1,0,0:0:0
88,268,11640,1,0,0:0:0
164,220,11826,1,0,0:0:0
164,256,11918,1,0,0:0:0
164,292,12011,1,0,0:0:0
164,328,12103,1,0,0:0:0
168,364,12196,2,0,B|228:356|228:356|236:344|236:344|296:336,1,135,8|0,0:0|0:0,0:0:0
313,334,12566,5,0,0:0:0
330,332,12659,1,0,0:0:0
348,330,12752,2,0,B|396:324,1,45
348,256,12937,1,8,0:0:0
365,254,13030,1,0,0:0:0
383,252,13123,2,0,B|431:246,1,45
388,176,13307,1,0,0:0:0
405,174,13400,1,0,0:0:0
423,172,13492,1,0,0:0:0
441,171,13585,1,0,0:0:0
458,169,13677,1,8,0:0:0
468,152,13770,1,0,0:0:0
476,136,13863,1,0,0:0:0
484,120,13955,1,0,0:0:0
492,104,14048,6,0,B|520:20,1,90
400,96,14326,2,0,B|312:100,1,90
180,108,14696,2,0,B|92:112,1,90
93,120,14974,1,0,0:0:0
96,128,15066,1,0,0:0:0
99,136,15159,2,0,B|300:128,1,202.49999396503,0|0,0:0|0:0,0:0:0
380,124,15518,5,0,0:0:0
468,124,15703,1,0,0:0:0
420,48,15888,1,0,0:0:0
420,32,15980,1,0,0:0:0
340,200,16166,2,0,B|368:208|384:252|376:300|346:314,1,135
300,260,16536,2,0,B|256:272,1,45,0|0,0:0|0:0,0:0:0
100,312,16814,1,0,0:0:0
164,252,16999,1,0,0:0:0
144,164,17184,5,0,0:0:0
56,152,17369,1,0,0:0:0
24,168,17462,1,0,0:0:0
236,192,17647,2,0,B|352:124,1,135
428,208,18110,1,0,0:0:0
392,196,18203,1,0,0:0:0
360,184,18295,1,0,0:0:0
328,172,18388,1,0,0:0:0
296,160,18480,6,0,B|172:108,1,134.999995976687,0|4,0:0|0:0,0:0:0
148,216,18851,2,0,B|26:273,1,134.999995976687,0|4,0:0|0:0,0:0:0
364,168,19221,2,0,B|485:110,1,134.999995976687,0|4,0:0|0:0,0:0:0
216,224,19592,6,0,B|340:276,2,134.999995976687,0|4|0,0:0|0:0|0:0,0:0:0
180,144,20147,1,0,0:0:0
236,72,20332,1,0,0:0:0
324,80,20517,1,0,0:0:0
364,160,20703,1,0,0:0:0
216,224,20888,1,0,0:0:0
208,228,20980,1,0,0:0:0
200,232,21073,1,0,0:0:0
192,236,21166,1,0,0:0:0
184,240,21258,1,0,0:0:0
176,244,21351,1,0,0:0:0
168,248,21443,5,0,0:0:0
84,280,21629,1,0,0:0:0
172,272,21814,1,0,0:0:0
216,268,21906,1,0,0:0:0
148,356,22092,2,0,B|288:336,1,135
360,352,22462,1,0,0:0:0
376,348,22555,2,0,B|472:332,2,90
348,264,23110,5,0,0:0:0
424,216,23295,1,0,0:0:0
460,224,23388,1,0,0:0:0
392,80,23573,2,0,B|256:104,1,135
384,152,24036,1,0,0:0:0
260,124,24221,1,0,0:0:0
164,76,24406,6,0,B|32:100,1,134.999995976687,0|4,0:0|0:0,0:0:0
348,76,24776,2,0,B|480:100,1,134.999995976687,0|4,0:0|0:0,0:0:0
172,176,25147,2,0,B|95:286,1,134.999995976687,0|4,0:0|0:0,0:0:0
340,176,25516,2,0,B|416:286,1,134.999995976687,0|4,0:0|0:0,0:0:0
256,320,25888,5,0,0:0:0
380,268,26073,1,0,0:0:0
256,216,26258,1,0,0:0:0
132,268,26443,1,0,0:0:0
256,320,26629,1,0,0:0:0
256,120,26814,1,0,0:0:0
256,108,26906,1,0,0:0:0
256,96,26999,1,0,0:0:0
256,84,27092,1,0,0:0:0
256,72,27184,1,0,0:0:0
256,60,27277,1,0,0:0:0
256,48,27369,6,0,B|180:48|180:48|160:56|160:56|76:56,1,180
256,336,28110,2,0,B|332:336|332:336|352:328|352:328|436:328,1,180
312,304,28666,6,2,B|104:304,1,180,2|0,0:0|0:0,0:0:0
152,216,29221,1,2,0:0:0
140,204,29406,1,0,0:0:0
360,216,29592,1,2,0:0:0
372,204,29777,1,0,0:0:0
256,124,29962,1,2,0:0:0
256,108,30147,1,0,0:0:0
256,92,30332,6,0,B|292:64|332:48|332:48|376:52|420:74,1,180
256,292,31073,2,0,B|220:320|180:336|180:336|136:332|91:309,1,180
56,268,31629,5,2,0:0:0
60,216,31814,1,0,0:0:0
100,180,31999,1,0,0:0:0
152,172,32184,1,2,0:0:0
204,192,32369,1,0,0:0:0
252,220,32555,1,2,0:0:0
304,224,32740,1,0,0:0:0
356,200,32925,1,0,0:0:0
368,176,33017,1,0,0:0:0
376,152,33110,1,0,0:0:0
376,124,33203,1,0,0:0:0
372,100,33295,6,0,B|428:168|428:168|432:212|417:258,1,180
140,284,34036,2,0,B|84:216|84:216|80:172|94:125,1,180
180,152,34592,6,2,B|200:112|256:96|312:112|332:152,1,180,2|0,0:0|0:0,0:0:0
256,200,35147,2,0,B|256:292,1,90,2|0,0:0|0:0,0:0:0
172,256,35517,2,0,B|136:344,1,90,2|0,0:0|0:0,0:0:0
340,256,35888,2,0,B|376:344,1,90,2|0,0:0|0:0,0:0:0
172,128,36258,5,0,0:0:0
137,44,36443,1,0,0:0:0
80,116,36629,1,0,0:0:0
256,200,36814,1,0,0:0:0
340,128,36999,1,0,0:0:0
374,44,37184,1,0,0:0:0
432,116,37370,1,0,0:0:0
396,200,37555,6,2,B|400:276|400:276|412:296|412:296|416:380,1,180,2|0,0:0|0:0,0:0:0
324,324,38110,1,2,0:0:0
244,364,38295,1,0,0:0:0
260,256,38480,1,2,0:0:0
172,268,38666,1,0,0:0:0
228,176,38851,1,2,0:0:0
140,160,39036,1,0,0:0:0
224,92,39221,6,2,B|180:72|180:72|256:28|256:28|332:72|332:72|292:92,1,270,2|0,0:0|0:0,0:0:0
432,88,40718,5,0,0:0:0
390,105,40810,1,0,0:0:0
366,143,40903,1,0,0:0:0
367,187,40995,1,0,0:0:0
393,223,41088,1,8,0:0:0
436,234,41180,1,0,0:0:0
479,222,41273,1,0,0:0:0
436,160,41366,1,0,0:0:0
436,160,41458,2,0,B|520:128,1,90
266,97,41829,6,0,B|308:80,3,45,8|0|0|0,0:0|0:0|0:0|0:0,0:0:0
224,116,42199,1,0,0:0:0
180,132,42292,1,0,0:0:0
136,148,42384,1,0,0:0:0
92,164,42477,1,0,0:0:0
52,180,42569,1,8,0:0:0
52,224,42662,1,0,0:0:0
60,268,42755,1,0,0:0:0
132,232,42847,1,0,0:0:0
132,232,42940,2,0,B|144:320,1,90
216,284,43310,6,0,B|224:340,1,45,8|0,0:0|0:0,0:0:0
296,292,43495,2,0,B|304:348,1,45
376,300,43680,1,0,0:0:0
380,317,43773,1,0,0:0:0
383,334,43866,1,0,0:0:0
464,192,44051,1,8,0:0:0
460,175,44144,1,0,0:0:0
457,158,44237,1,0,0:0:0
452,140,44329,2,0,B|408:144|408:144|380:168|380:168|328:172,1,135
336,84,44792,5,8,0:0:0
248,96,44977,1,0,0:0:0
48,216,45162,1,0,0:0:0
136,204,45347,1,0,0:0:0
336,300,45532,1,8,0:0:0
248,288,45717,1,0,0:0:0
84,128,45903,6,0,B|40:132,3,45
172,89,46273,2,0,B|136:64,3,45,8|0|0|0,0:0|0:0|0:0|0:0,0:0:0
248,56,46643,2,0,B|288:140,1,90
336,192,46921,1,0,0:0:0
497,175,47014,2,0,B|408:184,1,90,8|0,0:0|0:0,0:0:0
336,192,47292,1,0,0:0:0
264,200,47384,2,0,B|176:208,1,90
76,316,47755,5,8,0:0:0
92,312,47847,1,0,0:0:0
108,308,47940,1,0,0:0:0
124,304,48032,1,0,0:0:0
140,300,48125,2,0,B|232:276,1,90
264,340,48403,1,0,0:0:0
280,332,48495,2,0,B|372:304,1,90,8|0,0:0|0:0,0:0:0
396,372,48773,1,0,0:0:0
412,360,48866,2,0,B|504:332,1,90
336,216,49236,5,8,0:0:0
300,187,49329,1,0,0:0:0
289,143,49421,1,0,0:0:0
301,99,49514,1,0,0:0:0
336,71,49606,5,0,0:0:0
381,66,49699,1,0,0:0:0
422,83,49792,1,0,0:0:0
446,120,49884,1,0,0:0:0
449,165,49977,2,0,B|446:214,3,45,8|0|0|0,0:0|0:0|0:0|0:0,0:0:0
368,144,50347,5,0,0:0:0
383,195,50440,1,0,0:0:0
363,244,50532,1,0,0:0:0
315,269,50625,1,0,0:0:0
261,262,50717,2,0,B|219:239,3,45,8|0|0|0,0:0|0:0|0:0|0:0,0:0:0
292,184,51088,5,0,0:0:0
234,160,51180,1,0,0:0:0
173,177,51273,1,0,0:0:0
139,230,51366,1,0,0:0:0
154,290,51458,2,0,B|174:334,3,45,8|0|0|0,0:0|0:0|0:0|0:0,0:0:0
76,276,51829,6,0,B|60:236,1,45
103,119,52014,2,0,B|100:164,1,45
184,104,52199,2,0,B|208:60,1,45,8|0,0:0|0:0,0:0:0
320,79,52384,2,0,B|280:100,1,45
368,144,52569,6,0,B|464:152,1,90
464,168,52847,1,0,0:0:0
472,184,52940,2,8,B|376:176,1,90,8|0,0:0|0:0,0:0:0
376,192,53217,1,0,0:0:0
368,208,53310,2,0,B|464:216,1,90
400,308,53680,5,8,0:0:0
373,304,53773,1,0,0:0:0
346,301,53866,1,0,0:0:0
319,296,53958,1,0,0:0:0
292,292,54051,1,0,0:0:0
204,276,54236,1,0,0:0:0
176,296,54329,1,0,0:0:0
176,296,54421,2,0,B|88:272,1,90,8|0,0:0|0:0,0:0:0
88,196,54699,1,0,0:0:0
88,196,54792,2,0,B|0:168,1,90
120,124,55162,6,0,B|168:140,1,45,8|0,0:0|0:0,0:0:0
192,72,55347,2,0,B|240:88,1,45
284,32,55532,1,0,0:0:0
300,39,55625,1,0,0:0:0
316,46,55717,1,0,0:0:0
388,192,55903,1,8,0:0:0
372,184,55995,1,0,0:0:0
356,176,56088,1,0,0:0:0
340,168,56180,2,0,B|280:136|280:136|225:174,1,135
288,240,56643,5,8,0:0:0
256,324,56829,1,0,0:0:0
88,192,57014,1,0,0:0:0
80,188,57106,1,0,0:0:0
72,184,57199,1,0,0:0:0
424,192,57384,1,8,0:0:0
432,188,57476,1,0,0:0:0
440,184,57569,1,0,0:0:0
260,48,57755,5,0,0:0:0
244,72,57847,1,0,0:0:0
232,96,57940,1,0,0:0:0
244,120,58032,1,0,0:0:0
260,140,58125,1,8,0:0:0
276,160,58217,1,0,0:0:0
292,180,58310,1,0,0:0:0
276,204,58403,1,0,0:0:0
260,224,58495,5,0,0:0:0
180,180,58680,1,0,0:0:0
172,188,58773,1,0,0:0:0
164,196,58866,2,0,B|96:260,1,90,8|0,0:0|0:0,0:0:0
192,280,59143,1,0,0:0:0
176,288,59236,2,0,B|260:324,1,90
332,272,59606,6,0,B|376:292,1,45,8|0,0:0|0:0,0:0:0
392,212,59792,2,0,B|432:232,1,45
492,176,59977,5,0,0:0:0
452,152,60069,1,0,0:0:0
412,128,60162,1,0,0:0:0
320,40,60347,1,8,0:0:0
276,48,60440,1,0,0:0:0
232,56,60532,1,0,0:0:0
188,172,60717,1,0,0:0:0
144,156,60810,1,0,0:0:0
100,140,60903,1,0,0:0:0
32,36,61088,6,0,B|32:80,1,45,8|0,0:0|0:0,0:0:0
100,140,61273,2,0,B|100:192,1,45
32,244,61458,2,2,B|35:316|118:379|195:360|195:360|233:327,1,269.999991953373,6|8,0:0|0:0,0:0:0
282,52,62014,1,0,0:0:0
480,140,62199,2,2,B|476:67|393:4|316:23|316:23|278:56,1,269.999991953373,6|8,0:0|0:0,0:0:0
229,331,62755,1,0,0:0:0
55,131,62940,6,2,B|144:36|144:36|282:52,1,269.999991953373,6|8,0:0|0:0,0:0:0
229,331,63495,1,0,0:0:0
456,252,63680,2,2,B|368:348|368:348|229:331,1,269.999991953373,6|8,0:0|0:0,0:0:0
282,52,64236,1,0,0:0:0
420,64,64398,6,0,B|464:72|464:72|436:160,1,135
420,200,64768,1,8,0:0:0
332,192,64953,1,0,0:0:0
316,236,65046,1,0,0:0:0
228,228,65231,1,0,0:0:0
216,272,65323,1,0,0:0:0
124,268,65509,2,0,B|108:310,1,45,8|0,0:0|0:0,0:0:0
140,224,65694,1,0,0:0:0
156,180,65786,1,0,0:0:0
172,140,65879,5,0,0:0:0
260,156,66064,1,0,0:0:0
272,112,66157,1,0,0:0:0
360,136,66342,1,0,0:0:0
368,92,66435,1,0,0:0:0
456,116,66620,2,0,B|459:71,3,45
452,160,66990,1,8,0:0:0
448,204,67083,1,0,0:0:0
444,248,67175,1,0,0:0:0
440,292,67268,1,0,0:0:0
480,328,67360,5,0,0:0:0
442,353,67453,1,0,0:0:0
396,356,67546,1,0,0:0:0
354,339,67638,1,0,0:0:0
332,299,67731,1,8,0:0:0
297,270,67823,1,0,0:0:0
252,263,67916,1,0,0:0:0
208,274,68009,1,0,0:0:0
173,302,68101,2,0,B|153:342,3,45
128,232,68472,2,0,B|87:250,3,45,8|0|0|0,0:0|0:0|0:0|0:0,0:0:0
96,156,68842,5,0,0:0:0
144,80,69027,1,0,0:0:0
144,80,69120,2,0,B|54:80,1,90
368,80,69490,2,0,B|457:80,1,90
456,100,69768,1,0,0:0:0
452,116,69860,1,0,0:0:0
448,132,69953,6,0,B|328:132|328:132|312:144|312:144|182:144,1,269.999991953373
143,154,70416,1,0,0:0:0
122,183,70509,1,0,0:0:0
113,217,70601,1,0,0:0:0
120,252,70694,1,8,0:0:0
142,279,70786,1,0,0:0:0
176,290,70879,1,0,0:0:0
212,288,70972,1,0,0:0:0
243,270,71064,5,0,0:0:0
266,242,71157,1,0,0:0:0
298,226,71249,1,0,0:0:0
334,223,71342,1,0,0:0:0
367,236,71435,1,8,0:0:0
392,261,71527,1,0,0:0:0
401,295,71620,1,0,0:0:0
392,329,71712,1,0,0:0:0
320,300,71805,6,0,B|296:336|279:380,1,90
188,216,72083,2,0,B|212:180|229:136,1,90
244,92,72360,1,0,0:0:0
408,108,72546,1,0,0:0:0
396,124,72638,1,0,0:0:0
384,140,72731,1,0,0:0:0
372,156,72823,1,0,0:0:0
360,172,72916,2,0,B|452:172,1,90,8|0,0:0|0:0,0:0:0
408,248,73194,5,0,0:0:0
396,248,73286,2,0,B|348:248,1,45
292,292,73472,1,0,0:0:0
280,292,73564,2,0,B|232:292,1,45,0|8,0:0|0:0,0:0:0
180,248,73749,1,0,0:0:0
168,248,73841,2,0,B|120:248,1,45
76,192,74027,1,0,0:0:0
64,192,74119,2,0,B|16:192,1,45
120,136,74305,1,0,0:0:0
132,136,74397,2,0,B|180:136,1,45,8|0,0:0|0:0,0:0:0
236,92,74583,1,0,0:0:0
248,92,74675,2,0,B|296:92,1,45,0|4,0:0|0:0,0:0:0
416,116,74953,5,0,0:0:0
400,124,75046,2,0,B|492:124,1,90
300,248,75416,2,0,B|208:248,1,90
196,248,75694,1,0,0:0:0
184,248,75786,1,0,0:0:0
172,248,75879,2,0,B|128:248|128:248|112:256|112:256|38:256,1,135
40,184,76249,5,4,0:0:0
40,112,76342,1,0,0:0:0
256,40,76620,1,4,0:0:0
256,112,76712,1,0,0:0:0
472,200,76990,1,4,0:0:0
472,272,77083,1,0,0:0:0
256,344,77360,1,4,0:0:0
256,272,77452,1,0,0:0:0
256,192,77731,5,4,0:0:0
