osu file format v14

[General]
AudioFilename: Mirai Nikki - Opening (Nika Lenina Russian Cover) HD.mp3
AudioLeadIn: 1999
PreviewTime: 52240
Countdown: 0
SampleSet: Soft
StackLeniency: 0.7
Mode: 0
LetterboxInBreaks: 1
WidescreenStoryboard: 0

[Editor]
DistanceSpacing: 1.1
BeatDivisor: 4
GridSize: 4
TimelineZoom: 1

[Metadata]
Title:Kuusou Mesorogiwi (Russian Ver.) (TV Size)
TitleUnicode:Kuusou Mesorogiwi (Russian Ver.) (TV Size)
Artist:Nika Lenina
ArtistUnicode:Nika Lenina
Creator:Kuma-san
Version:Hard
Source:Mirai Nikki
Tags:fandub russian leyko [Ryuu] opening 未来日記
BeatmapID:146836
BeatmapSetID:46723

[Difficulty]
HPDrainRate:6
CircleSize:4
OverallDifficulty:6
ApproachRate:8
SliderMultiplier:0.8
SliderTickRate:1

[Events]
//Background and Video events
0,0,"918358.jpg",0,0
//Break Periods
//Storyboard Layer 0 (Background)
//Storyboard Layer 1 (Fail)
//Storyboard Layer 2 (Pass)
//Storyboard Layer 3 (Foreground)
//Storyboard Sound Samples

[TimingPoints]
132,260.869565217391,4,2,0,80,1,0
4305,-100,4,2,0,50,0,0
4436,-100,4,2,0,5,0,0
6392,-100,4,2,0,80,0,0
8614,-100,4,2,1,80,0,0
19958,-100,4,2,0,80,0,0
21001,-100,4,2,1,80,0,0
22045,-100,4,2,0,80,0,0
23349,-100,4,2,1,80,0,0
24131,-100,4,2,0,80,0,0
25175,-100,4,2,1,80,0,0
26218,-100,4,1,0,80,0,0
26740,-100,4,2,1,80,0,0
30392,-100,4,1,0,80,0,0
30458,-100,4,2,1,80,0,0
34305,-100,4,2,1,50,0,0
34566,-100,4,2,1,80,0,0
39718,-100,4,2,1,10,0,0
39849,-100,4,2,2,80,0,0
39979,-100,4,2,1,70,0,0
40110,-100,4,2,1,80,0,0
52305,-100,4,1,0,80,0,1
52566,-100,4,2,1,80,0,1
69001,-100,4,1,0,80,0,0
69262,-100,4,2,1,80,0,0
72653,-100,4,2,1,60,0,0
72914,-100,4,2,1,80,0,0
77349,-100,4,2,1,80,0,1
85697,-100,4,2,1,10,0,0

[Colours]
Combo1 : 136,0,0
Combo2 : 255,128,192
Combo3 : 103,103,103
Combo4 : 192,192,192

[HitObjects]
112,48,132,2,0,P|96:112|152:192,1,160,2|2,0:0|0:0,0:0:0:0:
232,184,914,1,0,0:0:0:0:
192,264,1175,2,0,P|256:324|320:288,1,160,2|2,0:0|0:0,0:0:0:0:
384,244,1958,1,2,0:0:0:0:
400,232,2088,1,0,0:0:0:0:
416,220,2218,6,0,P|460:160|424:84,1,160,2|2,0:0|0:0,0:0:0:0:
344,72,3001,1,0,0:0:0:0:
256,76,3262,2,0,P|160:72|136:124,1,160,2|2,0:0|0:0,0:0:0:0:
204,176,4045,1,0,0:0:0:0:
256,192,4305,12,0,6392,0:0:0:0:
256,32,6914,5,2,0:0:0:0:
208,108,7175,1,0,0:0:0:0:
256,180,7436,1,2,0:0:0:0:
304,108,7697,1,0,0:0:0:0:
392,108,7958,1,2,0:0:0:0:
392,108,8218,2,0,B|392:204,1,80,0|4,0:0|0:0,0:0:0:0:
384,276,8740,6,0,P|324:336|268:296,1,160,8|8,0:0|0:0,0:0:0:0:
188,332,9523,1,0,0:0:0:0:
104,308,9784,1,8,0:0:0:0:
56,236,10045,1,0,0:0:0:0:
40,148,10305,2,0,P|72:68|136:76,1,160,8|8,0:0|0:0,0:0:0:0:
176,152,11088,6,0,B|188:236,1,80,0|8,0:0|0:0,0:0:0:0:
268,200,11610,2,0,B|280:288,1,80,0|8,0:0|0:0,0:0:0:0:
364,264,12132,2,0,B|352:184,1,80,0|8,0:0|0:0,0:0:0:0:
332,100,12653,1,4,0:0:0:0:
256,52,12914,6,0,B|176:80,1,80,8|0,0:0|0:0,0:0:0:0:
100,116,13436,1,8,0:0:0:0:
64,196,13697,1,0,0:0:0:0:
88,280,13958,2,0,B|176:280,1,80,8|0,0:0|0:0,0:0:0:0:
212,280,14349,1,0,0:0:0:0:
256,280,14479,1,8,0:0:0:0:
344,284,14740,6,0,B|396:280|396:280|440:268,1,80,0|8,0:0|0:0,0:0:0:0:
460,192,15262,2,0,P|464:132|452:116,1,80,0|8,0:0|0:0,0:0:0:0:
444,32,15784,2,0,B|364:32,1,80,0|8,0:0|0:0,0:0:0:0:
276,36,16305,2,0,B|264:128,1,80,0|8,0:0|0:0,0:0:0:0:
176,108,16827,5,4,0:0:0:0:
96,144,17088,1,8,0:0:0:0:
72,228,17349,1,0,0:0:0:0:
80,316,17610,1,8,0:0:0:0:
160,352,17871,1,0,0:0:0:0:
160,352,18001,1,0,0:0:0:0:
204,276,18262,2,0,B|256:296|288:280|288:280|312:288,2,100
148,208,19175,5,8,0:0:0:0:
104,132,19436,1,0,0:0:0:0:
152,60,19697,1,8,0:0:0:0:
236,32,19958,2,0,B|236:80,1,40,0|2,0:0|0:0,0:0:0:0:
236,204,20479,2,0,B|236:160,1,40,0|2,0:0|0:0,0:0:0:0:
340,84,21001,5,0,0:0:0:0:
372,164,21262,1,8,0:0:0:0:
348,248,21523,1,0,0:0:0:0:
296,320,21784,1,8,0:0:0:0:
212,348,22045,1,0,0:0:0:0:
212,348,22175,1,0,0:0:0:0:
128,328,22436,2,0,P|88:276|104:216,1,120,0|2,0:0|0:0,0:0:0:0:
100,152,23088,5,0,0:0:0:0:
240,76,23349,1,8,0:0:0:0:
240,236,23610,1,0,0:0:0:0:
376,152,23871,1,8,0:0:0:0:
244,240,24132,1,2,0:0:0:0:
244,240,24262,1,2,0:0:0:0:
248,108,24653,1,2,0:0:0:0:
248,108,24784,1,2,0:0:0:0:
324,216,25175,5,0,0:0:0:0:
220,336,25436,1,0,0:0:0:0:
112,216,25697,1,0,0:0:0:0:
192,176,25958,1,8,0:0:0:0:
192,176,26218,2,0,B|252:112|232:80|232:80|252:20,2,160
132,240,27523,5,8,0:0:0:0:
60,188,27784,1,0,0:0:0:0:
40,100,28045,1,8,0:0:0:0:
100,36,28305,2,0,B|184:36,1,80,4|8,0:0|0:0,0:0:0:0:
340,36,28827,2,0,B|248:36,1,80,0|8,0:0|0:0,0:0:0:0:
120,112,29349,2,0,B|204:112,1,80,0|8,0:0|0:0,0:0:0:0:
280,152,29871,1,0,0:0:0:0:
364,176,30132,1,8,0:0:0:0:
420,240,30392,6,0,B|376:292|376:292|288:288|208:336,1,240
124,316,31436,1,0,0:0:0:0:
56,260,31697,1,8,0:0:0:0:
116,192,31958,1,0,0:0:0:0:
184,136,32218,1,8,0:0:0:0:
240,68,32479,6,0,B|284:88|320:104,2,80,4|8|0,0:0|0:0|0:0,0:0:0:0:
236,156,33262,1,8,0:0:0:0:
232,244,33523,1,0,0:0:0:0:
232,244,33653,1,0,0:0:0:0:
232,244,33784,2,0,B|164:288,1,80,8|0,0:0|0:0,0:0:0:0:
108,220,34305,1,8,0:0:0:0:
100,132,34566,6,0,B|140:104|140:104|152:80|208:72,2,120,4|0|8,0:0|0:0|0:0,0:0:0:0:
108,220,35610,1,0,0:0:0:0:
44,280,35871,1,8,0:0:0:0:
92,356,36131,1,0,0:0:0:0:
180,344,36392,1,8,0:0:0:0:
268,340,36653,5,0,0:0:0:0:
268,340,36914,2,0,B|212:264,1,80,8|0,0:0|0:0,0:0:0:0:
300,236,37436,1,8,0:0:0:0:
300,236,37697,2,0,B|252:168,2,80,4|8|0,0:0|0:0|0:0,0:0:0:0:
380,200,38479,1,8,0:0:0:0:
468,196,38740,5,4,0:0:0:0:
468,196,39001,2,0,B|464:108|456:112,1,80,8|0,0:0|0:0,0:0:0:0:
372,112,39523,1,8,0:0:0:0:
284,120,39784,2,0,B|200:108|176:144|176:144|124:160,1,160
52,192,40566,1,8,0:0:0:0:
88,272,40827,6,0,B|136:320|204:316,2,120,0|0|8,0:0|0:0|0:0,0:0:0:0:
104,232,41740,1,0,0:0:0:0:
144,212,41871,2,0,B|244:240|300:200,1,160
460,132,42914,5,4,0:0:0:0:
388,80,43175,1,8,0:0:0:0:
344,68,43305,1,0,0:0:0:0:
300,72,43436,1,0,0:0:0:0:
224,116,43697,2,0,B|232:160|232:160|220:196,1,80,8|0,0:0|0:0,0:0:0:0:
304,164,44218,2,0,B|308:208|308:208|328:248,1,80,8|0,0:0|0:0,0:0:0:0:
236,256,44740,2,0,B|248:296|248:296|240:348,1,80,8|0,0:0|0:0,0:0:0:0:
320,292,45262,6,0,B|324:332|324:332|364:352,1,80,8|0,0:0|0:0,0:0:0:0:
440,312,45784,1,8,0:0:0:0:
448,224,46045,1,0,0:0:0:0:
384,164,46305,1,8,0:0:0:0:
328,96,46566,2,0,B|264:52|264:52|234:47|172:52,1,160,0|4,0:0|0:0,0:0:0:0:
112,104,47349,1,8,0:0:0:0:
72,184,47610,1,0,0:0:0:0:
124,256,47871,1,8,0:0:0:0:
200,212,48131,6,0,P|232:252|232:288,1,80,0|8,0:0|0:0,0:0:0:0:
324,276,48653,2,0,P|324:220|344:200,1,80,0|8,0:0|0:0,0:0:0:0:
412,252,49175,2,0,P|436:208|432:176,1,80,0|8,0:0|0:0,0:0:0:0:
380,100,49697,2,0,B|360:64|308:48,1,80,0|8,0:0|0:0,0:0:0:0:
232,52,50218,2,0,B|136:52,1,80,0|8,0:0|0:0,0:0:0:0:
64,56,50740,1,0,0:0:0:0:
64,100,50871,1,0,0:0:0:0:
64,144,51001,1,8,0:0:0:0:
64,188,51131,1,0,0:0:0:0:
64,232,51262,1,4,0:0:0:0:
228,292,51784,6,0,B|280:360|380:336,1,160,0|4,0:0|0:0,0:0:0:0:
424,268,52566,2,0,B|424:176,1,80,8|0,0:0|0:0,0:0:0:0:
420,84,53088,2,0,B|372:84|336:84,1,80,8|0,0:0|0:0,0:0:0:0:
252,88,53610,2,0,B|148:88|132:184,2,160,8|8|8,0:0|0:0|0:0,0:0:0:0:
236,176,54914,1,0,0:0:0:0:
316,216,55175,2,0,B|348:184|336:132,1,80,8|0,0:0|0:0,0:0:0:0:
404,200,55697,2,0,B|420:252|372:276,1,80,8|0,0:0|0:0,0:0:0:0:
292,284,56218,5,8,0:0:0:0:
208,264,56479,2,0,B|208:172,1,80,4|8,0:0|0:0,0:0:0:0:
208,264,57001,2,0,B|208:344,1,80,0|8,0:0|0:0,0:0:0:0:
128,308,57523,1,0,0:0:0:0:
88,228,57784,1,8,0:0:0:0:
116,144,58045,1,0,0:0:0:0:
200,164,58305,1,8,0:0:0:0:
220,80,58566,2,0,B|260:100|308:76,1,80,0|8,0:0|0:0,0:0:0:0:
380,92,59088,2,0,P|408:140|412:168,2,80,0|8|0,0:0|0:0|0:0,0:0:0:0:
308,144,59871,5,8,0:0:0:0:
320,232,60131,1,0,0:0:0:0:
268,304,60392,1,8,0:0:0:0:
268,304,60653,2,0,B|196:352|100:320,1,160,4|0,0:0|0:0,0:0:0:0:
76,244,61436,1,8,0:0:0:0:
92,156,61697,1,0,0:0:0:0:
144,84,61958,1,8,0:0:0:0:
232,84,62218,5,0,0:0:0:0:
316,108,62479,1,8,0:0:0:0:
316,108,62740,2,0,B|352:168|316:236,2,120,4|0|8,0:0|0:0|0:0,0:0:0:0:
272,32,63784,2,0,L|220:32,1,40
236,76,64045,2,0,L|184:76,1,40,8|0,0:0|0:0,0:0:0:0:
188,120,64305,2,0,L|136:120,1,40
156,164,64566,2,0,L|100:164,1,40,8|0,0:0|0:0,0:0:0:0:
104,208,64827,5,4,0:0:0:0:
104,208,65088,2,0,B|104:288,1,80,8|0,0:0|0:0,0:0:0:0:
192,288,65610,1,8,0:0:0:0:
268,248,65871,1,0,0:0:0:0:
224,172,66131,2,0,B|228:232|164:232,2,80,8|0|8,0:0|0:0|0:0,0:0:0:0:
252,88,66914,1,4,0:0:0:0:
308,156,67175,1,8,0:0:0:0:
356,80,67436,1,0,0:0:0:0:
400,156,67697,1,8,0:0:0:0:
420,240,67958,5,8,0:0:0:0:
308,312,68349,1,8,0:0:0:0:
208,228,68740,1,8,0:0:0:0:
184,144,69001,6,0,B|96:144,1,80,0|8,0:0|0:0,0:0:0:0:
100,232,69523,2,0,B|180:232,1,80,0|8,0:0|0:0,0:0:0:0:
180,320,70045,2,0,B|96:320,1,80,0|8,0:0|0:0,0:0:0:0:
36,260,70566,2,0,B|36:176,1,80,0|8,0:0|0:0,0:0:0:0:
124,172,71088,2,0,B|208:172,1,80,0|8,0:0|0:0,0:0:0:0:
292,172,71610,1,0,0:0:0:0:
380,172,71871,1,8,0:0:0:0:
416,252,72131,1,0,0:0:0:0:
344,304,72392,2,0,B|296:352|188:344,1,160,8|0,0:0|0:0,0:0:0:0:
120,292,73175,5,4,0:0:0:0:
68,220,73436,1,8,0:0:0:0:
76,132,73697,1,0,0:0:0:0:
140,72,73958,1,8,0:0:0:0:
228,72,74218,1,0,0:0:0:0:
308,104,74479,1,8,0:0:0:0:
308,192,74740,1,0,0:0:0:0:
248,256,75001,1,8,0:0:0:0:
164,236,75262,1,4,0:0:0:0:
136,152,75523,1,8,0:0:0:0:
204,96,75784,1,0,0:0:0:0:
228,180,76045,1,8,0:0:0:0:
164,236,76305,6,0,B|148:308,2,53.3333333333333
232,260,76827,2,0,B|284:260,2,53.3333333333333
228,180,77349,6,0,B|316:148,1,80,4|8,0:0|0:0,0:0:0:0:
396,172,77871,2,0,B|452:116,1,80,0|8,0:0|0:0,0:0:0:0:
420,32,78392,2,0,B|336:32,1,80,0|8,0:0|0:0,0:0:0:0:
252,40,78914,1,0,0:0:0:0:
196,108,79175,1,8,0:0:0:0:
132,168,79436,6,0,B|116:260,1,80,0|8,0:0|0:0,0:0:0:0:
120,336,79958,2,0,B|212:336,1,80,0|8,0:0|0:0,0:0:0:0:
288,336,80479,2,0,B|328:344|328:344|364:332,1,80,0|8,0:0|0:0,0:0:0:0:
432,272,81001,2,0,B|456:240|456:240|448:196,1,80,0|8,0:0|0:0,0:0:0:0:
380,148,81523,5,4,0:0:0:0:
344,68,81784,1,8,0:0:0:0:
256,68,82045,1,0,0:0:0:0:
168,76,82305,2,0,B|120:128|112:152,1,80,8|0,0:0|0:0,0:0:0:0:
92,224,82827,1,8,0:0:0:0:
140,300,83088,1,0,0:0:0:0:
220,340,83349,1,8,0:0:0:0:
304,320,83610,1,0,0:0:0:0:
384,284,83871,6,0,B|404:224|396:192,1,80,8|0,0:0|0:0,0:0:0:0:
380,120,84392,2,0,B|328:120,1,40,8|0,0:0|0:0,0:0:0:0:
332,164,84653,2,0,L|284:164,1,40
284,208,84914,2,0,L|232:208,1,40,8|0,0:0|0:0,0:0:0:0:
232,252,85175,2,0,L|176:252,2,40,0|0|8,0:0|0:0|0:0,0:0:0:0:
256,192,85697,12,0,87001,0:0:0:0:
