osu file format v14

[General]
AudioFilename: 76 - Ignite (Russian TV Version).mp3
AudioLeadIn: 0
PreviewTime: 0
Countdown: 1
SampleSet: Soft
StackLeniency: 0.7
Mode: 0
LetterboxInBreaks: 1
WidescreenStoryboard: 1

[Editor]
Bookmarks: 2725
DistanceSpacing: 1
BeatDivisor: 4
GridSize: 8
TimelineZoom: 1

[Metadata]
Title:Ignite (Russian TV Version)
TitleUnicode:Ignite (Russian TV Version)
Artist:Nika Lenina
ArtistUnicode:Nika Lenina
Creator:Ritsu-tyan
Version:Normal
Source:ソードアート-オンラインⅱ
Tags:sao2 nika lenina russian cover tv version opening
BeatmapID:622067
BeatmapSetID:273893

[Difficulty]
HPDrainRate:4
CircleSize:3
OverallDifficulty:4
ApproachRate:6
SliderMultiplier:1.2
SliderTickRate:1

[Events]
//Background and Video events
0,0,"nHWKq8JmB60.jpg",0,0
//Break Periods
2,12302,17192
//Storyboard Layer 0 (Background)
//Storyboard Layer 1 (Fail)
//Storyboard Layer 2 (Pass)
//Storyboard Layer 3 (Foreground)
//Storyboard Sound Samples

[TimingPoints]
1400.37800227031,350.877192982456,4,2,1,70,1,0
3154,-100,4,2,1,70,0,0
7014,-100,4,2,2,70,0,0
11575,-100,4,2,1,70,0,0
38242,-100,4,3,1,70,0,0
40698,-100,4,2,1,70,0,0
54031,-100,4,2,2,70,0,0
54733,-100,4,2,1,70,0,0
72979,-100,4,2,1,70,0,1
81926,-100,4,2,1,70,0,1
84558,-100,4,2,1,70,0,0

[Colours]
Combo1 : 230,193,221
Combo2 : 255,130,133
Combo3 : 18,124,255
Combo4 : 196,162,194
Combo5 : 151,221,234
Combo6 : 128,0,255
Combo7 : 255,201,147
Combo8 : 206,231,232

[HitObjects]
136,80,1400,6,0,L|280:112,1,120
344,176,2102,1,0,0:0:0:0:
240,224,2453,2,0,L|160:216,2,60
288,328,3154,6,0,P|360:304|392:248,1,120
448,176,3856,1,0,0:0:0:0:
352,120,4207,2,0,L|296:88,2,60
248,168,4909,1,0,0:0:0:0:
136,160,5260,1,0,0:0:0:0:
96,200,5435,1,0,0:0:0:0:
88,256,5610,1,0,0:0:0:0:
192,304,5961,1,0,0:0:0:0:
304,296,6312,1,0,0:0:0:0:
464,136,7014,6,0,B|448:120|408:80|328:104,1,120
248,64,7716,1,0,0:0:0:0:
248,64,8067,1,0,0:0:0:0:
136,80,8417,2,0,L|24:136,1,120
88,232,9119,1,0,0:0:0:0:
192,280,9470,1,0,0:0:0:0:
304,304,9821,2,8,B|352:272|448:200|432:120,1,210,0|0,0:0|0:0,0:0:0:0:
336,40,10874,1,0,0:0:0:0:
224,56,11224,1,0,0:0:0:0:
176,160,11575,2,2,L|104:192,2,60
232,144,12102,1,4,0:0:0:0:
96,176,18242,6,0,P|208:120|344:128,1,240
424,168,19295,2,0,P|416:296|384:336,2,180
376,64,20698,1,8,0:0:0:0:
264,56,21049,2,0,L|144:56,1,120
32,80,21751,1,8,0:0:0:0:
56,192,22102,2,0,B|56:264|136:304|136:304,1,120
224,320,22803,2,8,L|296:320,1,60
392,288,23330,2,8,L|440:232,1,60
392,136,23856,5,8,0:0:0:0:
288,88,24207,1,0,0:0:0:0:
176,64,24558,2,0,L|96:64,2,60
240,160,25260,1,8,0:0:0:0:
224,272,25610,2,0,L|312:272,2,60
112,248,26312,1,8,0:0:0:0:
88,136,26663,1,8,0:0:0:0:
200,112,27014,1,8,0:0:0:0:
312,136,27365,1,8,0:0:0:0:
384,224,27716,1,8,0:0:0:0:
352,272,27891,1,8,0:0:0:0:
240,296,28242,1,8,0:0:0:0:
184,288,28417,1,8,0:0:0:0:
424,40,29470,6,8,P|352:64|304:64,1,120
216,136,30172,2,0,L|104:224,1,120
224,264,30874,2,8,L|360:264,1,120
368,152,31575,2,0,P|312:120|240:112,1,120
272,224,32277,1,8,0:0:0:0:
296,336,32628,2,0,B|224:328|176:288|176:288,1,120
136,192,33330,2,8,P|80:248|72:312,1,120
176,328,34031,1,0,0:0:0:0:
288,352,34382,6,0,L|424:352,2,120
240,248,35435,1,8,0:0:0:0:
344,200,35786,2,0,L|344:80,1,120
232,56,36488,1,0,0:0:0:0:
144,128,36838,2,8,P|80:160|48:216,1,120
160,240,37540,1,0,0:0:0:0:
240,320,37891,1,0,0:0:0:0:
344,368,38242,2,4,L|432:264,1,120
320,224,38944,2,4,L|408:128,1,120
296,88,39645,2,4,L|384:-8,1,120
392,224,40698,5,8,0:0:0:0:
392,224,40874,2,8,L|312:224,2,60,0|0|0,0:0|0:0|0:0,0:0:0:0:
224,192,41751,2,8,L|152:192,2,60,0|0|0,0:0|0:0|0:0,0:0:0:0:
48,48,42803,1,8,0:0:0:0:
160,48,43154,1,8,0:0:0:0:
272,48,43505,1,8,0:0:0:0:
272,48,43681,6,8,L|272:128,2,60,0|0|0,0:0|0:0|0:0,0:0:0:0:
192,200,44558,2,8,L|192:280,2,60,0|0|0,0:0|0:0|0:0,0:0:0:0:
360,352,45610,2,0,B|392:328|496:152,1,240
456,48,46663,1,0,0:0:0:0:
344,24,47014,6,0,P|264:16|216:24,1,120
120,64,47716,1,0,0:0:0:0:
48,152,48067,2,0,P|88:240|112:248,1,120
208,288,48768,2,8,P|280:288|336:248,1,120
360,224,49295,1,8,0:0:0:0:
368,168,49470,2,8,P|352:136|288:72,1,120
248,40,49996,1,8,0:0:0:0:
192,32,50172,2,8,P|136:40|72:64,1,120
256,192,51224,12,0,52979,0:0:0:0:
272,288,54031,54,8,L|200:256,1,60
88,152,54733,5,8,0:0:0:0:
176,80,55084,1,8,0:0:0:0:
288,56,55435,2,0,L|408:112,1,120
432,216,56137,1,8,0:0:0:0:
344,288,56488,2,0,P|280:320|208:304,1,120
128,272,57189,1,0,0:0:0:0:
64,176,57540,1,8,0:0:0:0:
136,88,57891,1,0,0:0:0:0:
248,64,58242,2,4,L|336:64,2,60
320,152,58944,2,4,L|408:152,2,60
208,144,59645,1,12,0:0:0:0:
160,248,59996,1,12,0:0:0:0:
48,272,60347,6,0,P|64:152|168:64,1,240
256,40,61400,1,8,0:0:0:0:
368,64,61751,2,0,P|488:128|480:224,1,240
392,288,62803,1,8,0:0:0:0:
296,352,63154,1,8,0:0:0:0:
184,344,63505,1,8,0:0:0:0:
80,296,63856,1,8,0:0:0:0:
80,296,64207,2,0,L|-8:208,2,120
280,24,65961,6,0,P|328:24|400:56,1,120
304,120,66663,1,8,0:0:0:0:
408,168,67014,2,0,P|416:240|400:296,1,120
304,336,67716,1,0,0:0:0:0:
192,320,68067,1,8,0:0:0:0:
80,304,68417,2,0,P|40:248|56:192,1,120
120,112,69119,1,8,0:0:0:0:
176,120,69295,1,8,0:0:0:0:
232,128,69470,1,8,0:0:0:0:
304,216,69821,1,8,0:0:0:0:
360,224,69996,1,8,0:0:0:0:
416,232,70172,1,8,0:0:0:0:
352,328,70523,1,8,0:0:0:0:
296,320,70698,1,8,0:0:0:0:
240,312,70874,1,8,0:0:0:0:
16,272,71575,2,0,P|-8:184|72:56,1,240
176,48,72628,1,8,0:0:0:0:
288,72,72979,6,0,P|392:144|400:272,1,240
360,352,74031,1,8,0:0:0:0:
248,336,74382,2,0,P|104:304|24:232,1,240
16,192,75260,2,0,B|24:128|144:72|200:48,1,240
368,72,76488,1,12,0:0:0:0:
368,72,76838,1,12,0:0:0:0:
296,160,77189,6,0,L|200:240,2,120
144,80,78417,1,12,0:0:0:0:
144,80,78768,1,12,0:0:0:0:
144,80,79119,1,12,0:0:0:0:
40,216,79645,2,0,P|72:288|152:312,2,150
152,192,80874,1,12,0:0:0:0:
264,192,81224,1,12,0:0:0:0:
152,192,81575,1,12,0:0:0:0:
264,192,81926,1,12,0:0:0:0:
512,64,82803,6,8,L|368:64,1,120
280,56,83505,2,8,L|160:56,1,120
72,128,84207,1,6,0:0:0:0:
168,192,84558,1,6,0:0:0:0:
256,192,84909,12,4,88417,0:0:0:0:
