osu file format v7

[General]
AudioFilename: Niira Etsuko - Shinyaku no Yoru.mp3
AudioLeadIn: 2000
PreviewTime: 1062
Countdown: 0
SampleSet: Normal
StackLeniency: 0.4
Mode: 0
LetterboxInBreaks: 1

[Editor]
DistanceSpacing: 1
BeatDivisor: 2
GridSize: 8

[Metadata]
Title:Shinyaku no Yoru
Artist:Niira Etsuko
Creator:soulfear
Version:Uso
Source:Nakanai Kimi to Aganai no Gensou
Tags:EP5 C77 Umineko Nakanai

[Difficulty]
HPDrainRate:4
CircleSize:3
OverallDifficulty:4
SliderMultiplier:1.2
SliderTickRate:1

[Events]
//Background and Video events
0,0,"BG.jpg"
Video,999,"MAS_640X480.flv"
//Break Periods
2,12270,22019
2,90109,99684
2,167775,189832
2,213542,216876
2,224290,235252
//Storyboard Layer 0 (Background)
//Storyboard Layer 1 (Fail)
//Storyboard Layer 2 (Pass)
//Storyboard Layer 3 (Foreground)
//Storyboard Sound Samples
//Background Colour Transformations
3,100,163,162,255

[TimingPoints]
456,346.720600982375,4,1,0,50,1,0
22646,-200,4,1,0,50,0,0
44489,-100,4,1,0,50,0,0
67719,-100,4,1,0,50,0,1
89736,-100,4,1,0,90,0,0
89909,-100,4,1,0,90,0,1
90083,-100,4,1,0,50,0,0
100658,-200,4,1,0,50,0,0
122154,-100,4,1,0,50,0,0
145385,-100,4,1,0,50,0,1
167401,-100,4,1,0,90,0,0
167575,-100,4,1,0,90,0,1
167748,-100,4,1,0,50,0,0
191152,-100,4,1,0,50,0,1
213169,-100,4,1,0,90,0,0
213342,-100,4,1,0,90,0,1
213515,-100,4,1,0,50,0,1
223917,-100,4,1,0,90,0,0
224090,-100,4,1,0,90,0,1
224437,-100,4,1,0,50,0,0
236572,-200,4,1,0,50,0,0
246627,-200,4,1,0,50,0,1
246800,-200,4,1,0,50,0,0

[Colours]
Combo1 : 128,0,128
Combo2 : 255,255,0
Combo3 : 255,0,0
Combo4 : 0,0,255

[HitObjects]
256,192,1062,2,0,B|104:192,1,150
106,192,1842,1,0
106,192,2189,1,0
256,96,2709,5,0
376,96,3056,1,0
376,216,3403,1,0
376,216,3576,1,0
256,192,3923,6,0,B|384:192,1,120
376,192,4616,1,0
376,312,4963,2,0,B|312:312,1,60
316,312,5483,1,0
136,312,6003,2,0,B|136:248,1,60
136,200,6350,2,0,B|136:136,1,60
136,140,6696,1,0
376,136,7390,6,0,B|376:264,1,120
376,256,7910,1,0
256,256,8257,1,0
256,256,8430,1,0
136,256,8777,2,0,B|136:192,1,60
136,136,9124,2,0,B|136:72,1,60
136,76,9470,1,0
352,176,10164,5,0
113,132,10857,2,0,B|177:132,1,60
225,132,11204,2,0,B|289:132,1,60
281,188,11551,2,0,B|217:188,1,60
169,188,11897,2,0,B|105:188,1,60
256,192,23339,5,0
256,192,23859,1,0
80,192,24379,1,0
80,192,24726,1,0
432,192,25766,5,0
432,192,26113,1,0
256,192,26633,1,0
432,192,27153,1,0
432,192,27500,1,0
256,192,28193,2,0,B|256:128,2,60
256,192,30967,2,0,B|208:144|168:184|216:232,1,120
256,192,34087,5,0
256,192,34434,1,0
432,192,34954,2,0,B|336:192,1,90
342,192,35821,1,0
256,192,36861,5,0
256,192,37208,2,0,B|160:192,2,90
256,192,38595,1,0
256,192,39288,2,0,B|320:192,2,60
256,192,42062,2,0,B|192:192,2,60
256,192,44836,5,0
256,192,45182,1,0
256,192,45529,1,0
80,192,46049,2,0,B|144:192,1,60
256,328,46743,5,0
256,328,47089,1,0
256,328,47436,1,0
256,208,47783,2,0,B|256:144,2,60
256,208,48303,1,0
256,208,48650,1,0
136,192,48996,1,0
136,192,49343,1,0
256,192,49690,6,0,B|320:192,2,60
256,192,50383,1,0
256,192,50730,1,0
376,192,51077,6,0,B|376:128,2,60
376,192,51770,1,0
376,312,52117,2,0,B|376:248,1,60
256,256,52637,2,0,B|192:256,1,60
196,256,53157,1,0
196,256,53504,1,0
80,256,53850,5,0
80,224,54024,1,0
80,192,54197,1,0
80,72,54544,1,0
176,136,54891,2,0,B|240:136,1,60
336,200,55411,2,0,B|272:200,1,60
272,320,55931,1,0
272,200,56278,1,0
152,200,56624,6,0,B|24:200,1,120
152,200,57318,2,0,B|280:200,1,120
272,200,58011,1,0
272,200,58358,1,0
392,200,58705,2,0,B|392:72,1,120
272,80,59398,6,0,B|208:80,2,60
272,200,60091,2,0,B|208:200,2,60
272,320,60785,2,0,B|336:320,2,60
152,320,61478,2,0,B|88:320,2,60
96,216,62172,1,0
96,216,62518,1,0
96,216,62865,1,0
96,216,63212,1,0
340,216,63905,5,0
340,216,64599,1,0
340,216,65292,2,0,B|468:216,1,120
192,192,67719,5,0
320,192,68066,1,0
256,296,68413,1,0
256,296,68759,1,0
192,192,69106,2,0,B|192:64,1,120
320,192,69800,2,0,B|320:64,1,120
256,168,70493,5,0
256,288,70840,1,0
376,288,71187,1,0
256,288,71533,1,0
136,288,71880,1,0
256,288,72227,1,0
256,168,72573,2,0,B|256:32,1,120
256,168,73267,6,0,B|128:168,1,120
136,168,73960,1,0
136,168,74307,1,0
256,168,74654,2,0,B|384:168,1,120
376,168,75347,1,0
376,168,75694,1,0
256,168,76041,6,0,B|344:256,1,120
256,168,76734,2,0,B|168:256,1,120
256,168,77427,2,0,B|168:80,1,120
256,168,78121,2,0,B|344:80,1,120
344,192,78814,5,0
256,272,79161,1,0
168,192,79508,1,0
256,112,79855,1,0
168,192,80201,5,0
256,272,80548,1,0
344,192,80895,1,0
256,112,81241,1,0
168,192,81588,6,0,B|168:128|216:80,1,120
344,192,82282,2,0,B|344:128|296:80,1,120
168,192,82975,2,0,B|168:256|216:304,1,120
344,192,83668,2,0,B|344:256|296:304,1,120
256,192,84362,5,0
256,192,84709,1,0
136,192,85055,1,0
136,192,85402,1,0
256,192,85749,1,0
256,192,86095,1,0
376,192,86442,1,0
376,192,86789,1,0
256,192,87136,6,0,B|256:320,1,120
256,192,87829,2,0,B|256:64,1,120
256,192,88523,2,4,B|128:192,1,120
256,192,89216,2,4,B|384:192,1,120
256,192,89909,1,4
256,192,101004,5,0
256,192,101525,1,0
432,192,102045,1,0
432,192,102391,1,0
80,192,103432,5,0
80,192,103778,1,0
256,192,104298,1,0
80,192,104818,1,0
80,192,105165,1,0
256,192,105859,2,0,B|256:256,2,60
256,192,108632,2,0,B|304:240|344:200|296:152,1,120
256,192,111753,5,0
256,192,111926,1,0
256,192,112100,1,0
80,192,112620,2,0,B|176:192,1,90
170,192,113486,1,0
256,192,114527,5,0
256,192,114873,2,0,B|352:192,2,90
256,192,116260,1,0
256,192,116954,2,0,B|192:192,2,60
256,192,119727,2,0,B|320:192,2,60
256,192,122501,5,0
256,192,122848,1,0
256,192,123195,1,0
432,192,123715,2,0,B|368:192,1,60
256,56,124408,5,0
256,56,124755,1,0
256,56,125102,1,0
256,176,125448,2,0,B|256:240,2,60
256,176,125968,1,0
256,176,126315,1,0
376,192,126662,1,0
376,192,127009,1,0
256,192,127355,6,0,B|192:192,2,60
256,192,128049,1,0
256,192,128395,1,0
136,192,128742,6,0,B|136:256,2,60
136,192,129436,1,0
136,72,129782,2,0,B|136:136,1,60
256,128,130302,2,0,B|320:128,1,60
316,128,130822,1,0
316,128,131169,1,0
432,128,131516,5,0
432,160,131689,1,0
432,192,131863,1,0
432,312,132209,1,0
336,248,132556,2,0,B|272:248,1,60
176,184,133076,2,0,B|240:184,1,60
240,64,133596,1,0
240,184,133943,1,0
360,184,134290,6,0,B|488:184,1,120
360,184,134983,2,0,B|232:184,1,120
240,184,135677,1,0
240,184,136023,1,0
120,184,136370,2,0,B|120:312,1,120
240,304,137063,6,0,B|304:304,2,60
240,184,137757,2,0,B|304:184,2,60
240,64,138450,2,0,B|176:64,2,60
360,64,139144,2,0,B|424:64,2,60
360,184,139837,1,0
360,184,140184,1,0
364,184,140531,1,0
360,184,140877,1,0
132,120,141571,5,0
132,120,142264,1,0
132,360,142958,2,0,B|132:232,1,120
192,192,145385,5,0
320,192,145731,1,0
256,88,146078,1,0
256,88,146425,1,0
192,192,146772,2,0,B|192:320,1,120
320,192,147465,2,0,B|320:320,1,120
256,216,148158,5,0
256,96,148505,1,0
376,96,148852,1,0
256,96,149199,1,0
136,96,149545,1,0
256,96,149892,1,0
256,216,150239,2,0,B|256:352,1,120
256,216,150932,6,0,B|128:216,1,120
136,216,151626,1,0
136,216,151972,1,0
256,216,152319,2,0,B|384:216,1,120
376,216,153013,1,0
376,216,153359,1,0
256,216,153706,6,0,B|344:128,1,120
256,216,154399,2,0,B|168:128,1,120
256,216,155093,2,0,B|168:304,1,120
256,216,155786,2,0,B|344:304,1,120
344,192,156480,5,0
256,112,156826,1,0
168,192,157173,1,0
256,272,157520,1,0
168,192,157867,5,0
256,112,158213,1,0
344,192,158560,1,0
256,272,158907,1,0
168,192,159254,6,0,B|168:256|216:304,1,120
344,192,159947,2,0,B|344:256|296:304,1,120
168,192,160640,2,0,B|168:128|216:80,1,120
344,192,161334,2,0,B|344:128|296:80,1,120
256,192,162027,5,0
256,192,162374,1,0
136,192,162721,1,0
136,192,163067,1,0
256,192,163414,1,0
256,192,163761,1,0
376,192,164108,1,0
376,192,164454,1,0
256,192,164801,6,0,B|256:64,1,120
256,192,165495,2,0,B|256:320,1,120
256,192,166188,2,4,B|128:192,1,120
256,192,166881,2,4,B|384:192,1,120
256,192,167575,1,4
210,237,191152,5,0
301,146,191498,1,0
182,118,191845,1,0
182,118,192192,1,0
210,237,192539,2,0,B|301:327,1,120
301,146,193232,2,0,B|391:237,1,120
272,208,193925,5,0
188,124,194272,1,0
272,39,194619,1,0
188,124,194966,1,0
103,208,195312,1,0
188,124,195659,1,0
272,208,196006,2,0,B|369:305,1,120
272,208,196699,6,0,B|182:299,1,120
188,293,197393,1,0
188,293,197739,1,0
272,208,198086,2,0,B|363:118,1,120
357,124,198780,1,0
357,124,199126,1,0
272,208,199473,6,0,B|272:84,1,120
272,208,200166,2,0,B|148:208,1,120
272,208,200860,2,0,B|272:333,1,120
272,208,201553,2,0,B|397:208,1,120
318,129,202247,5,0
199,135,202593,1,0
193,254,202940,1,0
312,248,203287,1,0
193,254,203634,5,0
199,135,203980,1,0
318,129,204327,1,0
312,248,204674,1,0
193,254,205021,6,0,B|239:299|306:299,1,120
318,129,205714,2,0,B|363:175|363:242,1,120
193,254,206407,2,0,B|148:208|148:141,1,120
318,129,207101,2,0,B|272:84|205:84,1,120
256,192,207794,5,0
256,192,208141,1,0
171,276,208488,1,0
171,276,208834,1,0
256,192,209181,1,0
256,192,209528,1,0
340,107,209875,1,0
340,107,210221,1,0
256,192,210568,6,0,B|165:101,1,120
256,192,211262,2,0,B|346:282,1,120
256,192,211955,2,4,B|165:282,1,120
256,192,212648,2,4,B|346:101,1,120
256,192,213342,1,4
256,192,218196,5,0
256,192,218543,1,0
341,276,218890,1,0
341,276,219236,1,0
256,192,219583,1,0
256,192,219930,1,0
172,107,220277,1,0
172,107,220623,1,0
256,192,220970,6,0,B|347:101,1,120
256,192,221664,2,0,B|166:282,1,120
256,192,222357,2,4,B|347:282,1,120
256,192,223050,2,4,B|166:101,1,120
256,192,223744,1,4
256,192,224090,1,4
384,192,236572,6,0,B|256:192,1,120
264,192,237612,1,0
264,192,237959,1,0
264,192,238306,2,0,B|136:192,2,120
256,312,240386,5,0
256,312,240733,1,0
256,312,241080,2,0,B|256:64,1,240
256,72,243160,1,0
256,72,243853,1,4
256,192,245934,5,4
256,192,246627,1,0
