osu file format v14

[General]
AudioFilename: Imaginary Waltz - EnglishRomajiKanji sub.mp3
AudioLeadIn: 0
PreviewTime: 61749
Countdown: 0
SampleSet: Soft
StackLeniency: 0.8
Mode: 3
LetterboxInBreaks: 0
SpecialStyle: 0
WidescreenStoryboard: 0

[Editor]
DistanceSpacing: 0.8
BeatDivisor: 4
GridSize: 8
TimelineZoom: 1.4

[Metadata]
Title:Imaginary Waltz
TitleUnicode:Imaginary Waltz
Artist:Niira Etsuko
ArtistUnicode:新良エツ子
Creator:-Troke-
Version:NM
Source:
Tags:Umineko no Naku Koro ni なかない君と嘆きの幻想 nakanai kimi to nageki no gensou Lunatic Raccoon Sirade
BeatmapID:452411
BeatmapSetID:189927

[Difficulty]
HPDrainRate:7
CircleSize:4
OverallDifficulty:7
ApproachRate:5
SliderMultiplier:1.4
SliderTickRate:1

[Events]
//Background and Video events
0,0,"156123.jpg",0,0
//Break Periods
//Storyboard Layer 0 (Background)
//Storyboard Layer 1 (Fail)
//Storyboard Layer 2 (Pass)
//Storyboard Layer 3 (Foreground)
//Storyboard Sound Samples

[TimingPoints]
4586,352.858151023289,3,2,1,39,1,0
63866,-100,3,2,1,39,0,1
97740,-100,3,2,1,39,0,0
140083,-100,3,2,1,39,0,1
173957,-100,3,2,1,39,0,0
207832,-100,3,2,1,39,0,1
241706,-100,3,2,1,39,0,0

[HitObjects]
192,190,4586,5,2,0:0:0:0:
347,190,4938,1,2,0:0:0:0:
155,190,5291,1,2,0:0:0:0:
347,190,5644,1,2,0:0:0:0:
448,190,5997,1,2,0:0:0:0:
64,190,6173,1,2,0:0:0:0:
448,190,6350,1,2,0:0:0:0:
64,190,6526,1,2,0:0:0:0:
155,190,6703,1,2,0:0:0:0:
347,190,7056,1,2,0:0:0:0:
448,190,7408,1,2,0:0:0:0:
91,190,7585,1,2,0:0:0:0:
64,190,7761,1,2,0:0:0:0:
320,190,8114,1,2,0:0:0:0:
192,190,8467,1,2,0:0:0:0:
64,190,8820,1,2,0:0:0:0:
320,192,8820,1,2,0:0:0:0:
155,190,9173,1,2,0:0:0:0:
91,190,9526,1,2,0:0:0:0:
283,190,9878,1,2,0:0:0:0:
192,190,9878,1,2,0:0:0:0:
283,191,10231,1,2,0:0:0:0:
219,191,10408,1,2,0:0:0:0:
411,191,10584,1,2,0:0:0:0:
192,191,10761,1,2,0:0:0:0:
347,190,10937,1,2,0:0:0:0:
64,190,11290,1,2,0:0:0:0:
192,192,11643,1,2,0:0:0:0:
64,190,11819,1,2,0:0:0:0:
347,190,11996,128,2,12348:0:0:0:0:
448,192,11996,1,2,0:0:0:0:
155,190,12348,128,2,12701:0:0:0:0:
448,190,12701,128,2,13054:0:0:0:0:
155,190,13054,1,2,0:0:0:0:
347,191,13054,128,2,13760:0:0:0:0:
219,190,13407,1,2,0:0:0:0:
411,190,13760,1,10,0:0:0:0:
320,190,14113,1,8,0:0:0:0:
192,190,14113,128,2,15171:0:0:0:0:
64,192,14466,1,2,0:0:0:0:
347,190,14642,1,2,0:0:0:0:
411,190,14818,1,10,0:0:0:0:
347,190,14995,1,2,0:0:0:0:
411,190,15171,128,2,15877:0:0:0:0:
64,192,15171,1,8,0:0:0:0:
219,190,15524,1,2,0:0:0:0:
347,190,15877,1,8,0:0:0:0:
64,192,16053,1,2,0:0:0:0:
283,190,16230,128,8,17288:0:0:0:0:
155,190,16583,1,2,0:0:0:0:
64,190,16936,1,10,0:0:0:0:
192,190,17288,128,10,17994:0:0:0:0:
64,190,17641,1,2,0:0:0:0:
411,190,17994,1,10,0:0:0:0:
192,192,18347,128,10,19406:0:0:0:0:
320,192,18876,1,2,0:0:0:0:
64,192,19053,1,10,0:0:0:0:
320,192,19229,1,2,0:0:0:0:
448,192,19406,1,14,0:0:0:0:
64,192,19406,1,2,0:0:0:0:
320,190,19582,1,2,0:0:0:0:
192,190,19758,1,2,0:0:0:0:
320,190,19935,1,2,0:0:0:0:
192,190,20111,1,10,0:0:0:0:
64,190,20288,1,2,0:0:0:0:
155,190,20464,1,10,0:0:0:0:
448,192,20464,1,6,0:0:0:0:
320,190,20641,1,2,0:0:0:0:
155,190,20817,1,2,0:0:0:0:
91,190,20993,1,2,0:0:0:0:
155,190,21170,1,2,0:0:0:0:
448,192,21170,1,14,0:0:0:0:
475,190,21523,1,6,0:0:0:0:
64,192,21523,1,2,0:0:0:0:
219,191,21699,1,2,0:0:0:0:
347,190,21876,1,2,0:0:0:0:
219,191,22052,1,2,0:0:0:0:
91,190,22228,1,10,0:0:0:0:
219,190,22581,1,10,0:0:0:0:
411,191,22581,128,2,23640:0:0:0:0:
283,191,22934,1,2,0:0:0:0:
192,192,23111,1,2,0:0:0:0:
283,190,23287,1,10,0:0:0:0:
64,190,23463,1,2,0:0:0:0:
155,190,23640,128,10,24698:0:0:0:0:
347,191,23993,1,2,0:0:0:0:
64,192,24169,1,2,0:0:0:0:
347,191,24346,1,10,0:0:0:0:
411,190,24522,1,2,0:0:0:0:
320,190,24698,128,6,25757:0:0:0:0:
475,190,25051,1,2,0:0:0:0:
192,192,25404,1,10,0:0:0:0:
64,190,25757,128,6,26816:0:0:0:0:
347,190,26110,1,2,0:0:0:0:
448,192,26286,1,2,0:0:0:0:
155,190,26463,1,10,0:0:0:0:
320,192,26639,1,2,0:0:0:0:
411,190,26816,128,10,27874:0:0:0:0:
347,191,27168,1,2,0:0:0:0:
91,191,27345,1,2,0:0:0:0:
283,191,27521,1,10,0:0:0:0:
155,191,27698,1,2,0:0:0:0:
27,190,27874,128,10,28933:0:0:0:0:
283,190,27874,1,6,0:0:0:0:
283,190,28227,1,2,0:0:0:0:
283,190,28580,1,10,0:0:0:0:
411,190,28933,128,12,29991:0:0:0:0:
192,192,28933,1,2,0:0:0:0:
192,191,29286,128,10,29638:0:0:0:0:
91,191,29638,128,14,29991:0:0:0:0:
192,190,29991,128,12,31050:0:0:0:0:
320,192,29991,1,2,0:0:0:0:
448,192,30344,1,2,0:0:0:0:
320,191,30521,1,2,0:0:0:0:
448,190,30697,1,10,0:0:0:0:
64,190,31050,128,10,32108:0:0:0:0:
475,191,31403,1,2,0:0:0:0:
347,190,31579,1,2,0:0:0:0:
192,192,31756,1,10,0:0:0:0:
347,190,31932,1,2,0:0:0:0:
475,190,32108,128,10,33167:0:0:0:0:
347,191,32461,1,2,0:0:0:0:
192,190,32461,1,2,0:0:0:0:
91,190,32814,1,10,0:0:0:0:
155,190,32991,1,2,0:0:0:0:
219,190,33167,128,10,34226:0:0:0:0:
283,190,33520,1,6,0:0:0:0:
347,190,33873,1,14,0:0:0:0:
64,192,33873,1,2,0:0:0:0:
320,190,34226,128,12,35284:0:0:0:0:
448,192,34226,1,2,0:0:0:0:
64,190,34578,1,2,0:0:0:0:
155,190,34931,1,10,0:0:0:0:
411,190,35284,128,10,35813:0:0:0:0:
91,190,35284,128,2,36343:0:0:0:0:
320,192,35813,1,2,0:0:0:0:
192,190,35990,1,10,0:0:0:0:
320,190,36166,1,2,0:0:0:0:
219,190,36343,128,10,37401:0:0:0:0:
347,190,36519,1,2,0:0:0:0:
411,190,36696,1,2,0:0:0:0:
347,190,36872,1,2,0:0:0:0:
411,190,37048,1,10,0:0:0:0:
347,190,37225,1,2,0:0:0:0:
411,190,37401,128,10,38460:0:0:0:0:
64,190,37401,1,2,0:0:0:0:
320,190,37578,1,2,0:0:0:0:
155,190,37754,1,2,0:0:0:0:
91,190,37931,1,2,0:0:0:0:
155,190,38107,1,10,0:0:0:0:
219,190,38460,5,10,0:0:0:0:
64,192,38460,1,6,0:0:0:0:
283,190,38813,1,2,0:0:0:0:
192,190,39166,1,2,0:0:0:0:
411,190,39518,1,2,0:0:0:0:
64,192,39518,1,2,0:0:0:0:
411,190,39871,1,2,0:0:0:0:
192,192,40048,1,2,0:0:0:0:
283,190,40224,1,2,0:0:0:0:
192,192,40401,1,2,0:0:0:0:
64,192,40577,1,2,0:0:0:0:
448,192,40577,1,2,0:0:0:0:
219,190,40930,1,2,0:0:0:0:
91,190,40930,1,2,0:0:0:0:
219,191,41283,1,2,0:0:0:0:
283,191,41636,1,2,0:0:0:0:
411,191,41636,1,2,0:0:0:0:
320,192,42341,1,2,0:0:0:0:
411,190,42518,1,2,0:0:0:0:
91,190,42694,128,2,43400:0:0:0:0:
155,191,42694,1,2,0:0:0:0:
320,190,43047,1,2,0:0:0:0:
192,190,43400,128,2,43753:0:0:0:0:
283,190,43753,128,2,44458:0:0:0:0:
219,190,44106,1,2,0:0:0:0:
347,190,44811,128,2,45164:0:0:0:0:
219,190,44811,1,2,0:0:0:0:
411,190,45164,128,2,45517:0:0:0:0:
283,190,45517,128,2,45870:0:0:0:0:
64,190,45870,128,2,46928:0:0:0:0:
320,192,46223,1,2,0:0:0:0:
155,190,46399,1,2,0:0:0:0:
320,190,46576,1,2,0:0:0:0:
155,190,46752,1,2,0:0:0:0:
411,190,46928,128,10,47281:0:0:0:0:
192,190,47281,128,2,47634:0:0:0:0:
347,190,47634,128,2,47987:0:0:0:0:
475,190,47987,128,2,49046:0:0:0:0:
91,190,47987,1,10,0:0:0:0:
219,190,48340,1,2,0:0:0:0:
347,190,48693,1,2,0:0:0:0:
64,190,49046,1,10,0:0:0:0:
192,190,49046,128,2,49751:0:0:0:0:
283,190,49751,128,2,50104:0:0:0:0:
411,190,50104,128,2,50810:0:0:0:0:
192,192,50104,1,10,0:0:0:0:
347,190,50810,1,2,0:0:0:0:
192,190,51163,1,10,0:0:0:0:
64,190,51163,128,2,52221:0:0:0:0:
448,190,51163,128,2,52221:0:0:0:0:
320,192,51516,1,2,0:0:0:0:
192,190,51868,1,2,0:0:0:0:
192,190,52221,128,10,53280:0:0:0:0:
320,190,52574,1,2,0:0:0:0:
283,190,52927,1,2,0:0:0:0:
475,190,53280,128,2,54338:0:0:0:0:
64,190,53280,1,10,0:0:0:0:
320,191,53456,1,2,0:0:0:0:
91,190,53633,1,2,0:0:0:0:
320,191,53809,1,2,0:0:0:0:
192,190,53986,1,2,0:0:0:0:
27,190,54338,128,2,55397:0:0:0:0:
320,192,54338,1,10,0:0:0:0:
192,190,54515,1,2,0:0:0:0:
347,190,54691,1,2,0:0:0:0:
411,190,54868,1,2,0:0:0:0:
347,190,55044,1,2,0:0:0:0:
192,191,55397,128,2,56456:0:0:0:0:
320,192,55397,1,10,0:0:0:0:
448,192,55750,1,2,0:0:0:0:
64,190,56103,128,2,56456:0:0:0:0:
320,190,56456,128,10,56809:0:0:0:0:
448,190,56456,128,2,57514:0:0:0:0:
192,190,56809,128,2,57161:0:0:0:0:
64,190,57161,128,2,57514:0:0:0:0:
320,190,57514,128,10,58220:0:0:0:0:
192,191,57514,128,2,59631:0:0:0:0:
448,190,58220,128,2,58573:0:0:0:0:
320,190,58573,128,10,59631:0:0:0:0:
448,191,59631,128,10,59984:0:0:0:0:
320,190,59984,128,2,60337:0:0:0:0:
192,190,60337,128,2,60690:0:0:0:0:
320,190,60690,128,10,61043:0:0:0:0:
448,192,60690,128,2,61749:0:0:0:0:
192,192,61043,128,2,61396:0:0:0:0:
320,190,61396,128,2,61749:0:0:0:0:
192,190,61749,128,10,62807:0:0:0:0:
320,190,62807,128,10,63866:0:0:0:0:
64,192,62807,1,6,0:0:0:0:
192,192,62984,1,14,0:0:0:0:
64,192,63160,1,2,0:0:0:0:
192,192,63513,1,6,0:0:0:0:
448,190,63866,128,14,64924:0:0:0:0:
155,191,63866,1,2,0:0:0:0:
64,191,64219,1,2,0:0:0:0:
155,191,64571,1,10,0:0:0:0:
91,190,64924,128,2,65277:0:0:0:0:
219,190,65277,1,2,0:0:0:0:
283,190,65454,1,2,0:0:0:0:
411,190,65630,1,2,0:0:0:0:
347,190,65630,1,10,0:0:0:0:
192,192,65806,1,2,0:0:0:0:
320,192,65983,1,2,0:0:0:0:
64,191,65983,1,2,0:0:0:0:
192,192,66336,1,2,0:0:0:0:
448,192,66689,1,0,0:0:0:0:
64,192,67041,1,2,0:0:0:0:
192,192,67041,1,6,0:0:0:0:
448,192,67394,1,2,0:0:0:0:
64,192,67747,1,2,0:0:0:0:
320,192,67747,1,10,0:0:0:0:
219,190,68100,1,6,0:0:0:0:
91,190,68100,128,2,69864:0:0:0:0:
347,190,68453,1,2,0:0:0:0:
411,190,68806,1,10,0:0:0:0:
448,190,69159,1,2,0:0:0:0:
347,190,69511,1,2,0:0:0:0:
448,190,69864,1,10,0:0:0:0:
192,190,70041,1,2,0:0:0:0:
320,191,70217,128,2,71981:0:0:0:0:
91,190,70217,1,6,0:0:0:0:
448,191,70394,1,2,0:0:0:0:
91,190,70570,1,2,0:0:0:0:
411,190,70746,1,2,0:0:0:0:
91,190,70923,1,10,0:0:0:0:
192,190,71276,1,6,0:0:0:0:
448,190,71452,1,2,0:0:0:0:
219,191,71629,1,6,0:0:0:0:
411,190,71805,1,2,0:0:0:0:
192,190,71981,1,14,0:0:0:0:
64,190,72334,1,14,0:0:0:0:
192,190,72334,128,2,72687:0:0:0:0:
64,190,72687,128,2,73040:0:0:0:0:
283,190,72687,1,2,0:0:0:0:
411,190,73040,1,10,0:0:0:0:
320,191,73040,128,2,73393:0:0:0:0:
192,190,73393,1,2,0:0:0:0:
64,190,73393,128,2,73746:0:0:0:0:
448,192,73746,1,2,0:0:0:0:
219,190,73922,1,2,0:0:0:0:
283,190,74099,1,10,0:0:0:0:
192,192,74275,1,2,0:0:0:0:
283,190,74451,128,2,74804:0:0:0:0:
155,190,74804,1,2,0:0:0:0:
283,190,75157,1,10,0:0:0:0:
219,190,75334,1,2,0:0:0:0:
283,190,75510,1,2,0:0:0:0:
448,192,75510,1,2,0:0:0:0:
219,190,75863,1,6,0:0:0:0:
91,190,75863,1,2,0:0:0:0:
347,190,76216,1,14,0:0:0:0:
219,190,76216,1,2,0:0:0:0:
411,192,76569,1,6,0:0:0:0:
288,192,76569,128,2,78333:0:0:0:0:
192,192,76921,1,2,0:0:0:0:
64,192,77274,1,10,0:0:0:0:
64,192,77627,1,2,0:0:0:0:
448,192,77980,1,2,0:0:0:0:
192,192,78333,128,10,78686:0:0:0:0:
475,190,78686,128,2,80450:0:0:0:0:
91,190,78686,128,2,80450:0:0:0:0:
320,192,79039,1,2,0:0:0:0:
192,192,79391,1,10,0:0:0:0:
320,192,79744,1,2,0:0:0:0:
192,192,79744,1,6,0:0:0:0:
155,190,80097,1,2,0:0:0:0:
320,192,80450,1,14,0:0:0:0:
192,190,80803,128,2,81861:0:0:0:0:
64,192,80803,1,6,0:0:0:0:
320,190,81861,1,2,0:0:0:0:
91,190,82214,1,2,0:0:0:0:
155,190,82391,1,2,0:0:0:0:
320,190,82567,1,10,0:0:0:0:
192,190,82744,1,2,0:0:0:0:
411,190,82920,128,2,83273:0:0:0:0:
347,190,83273,128,2,83626:0:0:0:0:
64,192,83626,1,10,0:0:0:0:
219,190,83802,1,2,0:0:0:0:
219,190,83979,128,6,84331:0:0:0:0:
320,190,84331,128,2,84684:0:0:0:0:
192,190,84684,128,10,85037:0:0:0:0:
283,190,85037,128,6,86096:0:0:0:0:
91,191,85214,1,2,0:0:0:0:
411,191,85390,1,2,0:0:0:0:
64,192,85566,1,2,0:0:0:0:
219,191,85743,1,10,0:0:0:0:
411,191,85919,1,2,0:0:0:0:
219,191,86096,1,2,0:0:0:0:
91,192,86449,1,2,0:0:0:0:
91,192,86625,1,2,0:0:0:0:
347,192,86801,1,10,0:0:0:0:
347,192,86978,1,2,0:0:0:0:
475,190,87154,128,2,88919:0:0:0:0:
91,191,87154,1,6,0:0:0:0:
155,191,87331,1,2,0:0:0:0:
91,191,87507,1,2,0:0:0:0:
155,191,87684,1,2,0:0:0:0:
91,191,87860,1,10,0:0:0:0:
347,191,88213,1,6,0:0:0:0:
192,192,88389,1,2,0:0:0:0:
347,191,88566,1,6,0:0:0:0:
192,192,88742,1,2,0:0:0:0:
347,191,88919,1,14,0:0:0:0:
192,190,89271,1,6,0:0:0:0:
64,190,89271,1,2,0:0:0:0:
283,190,89624,1,2,0:0:0:0:
411,190,89624,1,2,0:0:0:0:
155,190,89977,1,2,0:0:0:0:
347,190,89977,1,10,0:0:0:0:
27,190,90330,1,2,0:0:0:0:
448,192,90330,1,2,0:0:0:0:
27,190,90683,1,2,0:0:0:0:
192,190,90859,1,2,0:0:0:0:
320,190,91036,1,10,0:0:0:0:
411,190,91212,1,2,0:0:0:0:
347,190,91389,1,2,0:0:0:0:
192,190,91389,128,2,91741:0:0:0:0:
320,190,91741,128,2,92094:0:0:0:0:
155,190,92094,128,10,92447:0:0:0:0:
64,190,92447,128,2,93153:0:0:0:0:
320,192,93153,1,14,0:0:0:0:
475,190,93506,1,2,0:0:0:0:
192,192,93506,128,6,95623:0:0:0:0:
91,190,93859,1,2,0:0:0:0:
411,190,94211,1,10,0:0:0:0:
320,190,94564,1,2,0:0:0:0:
448,190,94917,1,2,0:0:0:0:
91,190,95270,1,10,0:0:0:0:
91,190,95623,128,2,97740:0:0:0:0:
347,192,95623,128,2,97740:0:0:0:0:
448,192,97740,1,6,0:0:0:0:
155,191,98093,1,2,0:0:0:0:
411,191,98446,1,10,0:0:0:0:
347,191,98799,1,10,0:0:0:0:
411,191,98799,1,2,0:0:0:0:
91,191,99151,1,2,0:0:0:0:
155,191,99328,1,2,0:0:0:0:
320,191,99504,1,10,0:0:0:0:
448,191,99681,1,2,0:0:0:0:
347,191,99857,1,10,0:0:0:0:
411,191,100210,1,2,0:0:0:0:
347,191,100563,1,10,0:0:0:0:
91,191,100739,1,2,0:0:0:0:
347,191,100916,1,6,0:0:0:0:
192,192,100916,1,10,0:0:0:0:
91,191,101269,1,2,0:0:0:0:
283,191,101269,1,6,0:0:0:0:
283,191,101621,1,14,0:0:0:0:
192,192,101621,1,2,0:0:0:0:
411,191,101974,1,2,0:0:0:0:
219,191,101974,1,14,0:0:0:0:
219,191,102327,1,2,0:0:0:0:
283,191,102680,1,10,0:0:0:0:
91,191,103033,1,2,0:0:0:0:
192,191,103033,1,10,0:0:0:0:
448,191,103386,1,2,0:0:0:0:
347,191,103562,1,2,0:0:0:0:
192,191,103739,1,10,0:0:0:0:
64,191,103915,1,2,0:0:0:0:
192,191,104091,1,10,0:0:0:0:
347,191,104268,1,2,0:0:0:0:
411,191,104444,1,2,0:0:0:0:
347,191,104621,1,2,0:0:0:0:
411,191,104797,1,10,0:0:0:0:
347,191,104974,1,2,0:0:0:0:
64,191,105150,128,2,105503:0:0:0:0:
192,192,105150,1,12,0:0:0:0:
192,191,105503,128,6,105856:0:0:0:0:
347,191,105856,128,12,106209:0:0:0:0:
64,192,105856,1,2,0:0:0:0:
192,191,106209,1,12,0:0:0:0:
448,192,106209,1,2,0:0:0:0:
219,191,106562,1,2,0:0:0:0:
347,191,106914,1,10,0:0:0:0:
475,191,107267,1,10,0:0:0:0:
64,191,107620,1,2,0:0:0:0:
219,191,107797,1,2,0:0:0:0:
283,191,107973,1,10,0:0:0:0:
448,191,108149,1,2,0:0:0:0:
347,191,108326,1,10,0:0:0:0:
155,191,108679,1,2,0:0:0:0:
91,191,108679,1,2,0:0:0:0:
192,191,109032,1,10,0:0:0:0:
283,191,109208,1,2,0:0:0:0:
192,191,109384,1,10,0:0:0:0:
411,191,109737,1,2,0:0:0:0:
91,191,109737,1,2,0:0:0:0:
347,191,110090,1,14,0:0:0:0:
155,191,110090,1,2,0:0:0:0:
27,191,110443,1,2,0:0:0:0:
448,192,110443,1,14,0:0:0:0:
155,191,110796,1,2,0:0:0:0:
283,191,110796,1,2,0:0:0:0:
219,191,111149,1,2,0:0:0:0:
347,191,111149,1,10,0:0:0:0:
475,191,111502,1,10,0:0:0:0:
64,192,111502,1,2,0:0:0:0:
27,191,112031,1,2,0:0:0:0:
192,191,112207,1,10,0:0:0:0:
320,191,112384,1,2,0:0:0:0:
219,191,112560,1,10,0:0:0:0:
283,191,112737,1,2,0:0:0:0:
411,191,112913,1,2,0:0:0:0:
283,191,113089,1,2,0:0:0:0:
475,191,113266,1,10,0:0:0:0:
283,191,113442,1,2,0:0:0:0:
411,191,113619,1,10,0:0:0:0:
64,192,113619,1,6,0:0:0:0:
219,191,113795,1,6,0:0:0:0:
347,191,113972,1,2,0:0:0:0:
219,191,114148,1,2,0:0:0:0:
411,191,114324,1,14,0:0:0:0:
219,190,114677,5,14,0:0:0:0:
283,190,115030,1,2,0:0:0:0:
155,190,115383,1,2,0:0:0:0:
347,190,115736,1,2,0:0:0:0:
27,190,116089,1,2,0:0:0:0:
219,190,116265,1,2,0:0:0:0:
283,190,116442,1,2,0:0:0:0:
411,190,116618,1,2,0:0:0:0:
320,190,116794,1,2,0:0:0:0:
91,190,116794,128,2,117500:0:0:0:0:
219,190,117147,1,2,0:0:0:0:
411,190,117147,1,2,0:0:0:0:
283,190,117500,1,2,0:0:0:0:
347,190,117853,128,2,118559:0:0:0:0:
64,192,117853,1,2,0:0:0:0:
219,191,118559,1,2,0:0:0:0:
411,190,118735,1,2,0:0:0:0:
27,190,118912,128,2,119264:0:0:0:0:
283,191,118912,1,2,0:0:0:0:
192,190,119264,128,2,119617:0:0:0:0:
320,190,119617,128,2,119970:0:0:0:0:
475,190,119970,128,2,120323:0:0:0:0:
283,190,120323,1,2,0:0:0:0:
448,192,120852,1,2,0:0:0:0:
192,192,121029,128,2,121382:0:0:0:0:
347,190,121382,128,2,121734:0:0:0:0:
155,190,121734,1,2,0:0:0:0:
448,190,121734,128,2,122087:0:0:0:0:
64,190,122087,1,2,0:0:0:0:
155,192,122440,1,2,0:0:0:0:
320,192,122617,1,2,0:0:0:0:
64,192,122793,1,2,0:0:0:0:
320,192,122969,1,2,0:0:0:0:
155,191,123146,128,10,123499:0:0:0:0:
320,190,123499,128,2,123852:0:0:0:0:
411,190,123852,1,2,0:0:0:0:
219,190,124204,1,2,0:0:0:0:
347,190,124204,1,2,0:0:0:0:
219,190,124557,1,2,0:0:0:0:
448,190,124557,1,2,0:0:0:0:
219,190,124910,128,2,125263:0:0:0:0:
347,190,124910,1,2,0:0:0:0:
448,190,125263,128,2,125616:0:0:0:0:
320,192,125263,1,10,0:0:0:0:
64,191,125439,1,2,0:0:0:0:
192,190,125616,128,2,125969:0:0:0:0:
283,192,125969,128,2,126322:0:0:0:0:
411,190,126322,128,2,126674:0:0:0:0:
155,190,126498,1,2,0:0:0:0:
64,191,126851,1,2,0:0:0:0:
283,190,127027,128,2,127380:0:0:0:0:
411,191,127027,1,2,0:0:0:0:
192,190,127380,128,10,128439:0:0:0:0:
448,192,127380,1,2,0:0:0:0:
91,190,127557,1,2,0:0:0:0:
64,190,127909,1,2,0:0:0:0:
283,190,128086,1,2,0:0:0:0:
320,190,128439,1,10,0:0:0:0:
448,190,128439,128,2,129144:0:0:0:0:
347,190,128792,1,2,0:0:0:0:
192,190,129144,128,2,129497:0:0:0:0:
320,192,129497,128,10,131614:0:0:0:0:
448,190,129674,1,2,0:0:0:0:
27,190,129850,1,2,0:0:0:0:
192,190,130027,1,2,0:0:0:0:
91,191,130203,1,2,0:0:0:0:
192,192,130379,1,2,0:0:0:0:
475,190,130556,1,10,0:0:0:0:
192,190,130732,1,2,0:0:0:0:
411,191,130909,1,2,0:0:0:0:
192,191,131085,1,2,0:0:0:0:
91,191,131262,1,2,0:0:0:0:
64,192,131614,128,2,131967:0:0:0:0:
192,192,131614,128,10,132673:0:0:0:0:
448,192,131967,128,2,132320:0:0:0:0:
320,192,132320,128,2,132673:0:0:0:0:
64,190,132673,128,2,133732:0:0:0:0:
448,190,132673,128,10,133026:0:0:0:0:
320,190,133026,128,2,133379:0:0:0:0:
192,192,133379,128,2,133732:0:0:0:0:
320,191,133732,128,10,134437:0:0:0:0:
448,190,134437,128,2,134790:0:0:0:0:
320,190,134790,128,10,135849:0:0:0:0:
64,192,134790,1,2,0:0:0:0:
192,191,135849,128,10,136907:0:0:0:0:
448,190,135849,128,2,136202:0:0:0:0:
320,190,136202,128,2,136554:0:0:0:0:
64,190,136554,128,2,136907:0:0:0:0:
448,190,136907,128,2,137260:0:0:0:0:
320,191,136907,128,10,137966:0:0:0:0:
64,190,137260,128,2,137613:0:0:0:0:
192,190,137613,128,2,137966:0:0:0:0:
64,191,137966,128,2,139024:0:0:0:0:
448,190,137966,128,10,139024:0:0:0:0:
320,190,139024,128,10,140083:0:0:0:0:
192,192,139024,1,6,0:0:0:0:
448,192,139730,1,6,0:0:0:0:
64,190,140083,128,14,141142:0:0:0:0:
192,192,140083,1,2,0:0:0:0:
448,192,140259,1,2,0:0:0:0:
192,191,140612,1,2,0:0:0:0:
448,191,140789,1,10,0:0:0:0:
448,190,141142,128,2,141494:0:0:0:0:
64,190,141494,1,2,0:0:0:0:
192,191,141671,1,2,0:0:0:0:
448,190,141847,1,2,0:0:0:0:
320,191,141847,1,10,0:0:0:0:
320,191,142200,1,2,0:0:0:0:
448,190,142377,1,2,0:0:0:0:
347,190,142553,1,2,0:0:0:0:
320,191,142906,1,10,0:0:0:0:
192,190,143082,1,2,0:0:0:0:
320,190,143259,1,6,0:0:0:0:
64,190,143612,1,2,0:0:0:0:
320,190,143612,1,2,0:0:0:0:
448,190,143964,1,2,0:0:0:0:
192,190,143964,1,10,0:0:0:0:
320,190,144317,1,6,0:0:0:0:
448,191,144317,128,2,146082:0:0:0:0:
192,190,144670,1,2,0:0:0:0:
64,190,145023,1,10,0:0:0:0:
64,190,145376,1,2,0:0:0:0:
320,190,145729,1,2,0:0:0:0:
192,190,146082,1,10,0:0:0:0:
448,190,146434,1,2,0:0:0:0:
192,192,146434,128,2,148552:0:0:0:0:
448,192,146611,1,2,0:0:0:0:
320,190,146787,1,2,0:0:0:0:
64,192,146964,1,2,0:0:0:0:
448,192,147140,1,2,0:0:0:0:
320,192,147140,1,10,0:0:0:0:
448,190,147493,1,6,0:0:0:0:
320,192,147669,1,2,0:0:0:0:
64,192,147846,1,6,0:0:0:0:
320,190,148022,1,2,0:0:0:0:
448,192,148199,1,14,0:0:0:0:
320,192,148552,128,6,148904:0:0:0:0:
64,192,148552,1,2,0:0:0:0:
192,190,148904,128,2,149257:0:0:0:0:
320,191,149257,128,10,149610:0:0:0:0:
192,190,149610,128,2,149963:0:0:0:0:
64,192,149963,1,2,0:0:0:0:
64,192,150139,1,2,0:0:0:0:
448,192,150316,1,10,0:0:0:0:
320,190,150669,128,2,151198:0:0:0:0:
64,192,150669,1,2,0:0:0:0:
192,192,151198,1,2,0:0:0:0:
320,190,151374,1,10,0:0:0:0:
192,190,151551,1,2,0:0:0:0:
320,190,151727,1,6,0:0:0:0:
64,190,152080,1,2,0:0:0:0:
192,190,152080,1,6,0:0:0:0:
320,190,152433,1,14,0:0:0:0:
192,190,152433,1,2,0:0:0:0:
448,190,152786,1,6,0:0:0:0:
320,192,152786,128,2,154550:0:0:0:0:
448,192,154550,128,10,154903:0:0:0:0:
64,190,154903,128,2,156667:0:0:0:0:
320,190,154903,1,2,0:0:0:0:
192,190,155080,1,2,0:0:0:0:
320,190,155256,1,2,0:0:0:0:
192,190,155432,1,2,0:0:0:0:
320,190,155609,1,10,0:0:0:0:
448,190,155962,1,2,0:0:0:0:
192,192,155962,1,6,0:0:0:0:
192,190,156138,1,6,0:0:0:0:
320,190,156315,1,2,0:0:0:0:
448,190,156491,1,2,0:0:0:0:
192,190,156667,1,6,0:0:0:0:
192,191,157020,1,6,0:0:0:0:
320,190,157020,128,2,158079:0:0:0:0:
64,191,157197,1,2,0:0:0:0:
192,191,157550,1,2,0:0:0:0:
64,191,157726,1,10,0:0:0:0:
192,190,158079,1,10,0:0:0:0:
192,191,158432,1,2,0:0:0:0:
320,190,158432,1,2,0:0:0:0:
320,191,158608,1,2,0:0:0:0:
64,191,158785,1,10,0:0:0:0:
448,190,158961,1,2,0:0:0:0:
192,190,159137,128,10,159490:0:0:0:0:
320,190,159490,128,2,159843:0:0:0:0:
448,192,159843,1,10,0:0:0:0:
192,190,160196,128,14,160549:0:0:0:0:
448,190,160549,128,6,160902:0:0:0:0:
64,192,160902,128,14,161255:0:0:0:0:
320,190,161255,128,6,162313:0:0:0:0:
192,190,161255,128,10,162313:0:0:0:0:
64,190,161607,1,2,0:0:0:0:
448,190,161960,1,10,0:0:0:0:
64,190,162313,1,10,0:0:0:0:
320,192,162842,1,2,0:0:0:0:
64,192,163019,1,10,0:0:0:0:
448,192,163195,1,2,0:0:0:0:
192,191,163372,1,2,0:0:0:0:
64,191,163372,128,10,165489:0:0:0:0:
320,191,163548,1,2,0:0:0:0:
448,191,163725,1,2,0:0:0:0:
192,191,163901,1,2,0:0:0:0:
320,191,164077,1,10,0:0:0:0:
320,191,164430,1,14,0:0:0:0:
192,191,164607,1,2,0:0:0:0:
448,191,164783,1,6,0:0:0:0:
192,191,164960,1,2,0:0:0:0:
320,191,165136,1,14,0:0:0:0:
320,190,165489,1,14,0:0:0:0:
64,190,165842,1,2,0:0:0:0:
448,192,165842,1,2,0:0:0:0:
320,190,166195,1,10,0:0:0:0:
192,190,166195,1,2,0:0:0:0:
448,190,166547,1,10,0:0:0:0:
64,190,166547,1,2,0:0:0:0:
448,190,166900,1,2,0:0:0:0:
320,190,166900,1,2,0:0:0:0:
64,190,167077,1,2,0:0:0:0:
320,192,167253,1,10,0:0:0:0:
192,191,167253,1,2,0:0:0:0:
448,190,167430,1,2,0:0:0:0:
64,190,167606,1,2,0:0:0:0:
320,190,167606,128,10,167959:0:0:0:0:
448,190,167959,128,2,168312:0:0:0:0:
320,190,168312,128,10,168665:0:0:0:0:
192,190,168665,128,10,169370:0:0:0:0:
320,190,169370,128,14,169723:0:0:0:0:
192,191,169723,128,14,171487:0:0:0:0:
320,190,170076,1,2,0:0:0:0:
448,190,170429,1,2,0:0:0:0:
320,191,170429,1,10,0:0:0:0:
320,190,170782,1,10,0:0:0:0:
448,191,171135,1,2,0:0:0:0:
64,191,171135,1,2,0:0:0:0:
64,190,171487,1,10,0:0:0:0:
448,190,171487,1,2,0:0:0:0:
64,190,171840,128,10,173957:0:0:0:0:
320,191,171840,128,2,173957:0:0:0:0:
192,191,173957,1,2,0:0:0:0:
192,191,174134,1,2,0:0:0:0:
64,191,174310,1,2,0:0:0:0:
448,191,174663,1,2,0:0:0:0:
320,191,175016,1,2,0:0:0:0:
192,191,175369,1,2,0:0:0:0:
64,191,175545,1,2,0:0:0:0:
192,191,175722,1,2,0:0:0:0:
320,191,175898,1,2,0:0:0:0:
448,191,176075,1,2,0:0:0:0:
320,191,176251,1,2,0:0:0:0:
64,191,176427,1,2,0:0:0:0:
320,191,176780,1,2,0:0:0:0:
64,191,177133,1,2,0:0:0:0:
320,191,177486,1,2,0:0:0:0:
64,191,177662,1,2,0:0:0:0:
192,191,177839,1,2,0:0:0:0:
448,191,178015,1,2,0:0:0:0:
192,191,178192,1,2,0:0:0:0:
448,191,178368,1,2,0:0:0:0:
320,191,178545,1,2,0:0:0:0:
320,191,178897,1,2,0:0:0:0:
192,191,179250,1,2,0:0:0:0:
320,191,179603,1,2,0:0:0:0:
448,191,179780,1,2,0:0:0:0:
192,191,179956,1,2,0:0:0:0:
320,191,180132,1,2,0:0:0:0:
448,191,180309,1,2,0:0:0:0:
347,191,180485,1,2,0:0:0:0:
283,191,180662,1,2,0:0:0:0:
219,191,180838,1,2,0:0:0:0:
27,191,181015,1,2,0:0:0:0:
91,191,181191,1,2,0:0:0:0:
155,191,181367,1,2,0:0:0:0:
192,191,181720,1,2,0:0:0:0:
448,191,182073,1,2,0:0:0:0:
320,191,182426,1,2,0:0:0:0:
192,191,182426,128,2,183132:0:0:0:0:
64,191,183132,1,10,0:0:0:0:
192,191,183485,1,10,0:0:0:0:
64,191,183485,128,2,184543:0:0:0:0:
320,191,183837,1,2,0:0:0:0:
448,191,184014,1,2,0:0:0:0:
192,191,184190,1,10,0:0:0:0:
448,191,184367,1,2,0:0:0:0:
192,191,184543,128,10,185249:0:0:0:0:
448,192,184896,1,2,0:0:0:0:
64,191,185249,1,10,0:0:0:0:
448,191,185425,1,2,0:0:0:0:
320,191,185602,128,10,186660:0:0:0:0:
192,191,185955,1,2,0:0:0:0:
448,191,186307,1,10,0:0:0:0:
448,191,186660,128,10,187366:0:0:0:0:
192,191,187013,1,2,0:0:0:0:
64,191,187366,1,10,0:0:0:0:
64,191,187719,128,10,188777:0:0:0:0:
192,191,188248,1,2,0:0:0:0:
192,191,188425,1,10,0:0:0:0:
320,191,188601,1,2,0:0:0:0:
448,191,188777,128,14,189660:0:0:0:0:
192,191,188954,1,2,0:0:0:0:
320,191,189130,1,2,0:0:0:0:
64,191,189307,1,2,0:0:0:0:
320,191,189483,1,10,0:0:0:0:
64,191,189660,1,2,0:0:0:0:
320,191,189836,1,6,0:0:0:0:
192,191,189836,128,10,190718:0:0:0:0:
448,191,190012,1,2,0:0:0:0:
64,191,190189,1,2,0:0:0:0:
448,191,190365,1,2,0:0:0:0:
64,191,190542,1,14,0:0:0:0:
320,191,190718,1,2,0:0:0:0:
320,190,190895,5,14,0:0:0:0:
192,191,191071,1,2,0:0:0:0:
64,191,191247,1,2,0:0:0:0:
320,191,191424,1,2,0:0:0:0:
192,191,191600,1,10,0:0:0:0:
64,191,191777,1,2,0:0:0:0:
448,191,191953,1,10,0:0:0:0:
320,191,192130,1,2,0:0:0:0:
192,191,192306,1,2,0:0:0:0:
448,191,192482,1,2,0:0:0:0:
320,191,192659,1,10,0:0:0:0:
192,191,192835,1,2,0:0:0:0:
192,191,193012,1,10,0:0:0:0:
64,191,193188,1,2,0:0:0:0:
192,191,193365,1,2,0:0:0:0:
448,191,193541,1,2,0:0:0:0:
320,191,193717,1,10,0:0:0:0:
192,191,193894,1,2,0:0:0:0:
320,191,194070,1,14,0:0:0:0:
448,191,194247,1,2,0:0:0:0:
192,191,194423,1,2,0:0:0:0:
320,191,194600,1,2,0:0:0:0:
448,191,194776,1,10,0:0:0:0:
64,191,194952,1,2,0:0:0:0:
320,191,195129,1,6,0:0:0:0:
192,191,195129,1,10,0:0:0:0:
320,191,195482,1,2,0:0:0:0:
64,191,195835,1,10,0:0:0:0:
192,191,196187,1,10,0:0:0:0:
320,191,196540,1,2,0:0:0:0:
448,191,196717,1,2,0:0:0:0:
192,191,196893,1,10,0:0:0:0:
320,191,197070,1,2,0:0:0:0:
448,191,197246,1,10,0:0:0:0:
64,191,197246,128,2,197422:0:0:0:0:
192,191,197422,128,2,197599:0:0:0:0:
320,191,197599,128,2,197775:0:0:0:0:
448,191,197775,128,2,197952:0:0:0:0:
320,191,197952,128,10,198128:0:0:0:0:
192,191,198128,128,2,198305:0:0:0:0:
320,191,198305,128,14,198657:0:0:0:0:
192,191,198657,128,6,199010:0:0:0:0:
64,191,199010,128,14,199363:0:0:0:0:
320,192,199363,1,14,0:0:0:0:
192,191,199540,1,2,0:0:0:0:
448,191,199716,1,2,0:0:0:0:
192,191,199892,1,2,0:0:0:0:
320,191,200069,1,10,0:0:0:0:
448,191,200245,1,2,0:0:0:0:
64,191,200422,1,10,0:0:0:0:
192,191,200598,1,2,0:0:0:0:
320,191,200775,1,2,0:0:0:0:
192,191,200951,1,2,0:0:0:0:
320,191,201127,1,10,0:0:0:0:
448,191,201304,1,2,0:0:0:0:
192,191,201480,1,10,0:0:0:0:
64,191,201657,1,2,0:0:0:0:
192,191,201833,1,2,0:0:0:0:
320,191,202010,1,2,0:0:0:0:
448,191,202186,1,10,0:0:0:0:
192,191,202362,1,2,0:0:0:0:
448,191,202539,1,10,0:0:0:0:
192,191,202715,1,2,0:0:0:0:
448,191,202892,1,2,0:0:0:0:
64,191,203068,1,2,0:0:0:0:
320,191,203245,1,14,0:0:0:0:
64,191,203421,1,2,0:0:0:0:
320,191,203597,128,14,203950:0:0:0:0:
192,191,203950,128,2,204303:0:0:0:0:
448,191,204303,128,10,204656:0:0:0:0:
96,192,204656,128,10,205185:0:0:0:0:
448,191,205185,1,2,0:0:0:0:
352,191,205362,1,10,0:0:0:0:
288,191,205538,1,2,0:0:0:0:
96,191,205715,1,10,0:0:0:0:
320,191,205891,1,2,0:0:0:0:
64,191,206068,1,2,0:0:0:0:
192,191,206244,1,2,0:0:0:0:
64,191,206420,1,10,0:0:0:0:
160,191,206597,1,2,0:0:0:0:
224,191,206773,5,2,0:0:0:0:
320,192,206773,1,10,0:0:0:0:
64,192,207479,1,2,0:0:0:0:
448,192,207479,1,14,0:0:0:0:
224,191,207832,128,14,208890:0:0:0:0:
288,191,208890,128,2,209243:0:0:0:0:
416,191,209243,1,2,0:0:0:0:
352,191,209420,1,2,0:0:0:0:
96,191,209596,1,10,0:0:0:0:
160,191,209773,1,2,0:0:0:0:
288,191,209949,1,2,0:0:0:0:
224,191,210302,128,2,210655:0:0:0:0:
448,192,210302,1,2,0:0:0:0:
320,192,210478,1,2,0:0:0:0:
64,191,210655,128,10,211008:0:0:0:0:
352,191,211008,128,6,211360:0:0:0:0:
224,191,211360,1,2,0:0:0:0:
288,191,211713,1,10,0:0:0:0:
448,191,212066,1,6,0:0:0:0:
320,191,212066,128,2,213830:0:0:0:0:
224,191,212243,1,2,0:0:0:0:
416,191,212419,1,2,0:0:0:0:
64,191,212595,1,2,0:0:0:0:
160,191,212772,1,10,0:0:0:0:
160,191,213125,1,2,0:0:0:0:
64,191,213301,1,2,0:0:0:0:
416,191,213478,1,2,0:0:0:0:
224,191,213654,1,2,0:0:0:0:
448,191,213830,1,10,0:0:0:0:
352,191,214007,1,2,0:0:0:0:
192,191,214183,1,2,0:0:0:0:
320,191,214183,128,2,215948:0:0:0:0:
64,191,214360,1,2,0:0:0:0:
160,191,214536,1,2,0:0:0:0:
64,191,214713,1,2,0:0:0:0:
160,191,214889,1,10,0:0:0:0:
64,191,215065,1,2,0:0:0:0:
416,191,215242,128,6,215595:0:0:0:0:
192,191,215595,128,6,215948:0:0:0:0:
64,192,215948,1,14,0:0:0:0:
224,191,216300,1,6,0:0:0:0:
224,191,216477,1,2,0:0:0:0:
288,191,216653,1,2,0:0:0:0:
320,192,216830,128,2,217006:0:0:0:0:
224,191,217006,1,10,0:0:0:0:
224,191,217183,1,2,0:0:0:0:
352,191,217359,1,2,0:0:0:0:
96,191,217712,1,2,0:0:0:0:
160,191,217888,1,2,0:0:0:0:
32,191,218065,1,10,0:0:0:0:
224,191,218241,1,2,0:0:0:0:
96,191,218418,1,2,0:0:0:0:
352,191,218770,1,2,0:0:0:0:
448,191,218770,1,2,0:0:0:0:
160,191,219123,128,10,219300:0:0:0:0:
288,191,219300,1,2,0:0:0:0:
288,191,219476,1,2,0:0:0:0:
416,192,219829,1,6,0:0:0:0:
416,192,220005,1,2,0:0:0:0:
448,191,220182,128,14,222299:0:0:0:0:
320,191,220535,128,6,222299:0:0:0:0:
192,191,222299,1,10,0:0:0:0:
448,191,222652,128,2,224769:0:0:0:0:
64,192,222652,1,2,0:0:0:0:
320,192,223710,1,6,0:0:0:0:
192,192,223887,1,6,0:0:0:0:
64,192,224063,1,2,0:0:0:0:
192,192,224416,1,6,0:0:0:0:
224,191,224769,128,2,225828:0:0:0:0:
320,192,224769,1,6,0:0:0:0:
352,191,225828,1,2,0:0:0:0:
416,191,225828,1,2,0:0:0:0:
448,191,226004,1,2,0:0:0:0:
192,191,226180,1,2,0:0:0:0:
64,191,226180,1,2,0:0:0:0:
64,191,226357,1,2,0:0:0:0:
448,191,226533,1,10,0:0:0:0:
320,191,226533,1,2,0:0:0:0:
96,191,226886,1,2,0:0:0:0:
160,191,226886,128,2,227592:0:0:0:0:
96,191,227592,1,10,0:0:0:0:
224,191,227768,1,2,0:0:0:0:
448,191,227768,1,2,0:0:0:0:
221,191,227945,1,6,0:0:0:0:
352,191,228298,1,0,0:0:0:0:
224,191,228650,1,6,0:0:0:0:
448,192,228650,1,10,0:0:0:0:
288,191,229003,128,6,229709:0:0:0:0:
448,192,229709,1,10,0:0:0:0:
192,191,230062,128,2,230415:0:0:0:0:
448,192,230415,1,2,0:0:0:0:
320,192,230415,1,2,0:0:0:0:
224,191,230591,1,2,0:0:0:0:
448,191,230768,1,10,0:0:0:0:
320,191,230944,1,2,0:0:0:0:
160,191,231120,128,2,232532:0:0:0:0:
288,191,231297,1,2,0:0:0:0:
352,191,231473,1,2,0:0:0:0:
416,191,231650,1,2,0:0:0:0:
352,191,231826,1,10,0:0:0:0:
416,191,232003,1,2,0:0:0:0:
352,191,232179,128,6,232532:0:0:0:0:
448,191,232532,128,6,232885:0:0:0:0:
192,191,232885,128,14,233238:0:0:0:0:
64,191,233238,1,6,0:0:0:0:
224,191,233414,1,2,0:0:0:0:
320,191,233590,1,2,0:0:0:0:
224,191,233767,1,2,0:0:0:0:
416,191,233943,1,10,0:0:0:0:
352,191,234120,1,2,0:0:0:0:
320,192,234296,128,2,234649:0:0:0:0:
160,191,234649,1,2,0:0:0:0:
224,191,234825,1,2,0:0:0:0:
416,191,235002,1,10,0:0:0:0:
352,191,235178,1,2,0:0:0:0:
352,191,235355,128,2,235708:0:0:0:0:
160,191,235708,1,2,0:0:0:0:
224,191,235884,1,2,0:0:0:0:
416,191,236060,1,10,0:0:0:0:
352,191,236237,1,2,0:0:0:0:
320,192,236413,128,2,236766:0:0:0:0:
192,192,236766,128,10,237119:0:0:0:0:
352,191,237119,128,6,237472:0:0:0:0:
448,192,237472,128,6,239589:0:0:0:0:
192,192,238178,1,10,0:0:0:0:
64,192,238530,1,2,0:0:0:0:
320,192,239236,1,10,0:0:0:0:
320,192,239589,1,2,0:0:0:0:
64,192,239589,1,2,0:0:0:0:
192,192,239765,1,2,0:0:0:0:
448,192,239942,1,2,0:0:0:0:
320,192,240118,1,2,0:0:0:0:
192,192,240295,1,2,0:0:0:0:
320,192,240471,1,2,0:0:0:0:
448,192,240648,1,2,0:0:0:0:
64,192,240648,1,4,0:0:0:0:
192,192,240824,1,4,0:0:0:0:
320,192,240824,1,2,0:0:0:0:
448,192,241353,1,2,0:0:0:0:
192,192,241353,1,4,0:0:0:0:
64,192,241706,1,4,0:0:0:0:
320,192,241706,1,2,0:0:0:0:
