osu file format v14

[General]
AudioFilename: Imaginary Waltz - EnglishRomajiKanji sub.mp3
AudioLeadIn: 0
PreviewTime: 61749
Countdown: 0
SampleSet: Soft
StackLeniency: 0.7
Mode: 3
LetterboxInBreaks: 0
SpecialStyle: 0
WidescreenStoryboard: 0

[Editor]
DistanceSpacing: 0.8
BeatDivisor: 4
GridSize: 4
TimelineZoom: 1.4

[Metadata]
Title:Imaginary Waltz
TitleUnicode:Imaginary Waltz
Artist:Niira Etsuko
ArtistUnicode:新良エツ子
Creator:-Troke-
Version:EZ
Source:
Tags:Umineko no Naku Koro ni なかない君と嘆きの幻想 nakanai kimi to nageki no gensou Lunatic Raccoon Sirade
BeatmapID:458240
BeatmapSetID:189927

[Difficulty]
HPDrainRate:6
CircleSize:4
OverallDifficulty:7
ApproachRate:5
SliderMultiplier:1.4
SliderTickRate:1

[Events]
//Background and Video events
0,0,"156123.jpg",0,0
//Break Periods
//Storyboard Layer 0 (Background)
//Storyboard Layer 1 (Fail)
//Storyboard Layer 2 (Pass)
//Storyboard Layer 3 (Foreground)
//Storyboard Sound Samples

[TimingPoints]
4586,352.858151023289,3,2,1,39,1,0
63866,-100,3,2,1,39,0,1
97740,-100,3,2,1,39,0,0
140083,-100,3,2,1,39,0,1
173957,-100,3,2,1,39,0,0
207832,-100,3,2,1,39,0,1
241706,-100,3,2,1,39,0,0

[HitObjects]
256,256,4586,5,2,0:0:0:0:
64,192,4938,1,2,0:0:0:0:
320,192,5291,1,2,0:0:0:0:
192,192,5644,1,2,0:0:0:0:
448,192,5997,1,2,0:0:0:0:
192,192,6173,1,2,0:0:0:0:
320,192,6350,1,2,0:0:0:0:
64,192,6526,1,2,0:0:0:0:
192,192,6703,1,2,0:0:0:0:
192,192,7056,1,2,0:0:0:0:
320,192,7408,1,2,0:0:0:0:
448,192,7761,1,2,0:0:0:0:
192,192,8114,1,2,0:0:0:0:
320,192,8467,1,2,0:0:0:0:
448,192,8820,1,2,0:0:0:0:
320,192,9173,1,2,0:0:0:0:
192,192,9526,1,2,0:0:0:0:
64,192,9878,1,2,0:0:0:0:
64,192,10231,1,2,0:0:0:0:
320,192,10408,1,2,0:0:0:0:
192,192,10584,1,2,0:0:0:0:
448,192,10761,1,2,0:0:0:0:
320,192,10937,1,2,0:0:0:0:
320,192,11290,1,2,0:0:0:0:
448,192,11643,1,2,0:0:0:0:
320,192,11819,1,2,0:0:0:0:
192,192,11996,128,2,12348:0:0:0:0:
64,192,12348,128,2,12701:0:0:0:0:
192,192,12701,1,2,0:0:0:0:
448,192,13054,128,2,14113:0:0:0:0:
192,192,13054,1,2,0:0:0:0:
64,192,13760,1,2,0:0:0:0:
320,192,14113,128,2,15171:0:0:0:0:
64,192,15171,128,2,17288:0:0:0:0:
192,192,15171,1,2,0:0:0:0:
448,192,15877,1,2,0:0:0:0:
448,192,16230,1,2,0:0:0:0:
320,192,16936,1,2,0:0:0:0:
448,192,17288,1,2,0:0:0:0:
192,192,17288,128,2,18347:0:0:0:0:
320,192,17994,1,2,0:0:0:0:
64,192,18347,128,2,18700:0:0:0:0:
448,192,18347,1,2,0:0:0:0:
448,192,18876,1,2,0:0:0:0:
192,192,19053,1,2,0:0:0:0:
320,192,19229,1,2,0:0:0:0:
64,192,19406,1,12,0:0:0:0:
448,192,19406,1,2,0:0:0:0:
320,192,19758,1,2,0:0:0:0:
64,192,20111,1,2,0:0:0:0:
320,192,20464,1,2,0:0:0:0:
64,192,20464,1,12,0:0:0:0:
448,192,20817,1,2,0:0:0:0:
320,192,21170,1,10,0:0:0:0:
192,192,21170,1,4,0:0:0:0:
448,192,21523,1,2,0:0:0:0:
64,192,21523,1,4,0:0:0:0:
320,192,21876,1,2,0:0:0:0:
192,192,22228,1,2,0:0:0:0:
64,192,22581,1,2,0:0:0:0:
448,192,22934,1,2,0:0:0:0:
192,192,23111,1,2,0:0:0:0:
320,192,23287,1,2,0:0:0:0:
64,192,23463,1,2,0:0:0:0:
192,192,23640,1,2,0:0:0:0:
192,192,23993,1,2,0:0:0:0:
320,192,24346,1,2,0:0:0:0:
64,192,24698,1,2,0:0:0:0:
448,192,24698,1,4,0:0:0:0:
320,192,25051,1,2,0:0:0:0:
192,192,25404,1,2,0:0:0:0:
64,192,25757,1,4,0:0:0:0:
320,192,25757,1,2,0:0:0:0:
192,192,26110,1,2,0:0:0:0:
320,192,26463,1,2,0:0:0:0:
448,192,26816,1,2,0:0:0:0:
320,192,27168,1,2,0:0:0:0:
192,192,27521,1,2,0:0:0:0:
320,192,27874,1,2,0:0:0:0:
64,192,27874,1,4,0:0:0:0:
192,192,28227,1,2,0:0:0:0:
320,192,28580,1,2,0:0:0:0:
448,192,28933,1,6,0:0:0:0:
320,192,29286,1,2,0:0:0:0:
320,192,29638,1,4,0:0:0:0:
64,192,29638,1,2,0:0:0:0:
448,192,29991,1,2,0:0:0:0:
192,192,29991,1,4,0:0:0:0:
192,192,30344,1,2,0:0:0:0:
320,192,30697,1,2,0:0:0:0:
64,192,31050,1,2,0:0:0:0:
192,192,31403,1,2,0:0:0:0:
448,192,31756,1,2,0:0:0:0:
320,192,32108,1,2,0:0:0:0:
192,192,32461,1,2,0:0:0:0:
64,192,32814,1,2,0:0:0:0:
192,192,33167,1,2,0:0:0:0:
320,192,33520,1,2,0:0:0:0:
448,192,33873,1,4,0:0:0:0:
192,192,33873,1,2,0:0:0:0:
64,192,34226,1,4,0:0:0:0:
448,192,34226,1,2,0:0:0:0:
320,192,34578,1,2,0:0:0:0:
448,192,34931,1,2,0:0:0:0:
64,192,35284,1,2,0:0:0:0:
448,192,35813,1,2,0:0:0:0:
192,192,35990,1,2,0:0:0:0:
320,192,36166,1,2,0:0:0:0:
64,192,36343,1,2,0:0:0:0:
320,192,36696,1,2,0:0:0:0:
320,192,37048,1,2,0:0:0:0:
448,192,37401,1,2,0:0:0:0:
64,192,37401,1,2,0:0:0:0:
320,192,37754,1,2,0:0:0:0:
192,192,38107,1,2,0:0:0:0:
320,192,38460,128,6,38813:0:0:0:0:
192,192,38813,1,2,0:0:0:0:
64,192,39166,128,2,39518:0:0:0:0:
192,192,39518,1,2,0:0:0:0:
192,192,39871,1,2,0:0:0:0:
448,192,40224,128,2,40577:0:0:0:0:
320,192,40577,1,2,0:0:0:0:
320,192,40930,1,2,0:0:0:0:
64,192,41283,128,2,41636:0:0:0:0:
192,192,41636,128,2,42341:0:0:0:0:
320,192,42341,128,2,42694:0:0:0:0:
192,192,42694,1,2,0:0:0:0:
64,192,43047,1,2,0:0:0:0:
448,192,43400,128,2,43753:0:0:0:0:
320,192,43753,1,2,0:0:0:0:
64,192,44106,1,2,0:0:0:0:
192,192,44106,128,2,44811:0:0:0:0:
320,192,44811,1,2,0:0:0:0:
64,192,45164,1,2,0:0:0:0:
448,192,45517,128,2,45870:0:0:0:0:
320,192,45870,5,2,0:0:0:0:
192,192,46223,1,2,0:0:0:0:
320,192,46576,1,2,0:0:0:0:
448,192,46928,5,4,0:0:0:0:
64,192,46928,1,2,0:0:0:0:
192,192,47281,1,2,0:0:0:0:
320,192,47634,1,2,0:0:0:0:
448,192,47987,1,8,0:0:0:0:
192,192,47987,1,2,0:0:0:0:
320,192,48340,1,2,0:0:0:0:
192,192,48693,1,2,0:0:0:0:
64,192,49046,1,2,0:0:0:0:
320,192,49046,1,8,0:0:0:0:
192,192,49398,1,2,0:0:0:0:
320,192,49751,1,2,0:0:0:0:
192,192,50104,1,2,0:0:0:0:
448,192,50104,1,8,0:0:0:0:
320,192,50457,1,2,0:0:0:0:
192,192,50810,1,2,0:0:0:0:
64,192,51163,1,8,0:0:0:0:
320,192,51163,1,2,0:0:0:0:
192,192,51516,1,2,0:0:0:0:
320,192,51868,1,2,0:0:0:0:
192,192,52221,1,2,0:0:0:0:
448,192,52221,1,8,0:0:0:0:
320,192,52574,1,2,0:0:0:0:
192,192,52927,1,2,0:0:0:0:
64,192,53280,1,2,0:0:0:0:
192,192,53280,1,0,0:0:0:0:
192,192,53633,1,0,0:0:0:0:
320,192,53986,1,0,0:0:0:0:
192,192,54338,1,2,0:0:0:0:
448,192,54338,1,0,0:0:0:0:
192,192,54691,1,0,0:0:0:0:
64,192,55044,1,0,0:0:0:0:
320,192,55397,128,2,56456:0:0:0:0:
448,192,56456,128,2,57514:0:0:0:0:
320,192,57514,128,2,58573:0:0:0:0:
192,192,58573,128,2,59631:0:0:0:0:
64,192,59631,128,2,60690:0:0:0:0:
192,192,60690,128,2,61749:0:0:0:0:
320,192,61749,128,2,62807:0:0:0:0:
64,192,62807,1,6,0:0:0:0:
192,192,62984,1,6,0:0:0:0:
64,192,63160,1,2,0:0:0:0:
448,192,63513,1,6,0:0:0:0:
64,192,63866,1,8,0:0:0:0:
448,192,63866,1,6,0:0:0:0:
320,192,64219,1,2,0:0:0:0:
192,192,64571,1,2,0:0:0:0:
320,192,64924,1,2,0:0:0:0:
64,192,64924,1,2,0:0:0:0:
192,192,65277,1,2,0:0:0:0:
320,192,65630,1,2,0:0:0:0:
192,192,65983,1,2,0:0:0:0:
448,192,65983,1,2,0:0:0:0:
320,192,66336,1,2,0:0:0:0:
192,192,66689,1,2,0:0:0:0:
320,192,67041,1,4,0:0:0:0:
64,192,67041,1,2,0:0:0:0:
192,192,67394,1,2,0:0:0:0:
448,192,67747,1,2,0:0:0:0:
320,192,68100,1,4,0:0:0:0:
192,192,68100,1,2,0:0:0:0:
64,192,68453,1,2,0:0:0:0:
320,192,68806,1,2,0:0:0:0:
448,192,69159,1,2,0:0:0:0:
320,192,69511,1,2,0:0:0:0:
320,192,69864,1,2,0:0:0:0:
192,192,70217,1,2,0:0:0:0:
448,192,70217,1,2,0:0:0:0:
320,192,70570,1,2,0:0:0:0:
192,192,70923,1,2,0:0:0:0:
320,192,71276,1,4,0:0:0:0:
64,192,71276,1,2,0:0:0:0:
192,192,71629,1,6,0:0:0:0:
448,192,71629,1,2,0:0:0:0:
320,192,71981,1,4,0:0:0:0:
192,192,71981,1,2,0:0:0:0:
192,192,72334,1,2,0:0:0:0:
448,192,72334,1,4,0:0:0:0:
320,192,72687,1,2,0:0:0:0:
192,192,73040,1,2,0:0:0:0:
320,192,73393,1,2,0:0:0:0:
64,192,73746,1,2,0:0:0:0:
448,192,73922,1,2,0:0:0:0:
64,192,74099,1,2,0:0:0:0:
320,192,74099,1,2,0:0:0:0:
448,192,74275,1,2,0:0:0:0:
192,192,74451,1,2,0:0:0:0:
192,192,74804,1,2,0:0:0:0:
448,192,75157,1,2,0:0:0:0:
64,192,75510,1,2,0:0:0:0:
192,192,75510,1,2,0:0:0:0:
192,192,75863,1,2,0:0:0:0:
448,192,75863,1,4,0:0:0:0:
192,192,76216,1,2,0:0:0:0:
320,192,76216,1,4,0:0:0:0:
64,192,76569,1,2,0:0:0:0:
320,192,76569,1,4,0:0:0:0:
448,192,76921,1,2,0:0:0:0:
320,192,77274,1,2,0:0:0:0:
192,192,77627,1,2,0:0:0:0:
64,192,77980,1,2,0:0:0:0:
320,192,78333,1,2,0:0:0:0:
320,192,78686,1,2,0:0:0:0:
192,192,79039,1,2,0:0:0:0:
448,192,79391,1,2,0:0:0:0:
448,192,79744,1,2,0:0:0:0:
320,192,79744,1,4,0:0:0:0:
64,192,79921,1,6,0:0:0:0:
448,192,80097,1,2,0:0:0:0:
192,192,80450,1,6,0:0:0:0:
64,192,80803,1,6,0:0:0:0:
448,192,80803,1,2,0:0:0:0:
320,192,81156,1,2,0:0:0:0:
448,192,81509,1,2,0:0:0:0:
448,192,81861,1,2,0:0:0:0:
64,192,81861,1,2,0:0:0:0:
320,192,82214,1,2,0:0:0:0:
64,192,82567,1,2,0:0:0:0:
64,192,82920,1,2,0:0:0:0:
448,192,83273,1,2,0:0:0:0:
320,192,83626,1,2,0:0:0:0:
320,192,83802,1,2,0:0:0:0:
192,192,83979,1,6,0:0:0:0:
320,192,84331,1,2,0:0:0:0:
448,192,84684,1,2,0:0:0:0:
192,192,85037,1,2,0:0:0:0:
64,192,85037,1,4,0:0:0:0:
192,192,85390,1,2,0:0:0:0:
320,192,85743,1,2,0:0:0:0:
192,192,86096,1,2,0:0:0:0:
320,192,86449,1,2,0:0:0:0:
448,192,86801,1,2,0:0:0:0:
64,192,87154,1,2,0:0:0:0:
192,192,87154,1,2,0:0:0:0:
448,192,87507,1,2,0:0:0:0:
320,192,87860,1,2,0:0:0:0:
192,192,88213,1,6,0:0:0:0:
448,192,88566,1,6,0:0:0:0:
320,192,88919,1,6,0:0:0:0:
320,192,89271,1,2,0:0:0:0:
448,192,89271,1,4,0:0:0:0:
64,192,89624,1,2,0:0:0:0:
192,192,89977,1,2,0:0:0:0:
320,192,90330,1,2,0:0:0:0:
192,192,90330,1,2,0:0:0:0:
64,192,90683,1,2,0:0:0:0:
320,192,90859,1,2,0:0:0:0:
192,192,91036,1,2,0:0:0:0:
320,192,91212,1,2,0:0:0:0:
448,192,91389,1,2,0:0:0:0:
192,192,91389,1,2,0:0:0:0:
320,192,91741,1,2,0:0:0:0:
192,192,92094,1,2,0:0:0:0:
64,192,92094,1,2,0:0:0:0:
320,192,92447,1,2,0:0:0:0:
448,192,92800,1,2,0:0:0:0:
320,192,93153,1,2,0:0:0:0:
64,192,93153,1,4,0:0:0:0:
320,192,93506,1,2,0:0:0:0:
192,192,93506,128,4,95270:0:0:0:0:
448,192,93859,1,2,0:0:0:0:
64,192,94211,1,2,0:0:0:0:
448,192,94564,1,2,0:0:0:0:
64,192,94917,1,2,0:0:0:0:
320,192,95270,1,2,0:0:0:0:
448,192,95623,1,2,0:0:0:0:
320,192,95976,1,2,0:0:0:0:
192,192,96329,1,2,0:0:0:0:
320,192,96681,1,2,0:0:0:0:
192,192,97034,1,2,0:0:0:0:
320,192,97387,1,2,0:0:0:0:
448,192,97740,1,2,0:0:0:0:
192,192,97740,1,4,0:0:0:0:
448,192,98093,1,2,0:0:0:0:
64,192,98446,1,2,0:0:0:0:
448,192,98799,1,2,0:0:0:0:
64,192,99151,1,2,0:0:0:0:
448,192,99328,1,2,0:0:0:0:
192,192,99504,1,2,0:0:0:0:
320,192,99681,1,2,0:0:0:0:
64,192,99857,1,2,0:0:0:0:
320,192,100210,1,2,0:0:0:0:
192,192,100563,1,2,0:0:0:0:
320,192,100916,1,2,0:0:0:0:
192,192,100916,1,4,0:0:0:0:
320,192,101269,1,2,0:0:0:0:
448,192,101621,1,2,0:0:0:0:
192,192,101974,1,2,0:0:0:0:
448,192,101974,1,4,0:0:0:0:
320,192,102327,1,2,0:0:0:0:
192,192,102680,1,2,0:0:0:0:
64,192,103033,1,2,0:0:0:0:
192,192,103033,1,2,0:0:0:0:
320,192,103386,1,2,0:0:0:0:
64,192,103562,1,2,0:0:0:0:
448,192,103739,1,2,0:0:0:0:
320,192,103915,1,2,0:0:0:0:
448,192,104091,1,2,0:0:0:0:
192,192,104444,1,2,0:0:0:0:
320,192,104797,1,2,0:0:0:0:
192,192,105150,1,4,0:0:0:0:
448,192,105150,1,2,0:0:0:0:
320,192,105503,1,6,0:0:0:0:
192,192,105856,1,6,0:0:0:0:
64,192,106209,1,2,0:0:0:0:
448,192,106209,1,4,0:0:0:0:
320,192,106562,1,2,0:0:0:0:
448,192,106914,1,2,0:0:0:0:
192,192,107267,1,2,0:0:0:0:
448,192,107620,1,2,0:0:0:0:
320,192,107797,1,2,0:0:0:0:
192,192,107973,1,2,0:0:0:0:
64,192,108149,1,2,0:0:0:0:
448,192,108326,1,2,0:0:0:0:
192,192,108679,1,2,0:0:0:0:
64,192,109032,1,2,0:0:0:0:
320,192,109384,1,2,0:0:0:0:
192,192,109737,1,6,0:0:0:0:
448,192,110090,1,6,0:0:0:0:
320,192,110443,1,2,0:0:0:0:
64,192,110443,1,4,0:0:0:0:
192,192,110796,1,2,0:0:0:0:
448,192,111149,1,2,0:0:0:0:
192,192,111502,1,2,0:0:0:0:
320,192,112031,1,2,0:0:0:0:
448,192,112207,1,2,0:0:0:0:
320,192,112384,1,2,0:0:0:0:
192,192,112560,1,2,0:0:0:0:
320,192,112913,1,2,0:0:0:0:
64,192,113266,1,2,0:0:0:0:
192,192,113619,1,6,0:0:0:0:
64,192,113795,1,6,0:0:0:0:
192,192,113972,1,2,0:0:0:0:
320,192,114324,1,6,0:0:0:0:
320,192,114677,128,6,115030:0:0:0:0:
192,192,115030,128,2,115383:0:0:0:0:
448,192,115383,1,2,0:0:0:0:
320,192,115736,1,2,0:0:0:0:
192,192,116089,1,2,0:0:0:0:
448,192,116442,1,2,0:0:0:0:
320,192,116794,128,2,117147:0:0:0:0:
192,192,117147,1,2,0:0:0:0:
448,192,117500,1,2,0:0:0:0:
64,192,117853,1,2,0:0:0:0:
192,192,118559,1,2,0:0:0:0:
320,192,118912,128,2,119264:0:0:0:0:
448,192,119264,1,2,0:0:0:0:
320,192,119617,1,2,0:0:0:0:
192,192,119970,1,2,0:0:0:0:
64,192,120323,1,2,0:0:0:0:
192,192,121029,128,2,121382:0:0:0:0:
320,192,121382,1,2,0:0:0:0:
64,192,121734,1,2,0:0:0:0:
320,192,122087,1,2,0:0:0:0:
192,192,122440,1,2,0:0:0:0:
448,192,122793,1,2,0:0:0:0:
192,192,123146,1,8,0:0:0:0:
320,192,123146,1,2,0:0:0:0:
448,192,123499,1,2,0:0:0:0:
64,192,123852,1,2,0:0:0:0:
448,192,124204,1,2,0:0:0:0:
448,192,124557,1,2,0:0:0:0:
192,192,124910,1,2,0:0:0:0:
448,192,125263,1,8,0:0:0:0:
64,192,125263,1,2,0:0:0:0:
192,192,125616,1,2,0:0:0:0:
64,192,125969,1,2,0:0:0:0:
320,192,126322,1,2,0:0:0:0:
320,192,126674,1,2,0:0:0:0:
192,192,127027,1,2,0:0:0:0:
448,192,127380,1,8,0:0:0:0:
64,192,127380,1,2,0:0:0:0:
192,192,127733,1,2,0:0:0:0:
320,192,128086,1,2,0:0:0:0:
64,192,128439,1,2,0:0:0:0:
448,192,128439,1,8,0:0:0:0:
192,192,128792,1,2,0:0:0:0:
320,192,129144,1,2,0:0:0:0:
448,192,129497,1,8,0:0:0:0:
64,192,129497,1,2,0:0:0:0:
192,192,129850,1,0,0:0:0:0:
320,192,130203,1,0,0:0:0:0:
448,192,130556,1,8,0:0:0:0:
64,192,130556,1,2,0:0:0:0:
64,192,130909,1,0,0:0:0:0:
192,192,131262,1,0,0:0:0:0:
320,192,131614,128,2,132673:0:0:0:0:
192,192,132673,128,2,133732:0:0:0:0:
320,192,133732,128,2,134790:0:0:0:0:
192,192,134790,128,2,135849:0:0:0:0:
320,192,135849,128,2,136907:0:0:0:0:
448,192,136907,128,2,137966:0:0:0:0:
320,192,137966,128,2,139024:0:0:0:0:
448,192,139024,1,6,0:0:0:0:
64,192,139201,1,6,0:0:0:0:
192,192,139377,1,6,0:0:0:0:
192,192,139730,1,6,0:0:0:0:
64,192,140083,1,2,0:0:0:0:
448,192,140083,1,4,0:0:0:0:
192,192,140436,1,2,0:0:0:0:
192,192,140789,1,2,0:0:0:0:
320,192,141142,1,2,0:0:0:0:
448,192,141494,1,2,0:0:0:0:
320,192,141847,1,2,0:0:0:0:
448,192,142200,1,2,0:0:0:0:
64,192,142553,1,2,0:0:0:0:
448,192,142906,1,2,0:0:0:0:
64,192,143259,1,6,0:0:0:0:
448,192,143612,1,2,0:0:0:0:
192,192,143964,1,2,0:0:0:0:
64,192,144317,1,4,0:0:0:0:
320,192,144317,1,2,0:0:0:0:
448,192,144670,1,2,0:0:0:0:
192,192,145023,1,2,0:0:0:0:
320,192,145376,1,2,0:0:0:0:
192,192,145729,1,2,0:0:0:0:
320,192,146082,1,2,0:0:0:0:
64,192,146434,1,2,0:0:0:0:
448,192,146787,1,2,0:0:0:0:
192,192,147140,1,2,0:0:0:0:
320,192,147493,1,6,0:0:0:0:
192,192,147846,1,6,0:0:0:0:
64,192,148199,1,6,0:0:0:0:
448,192,148552,1,4,0:0:0:0:
192,192,148552,1,2,0:0:0:0:
192,192,148904,1,2,0:0:0:0:
320,192,149257,1,2,0:0:0:0:
64,192,149610,1,2,0:0:0:0:
448,192,149963,1,2,0:0:0:0:
320,192,150316,1,2,0:0:0:0:
192,192,150669,1,2,0:0:0:0:
320,192,151022,1,2,0:0:0:0:
448,192,151374,1,2,0:0:0:0:
320,192,151727,1,6,0:0:0:0:
192,192,152080,1,6,0:0:0:0:
64,192,152433,1,6,0:0:0:0:
192,192,152786,1,4,0:0:0:0:
448,192,152786,1,2,0:0:0:0:
320,192,153139,1,2,0:0:0:0:
448,192,153492,1,2,0:0:0:0:
320,192,153844,1,2,0:0:0:0:
320,192,154197,1,2,0:0:0:0:
448,192,154550,1,2,0:0:0:0:
64,192,154903,1,2,0:0:0:0:
320,192,155256,1,2,0:0:0:0:
192,192,155609,1,2,0:0:0:0:
448,192,155962,1,4,0:0:0:0:
192,192,156315,1,4,0:0:0:0:
320,192,156667,1,4,0:0:0:0:
192,192,157020,1,2,0:0:0:0:
448,192,157020,1,4,0:0:0:0:
448,192,157373,1,2,0:0:0:0:
64,192,157726,1,2,0:0:0:0:
320,192,158079,1,2,0:0:0:0:
448,192,158432,1,2,0:0:0:0:
192,192,158785,1,2,0:0:0:0:
64,192,159137,1,2,0:0:0:0:
320,192,159490,1,2,0:0:0:0:
448,192,159843,1,2,0:0:0:0:
320,192,160196,1,6,0:0:0:0:
448,192,160549,1,2,0:0:0:0:
320,192,160902,1,2,0:0:0:0:
192,192,161255,1,2,0:0:0:0:
448,192,161255,1,4,0:0:0:0:
320,192,161607,1,2,0:0:0:0:
64,192,161960,1,2,0:0:0:0:
320,192,162313,1,2,0:0:0:0:
320,192,162666,1,2,0:0:0:0:
192,192,163019,1,2,0:0:0:0:
320,192,163372,1,2,0:0:0:0:
320,192,163725,1,2,0:0:0:0:
192,192,164077,1,2,0:0:0:0:
320,192,164430,1,6,0:0:0:0:
448,192,164783,1,6,0:0:0:0:
64,192,165136,1,6,0:0:0:0:
448,192,165489,1,4,0:0:0:0:
192,192,165489,1,2,0:0:0:0:
192,192,165842,1,2,0:0:0:0:
320,192,166195,1,2,0:0:0:0:
320,192,166547,1,2,0:0:0:0:
64,192,166900,1,2,0:0:0:0:
320,192,167253,1,2,0:0:0:0:
448,192,167606,1,2,0:0:0:0:
192,192,167959,1,2,0:0:0:0:
320,192,168312,1,2,0:0:0:0:
320,192,168665,1,2,0:0:0:0:
64,192,169017,1,2,0:0:0:0:
320,192,169370,1,6,0:0:0:0:
192,192,169723,1,2,0:0:0:0:
448,192,169723,1,4,0:0:0:0:
320,192,170076,1,2,0:0:0:0:
320,192,170429,1,2,0:0:0:0:
192,192,170782,1,2,0:0:0:0:
64,192,171135,1,2,0:0:0:0:
320,192,171487,1,2,0:0:0:0:
192,192,171840,1,2,0:0:0:0:
320,192,172193,1,2,0:0:0:0:
192,192,172546,1,2,0:0:0:0:
448,192,172899,1,2,0:0:0:0:
320,192,173252,1,6,0:0:0:0:
192,192,173605,1,6,0:0:0:0:
64,192,173957,1,4,0:0:0:0:
192,192,173957,1,2,0:0:0:0:
320,192,174310,1,2,0:0:0:0:
192,192,174663,1,2,0:0:0:0:
64,192,175016,1,2,0:0:0:0:
64,192,175369,1,2,0:0:0:0:
320,192,175545,1,2,0:0:0:0:
192,192,175722,1,2,0:0:0:0:
448,192,175898,1,2,0:0:0:0:
320,192,176075,1,2,0:0:0:0:
320,192,176427,1,2,0:0:0:0:
320,192,176780,1,2,0:0:0:0:
192,192,177133,1,2,0:0:0:0:
64,192,177486,1,2,0:0:0:0:
192,192,177839,1,2,0:0:0:0:
320,192,178192,1,2,0:0:0:0:
448,192,178545,1,2,0:0:0:0:
320,192,178897,1,2,0:0:0:0:
192,192,179250,1,2,0:0:0:0:
64,192,179603,1,2,0:0:0:0:
192,192,179956,1,2,0:0:0:0:
320,192,180309,1,2,0:0:0:0:
448,192,180662,1,2,0:0:0:0:
320,192,181015,1,2,0:0:0:0:
192,192,181191,1,2,0:0:0:0:
64,192,181367,1,2,0:0:0:0:
192,192,181720,1,2,0:0:0:0:
320,192,182073,1,2,0:0:0:0:
448,192,182426,128,2,183132:0:0:0:0:
64,192,183132,1,2,0:0:0:0:
192,192,183485,128,2,184543:0:0:0:0:
320,192,184543,1,2,0:0:0:0:
448,192,184896,1,2,0:0:0:0:
320,192,185249,1,2,0:0:0:0:
192,192,185602,1,2,0:0:0:0:
320,192,185602,128,2,186307:0:0:0:0:
320,192,186660,1,2,0:0:0:0:
192,192,187013,1,2,0:0:0:0:
320,192,187366,1,2,0:0:0:0:
64,192,187719,128,2,188777:0:0:0:0:
320,192,188248,1,2,0:0:0:0:
192,192,188425,1,2,0:0:0:0:
320,192,188601,1,2,0:0:0:0:
448,192,188777,1,6,0:0:0:0:
192,192,189130,1,2,0:0:0:0:
64,192,189483,1,2,0:0:0:0:
448,192,189836,1,4,0:0:0:0:
320,192,189836,1,2,0:0:0:0:
192,192,190189,1,2,0:0:0:0:
320,192,190542,1,6,0:0:0:0:
448,192,190895,5,6,0:0:0:0:
320,192,191247,1,2,0:0:0:0:
64,192,191600,1,2,0:0:0:0:
192,192,191953,1,2,0:0:0:0:
320,192,192306,1,2,0:0:0:0:
192,192,192659,1,2,0:0:0:0:
448,192,193012,1,2,0:0:0:0:
192,192,193365,1,2,0:0:0:0:
64,192,193717,1,2,0:0:0:0:
192,192,194070,1,6,0:0:0:0:
448,192,194423,1,2,0:0:0:0:
192,192,194776,1,2,0:0:0:0:
192,192,195129,1,6,0:0:0:0:
320,192,195482,1,2,0:0:0:0:
192,192,195835,1,2,0:0:0:0:
64,192,196187,1,2,0:0:0:0:
192,192,196540,1,2,0:0:0:0:
320,192,196893,1,2,0:0:0:0:
448,192,197246,1,2,0:0:0:0:
192,192,197599,1,2,0:0:0:0:
320,192,197952,1,2,0:0:0:0:
192,192,198305,1,6,0:0:0:0:
192,192,198657,1,6,0:0:0:0:
448,192,199010,1,6,0:0:0:0:
192,192,199363,1,6,0:0:0:0:
320,192,199716,1,2,0:0:0:0:
64,192,200069,1,2,0:0:0:0:
320,192,200422,1,2,0:0:0:0:
192,192,200775,1,2,0:0:0:0:
64,192,201127,1,2,0:0:0:0:
192,192,201480,1,2,0:0:0:0:
320,192,201833,1,2,0:0:0:0:
64,192,202186,1,2,0:0:0:0:
192,192,202539,1,2,0:0:0:0:
320,192,202892,1,2,0:0:0:0:
192,192,203245,1,6,0:0:0:0:
64,192,203597,1,4,0:0:0:0:
448,192,203597,1,2,0:0:0:0:
320,192,203950,1,2,0:0:0:0:
192,192,204303,1,2,0:0:0:0:
448,192,204656,1,2,0:0:0:0:
320,192,205185,1,2,0:0:0:0:
448,192,205362,1,2,0:0:0:0:
320,192,205538,1,2,0:0:0:0:
64,192,205715,1,2,0:0:0:0:
320,192,206068,1,2,0:0:0:0:
192,192,206420,1,2,0:0:0:0:
64,192,206773,1,2,0:0:0:0:
448,192,207479,1,4,0:0:0:0:
64,192,207479,1,2,0:0:0:0:
320,192,207832,1,4,0:0:0:0:
192,192,208185,1,2,0:0:0:0:
192,192,208538,1,2,0:0:0:0:
64,192,208890,1,2,0:0:0:0:
320,192,209243,1,2,0:0:0:0:
192,192,209596,1,2,0:0:0:0:
64,192,209949,1,2,0:0:0:0:
320,192,210302,1,2,0:0:0:0:
192,192,210655,1,2,0:0:0:0:
320,192,211008,1,6,0:0:0:0:
64,192,211360,1,2,0:0:0:0:
320,192,211713,1,2,0:0:0:0:
192,192,212066,1,6,0:0:0:0:
320,192,212419,1,2,0:0:0:0:
448,192,212772,1,2,0:0:0:0:
64,192,213125,1,2,0:0:0:0:
320,192,213478,1,2,0:0:0:0:
192,192,213830,1,2,0:0:0:0:
320,192,214183,1,2,0:0:0:0:
64,192,214536,1,2,0:0:0:0:
320,192,214889,1,2,0:0:0:0:
192,192,215242,1,6,0:0:0:0:
448,192,215595,1,6,0:0:0:0:
64,192,215948,1,6,0:0:0:0:
320,192,216300,1,6,0:0:0:0:
64,192,216653,1,2,0:0:0:0:
320,192,217006,1,2,0:0:0:0:
192,192,217359,1,2,0:0:0:0:
448,192,217712,1,2,0:0:0:0:
192,192,217888,1,2,0:0:0:0:
320,192,218065,1,2,0:0:0:0:
64,192,218241,1,2,0:0:0:0:
320,192,218418,1,2,0:0:0:0:
448,192,218770,1,2,0:0:0:0:
192,192,219123,1,2,0:0:0:0:
320,192,219476,1,2,0:0:0:0:
64,192,219829,1,6,0:0:0:0:
320,192,220182,1,6,0:0:0:0:
64,192,220535,1,6,0:0:0:0:
448,192,220888,1,2,0:0:0:0:
64,192,221240,1,2,0:0:0:0:
320,192,221593,1,2,0:0:0:0:
192,192,221946,1,2,0:0:0:0:
320,192,222299,1,2,0:0:0:0:
64,192,222652,1,2,0:0:0:0:
320,192,223005,1,2,0:0:0:0:
192,192,223358,1,2,0:0:0:0:
448,192,223710,1,6,0:0:0:0:
64,192,224063,1,2,0:0:0:0:
320,192,224416,1,6,0:0:0:0:
64,192,224769,1,2,0:0:0:0:
448,192,224769,1,4,0:0:0:0:
320,192,225122,1,2,0:0:0:0:
192,192,225475,1,2,0:0:0:0:
320,192,225828,1,2,0:0:0:0:
448,192,226180,1,2,0:0:0:0:
192,192,226533,1,2,0:0:0:0:
320,192,226886,1,2,0:0:0:0:
64,192,227239,1,2,0:0:0:0:
448,192,227592,1,2,0:0:0:0:
64,192,227768,1,2,0:0:0:0:
192,192,227945,1,6,0:0:0:0:
320,192,228298,1,2,0:0:0:0:
192,192,228650,1,2,0:0:0:0:
192,192,229003,1,2,0:0:0:0:
448,192,229003,1,4,0:0:0:0:
320,192,229356,1,2,0:0:0:0:
64,192,229709,1,2,0:0:0:0:
320,192,230062,1,2,0:0:0:0:
192,192,230415,1,2,0:0:0:0:
320,192,230768,1,2,0:0:0:0:
64,192,231120,1,2,0:0:0:0:
320,192,231473,1,2,0:0:0:0:
192,192,231826,1,2,0:0:0:0:
64,192,232179,1,6,0:0:0:0:
320,192,232532,1,6,0:0:0:0:
192,192,232885,1,6,0:0:0:0:
192,192,233238,1,4,0:0:0:0:
320,192,233238,1,2,0:0:0:0:
448,192,233590,1,2,0:0:0:0:
64,192,233943,1,2,0:0:0:0:
320,192,234296,1,2,0:0:0:0:
192,192,234649,1,2,0:0:0:0:
192,192,235002,1,2,0:0:0:0:
448,192,235355,1,2,0:0:0:0:
64,192,235708,1,2,0:0:0:0:
320,192,236060,1,2,0:0:0:0:
64,192,236413,1,2,0:0:0:0:
192,192,236766,1,6,0:0:0:0:
320,192,237119,1,6,0:0:0:0:
192,192,237472,128,2,239236:0:0:0:0:
448,192,237472,1,4,0:0:0:0:
64,192,239236,1,2,0:0:0:0:
320,192,239589,1,2,0:0:0:0:
448,192,239589,1,2,0:0:0:0:
64,192,239942,1,2,0:0:0:0:
192,192,240295,1,2,0:0:0:0:
448,192,240648,1,6,0:0:0:0:
320,192,240824,1,6,0:0:0:0:
192,192,241000,1,2,0:0:0:0:
64,192,241353,1,6,0:0:0:0:
192,192,241706,1,2,0:0:0:0:
448,192,241706,1,4,0:0:0:0:
