osu file format v12

[General]
AudioFilename: Santa Claus Hadoko No Hito - THE iDOLM STER.mp3
AudioLeadIn: 0
PreviewTime: 132228
Countdown: 0
SampleSet: Soft
StackLeniency: 0.7
Mode: 0
LetterboxInBreaks: 0
WidescreenStoryboard: 0

[Editor]
Bookmarks: 45316,75905,104140
DistanceSpacing: 1.5
BeatDivisor: 4
GridSize: 4

[Metadata]
Title:Santa Claus wa Doko no Hito
TitleUnicode:サンタクロースはどこのひと
Artist:Nigo Mayako
ArtistUnicode:Nigo Mayako
Creator:yanlu
Version:Hard
Source:
Tags:Where Did Santa Claus Come From? THE iDOLM@STER IDOLMASTER Christmas Xmas IDOL MASTER Yayoi Takatsuki
BeatmapID:335660
BeatmapSetID:122976

[Difficulty]
HPDrainRate:7
CircleSize:4
OverallDifficulty:7
ApproachRate:7
SliderMultiplier:1.8
SliderTickRate:2

[Events]
//Background and Video events
0,0,"yaaaaXmas.png",0,0
//Break Periods
2,38467,44425
//Storyboard Layer 0 (Background)
//Storyboard Layer 1 (Fail)
//Storyboard Layer 2 (Pass)
//Storyboard Layer 3 (Foreground)
//Storyboard Sound Samples
//Background Colour Transformations
3,100,163,162,255

[TimingPoints]
620,588.235294117647,4,2,1,40,1,0
18267,-100,4,2,1,50,0,0
19443,-100,4,2,1,60,0,0
45325,-100,4,2,1,40,0,0
47090,-100,4,2,1,50,0,0
47678,-100,4,2,1,60,0,0
68267,-100,4,2,1,50,0,0
68855,-100,4,2,1,40,0,0
71208,-100,4,2,1,50,0,0
73561,-100,4,2,1,60,0,0
75914,-100,4,2,1,65,0,0
94737,-100,4,2,1,55,0,0
102678,-100,4,2,1,60,0,0
103561,-100,4,2,1,65,0,0
104149,-100,4,2,1,70,0,1
104296,-100,4,2,1,70,0,0
118267,-100,4,2,1,40,0,0
118855,-100,4,2,1,50,0,0
119443,-100,4,2,1,60,0,0
120031,-100,4,2,1,70,0,0
122972,-100,4,2,1,55,0,0
124737,-100,4,2,1,40,0,0
127090,-100,4,2,1,50,0,0
127678,-100,4,2,1,60,0,0
130031,-100,4,2,1,65,0,0
132384,-80,4,2,1,70,0,1
153855,-80,4,2,1,50,0,1
155325,-80,4,2,1,60,0,1
155914,-80,4,2,1,70,0,1
158267,-80,4,2,1,65,0,1
158855,-80,4,2,1,60,0,1
159443,-80,4,2,1,55,0,1
160031,-80,4,2,1,50,0,1
160619,-100,4,2,1,65,0,0
162972,-100,4,2,1,60,0,0
168855,-100,4,2,1,50,0,0
170619,-100,4,2,1,30,0,0
172384,-100,4,2,1,5,0,0

[Colours]
Combo1 : 88,131,243
Combo2 : 240,5,5
Combo3 : 49,226,18
Combo4 : 241,203,73

[HitObjects]
256,192,14737,12,4,18267,0:0:0:0:
120,152,18561,5,8,0:0:0:0:
136,204,18708,1,0,0:0:0:0:
180,236,18855,2,0,P|216:252|268:248,1,90,8|0,0:0|0:0,0:0:0:0:
332,168,19443,6,0,P|296:152|244:152,1,90,4|0,0:0|0:0,0:0:0:0:
276,256,20031,1,8,0:0:0:0:
384,260,20325,1,0,0:0:0:0:
452,344,20619,1,2,0:0:0:0:
452,344,20914,1,0,0:0:0:0:
468,192,21208,1,8,0:0:0:0:
468,192,21502,1,0,0:0:0:0:
396,56,21796,6,0,P|352:80|312:80,1,90,6|0,0:0|0:0,0:0:0:0:
116,56,22384,2,0,P|160:80|200:80,1,90,8|0,0:0|0:0,0:0:0:0:
256,164,22972,2,0,L|256:256,1,90,2|0,0:0|0:0,0:0:0:0:
176,328,23561,1,8,0:0:0:0:
336,328,23855,1,2,0:0:0:0:
256,256,24149,6,0,P|200:216|136:228,1,135,6|0,0:0|0:0,0:0:0:0:
100,252,24737,1,8,0:0:0:0:
176,328,25031,1,0,0:0:0:0:
256,256,25325,2,0,P|296:228|340:228,1,90,2|0,0:0|0:0,0:0:0:0:
424,320,25914,1,8,0:0:0:0:
428,212,26208,1,0,0:0:0:0:
292,124,26502,5,4,0:0:0:0:
324,136,26649,1,0,0:0:0:0:
360,136,26796,1,8,0:0:0:0:
396,124,26943,1,0,0:0:0:0:
416,92,27090,1,8,0:0:0:0:
336,32,27384,1,0,0:0:0:0:
360,136,27678,2,0,P|353:183|340:228,1,90,2|0,0:0|0:0,0:0:0:0:
152,136,28267,2,0,P|158:183|172:228,1,90,8|0,0:0|0:0,0:0:0:0:
256,128,28855,6,0,L|256:36,2,90,6|0|8,0:0|0:0|0:0,0:0:0:0:
148,248,29737,1,0,0:0:0:0:
148,248,30031,2,0,L|148:340,2,90,2|0|8,0:0|0:0|0:0,0:0:0:0:
276,157,30914,1,2,0:0:0:0:
122,157,31208,5,6,0:0:0:0:
250,248,31502,1,0,0:0:0:0:
148,248,31796,1,8,0:0:0:0:
199,95,32090,1,0,0:0:0:0:
48,216,32384,2,0,P|57:296|133:350,1,180,2|8,0:0|0:0,0:0:0:0:
216,312,33267,1,0,0:0:0:0:
245,288,33414,1,0,0:0:0:0:
256,252,33561,6,0,P|256:208|228:172,1,90,6|0,0:0|0:0,0:0:0:0:
308,328,34149,2,0,P|352:328|388:300,1,90,8|0,0:0|0:0,0:0:0:0:
476,264,34737,2,0,P|454:225|411:208,2,90,2|0|8,0:0|0:0|0:0,0:0:0:0:
464,352,35619,1,2,0:0:0:0:
308,328,35914,5,6,0:0:0:0:
380,212,36208,1,0,0:0:0:0:
236,232,36502,1,8,0:0:0:0:
348,324,36796,1,0,0:0:0:0:
456,152,37090,2,0,P|412:112|340:120,1,135,2|0,0:0|0:0,0:0:0:0:
296,176,37678,1,8,0:0:0:0:
256,96,37972,1,0,0:0:0:0:
304,20,38267,5,6,0:0:0:0:
256,192,45325,12,0,47090,0:0:0:0:
372,276,47384,5,8,0:0:0:0:
413,242,47531,1,0,0:0:0:0:
432,192,47678,2,0,P|448:156|448:104,1,90,12|0,0:0|0:0,0:0:0:0:
344,136,48267,1,8,0:0:0:0:
300,236,48561,1,0,0:0:0:0:
168,136,48855,1,2,0:0:0:0:
212,236,49149,1,0,0:0:0:0:
256,76,49443,2,0,L|256:32,2,45,8|0|2,0:0|0:0|0:0,0:0:0:0:
168,136,50031,6,0,P|120:148|80:132,1,90,6|0,0:0|0:0,0:0:0:0:
128,36,50619,2,0,P|176:24|216:40,1,90,8|0,0:0|0:0,0:0:0:0:
296,144,51208,1,2,0:0:0:0:
408,144,51502,1,0,0:0:0:0:
484,224,51796,1,8,0:0:0:0:
464,332,52090,1,0,0:0:0:0:
336,284,52384,6,0,B|304:240|208:240|172:284,1,180,6|8,0:0|0:0,0:0:0:0:
256,352,53267,1,0,0:0:0:0:
256,352,53561,1,2,0:0:0:0:
364,188,53855,1,0,0:0:0:0:
364,188,54002,1,0,0:0:0:0:
364,188,54149,1,8,0:0:0:0:
448,352,54443,1,2,0:0:0:0:
336,284,54737,5,6,0:0:0:0:
298,264,54884,1,0,0:0:0:0:
256,260,55031,1,8,0:0:0:0:
214,264,55178,1,0,0:0:0:0:
176,284,55324,1,8,0:0:0:0:
256,352,55619,1,0,0:0:0:0:
228,224,55914,2,0,P|196:192|154:197,1,90,2|0,0:0|0:0,0:0:0:0:
24,232,56502,2,0,P|56:264|97:258,1,90,8|0,0:0|0:0,0:0:0:0:
228,224,57090,5,6,0:0:0:0:
156,172,57384,1,0,0:0:0:0:
184,88,57678,1,8,0:0:0:0:
272,84,57972,1,0,0:0:0:0:
300,168,58267,5,2,0:0:0:0:
311,278,58561,1,0,0:0:0:0:
419,307,58855,1,8,0:0:0:0:
474,210,59149,1,2,0:0:0:0:
402,125,59443,6,0,B|388:172|388:172|384:220,1,90,6|0,0:0|0:0,0:0:0:0:
208,324,60031,6,0,B|222:277|222:277|226:229,1,90,8|0,0:0|0:0,0:0:0:0:
172,124,60619,1,2,0:0:0:0:
116,240,60914,1,0,0:0:0:0:
208,324,61208,1,8,0:0:0:0:
332,316,61502,1,2,0:0:0:0:
368,316,61649,1,0,0:0:0:0:
400,332,61796,5,4,0:0:0:0:
400,332,62384,1,8,0:0:0:0:
484,292,62678,1,0,0:0:0:0:
340,192,62972,1,2,0:0:0:0:
256,232,63267,1,0,0:0:0:0:
384,60,63561,1,8,0:0:0:0:
424,144,63855,1,2,0:0:0:0:
420,236,64149,6,0,P|388:268|344:280,1,90,6|0,0:0|0:0,0:0:0:0:
92,148,64737,2,0,P|124:116|168:104,1,90,8|0,0:0|0:0,0:0:0:0:
332,180,65325,1,2,0:0:0:0:
180,204,65619,1,0,0:0:0:0:
280,288,65914,1,8,0:0:0:0:
232,96,66208,1,10,0:0:0:0:
236,124,66355,1,0,0:0:0:0:
256,144,66502,5,4,0:0:0:0:
468,44,67090,1,8,0:0:0:0:
256,344,67678,1,4,0:0:0:0:
44,44,68267,1,8,0:0:0:0:
256,192,68414,12,0,70619,0:0:0:0:
184,280,71208,6,0,P|160:248|112:244,1,90,4|0,0:0|0:0,0:0:0:0:
344,264,71796,6,0,P|312:288|308:336,1,90,8|0,0:0|0:0,0:0:0:0:
328,104,72384,6,0,P|352:136|400:140,1,90,6|0,0:0|0:0,0:0:0:0:
168,120,72972,6,0,P|200:96|204:48,1,90,8|0,0:0|0:0,0:0:0:0:
136,60,73414,1,0,0:0:0:0:
96,120,73561,6,0,P|112:164|148:188,1,90,6|0,0:0|0:0,0:0:0:0:
328,32,74149,6,0,P|284:48|260:84,1,90,8|0,0:0|0:0,0:0:0:0:
416,264,74737,6,0,P|400:220|364:196,1,90,6|0,0:0|0:0,0:0:0:0:
184,352,75325,6,0,P|228:336|252:300,1,90,8|2,0:0|0:0,0:0:0:0:
220,236,75767,1,0,0:0:0:0:
256,172,75914,5,6,0:0:0:0:
388,160,76208,1,0,0:0:0:0:
460,44,76502,1,8,0:0:0:0:
376,72,76796,1,0,0:0:0:0:
376,72,76943,1,0,0:0:0:0:
376,72,77090,2,0,P|328:84|308:120,1,90,2|0,0:0|0:0,0:0:0:0:
376,312,77678,2,0,P|328:300|308:264,1,90,8|0,0:0|0:0,0:0:0:0:
444,252,78267,6,0,B|484:224|484:224|488:184,1,90,4|0,0:0|0:0,0:0:0:0:
300,160,78855,2,0,B|260:132|260:132|256:92,1,90,8|0,0:0|0:0,0:0:0:0:
376,72,79443,1,2,0:0:0:0:
384,192,79737,1,0,0:0:0:0:
464,100,80031,1,8,0:0:0:0:
300,160,80325,1,0,0:0:0:0:
256,288,80619,6,0,P|320:344|412:348,1,180,4|8,0:0|0:0,0:0:0:0:
432,216,81502,1,0,0:0:0:0:
300,160,81796,1,2,0:0:0:0:
172,208,82090,2,0,P|128:224|84:220,2,90,0|8|2,0:0|0:0|0:0,0:0:0:0:
208,100,82972,5,12,0:0:0:0:
236,68,83119,1,0,0:0:0:0:
276,64,83266,1,8,0:0:0:0:
316,76,83413,1,0,0:0:0:0:
356,72,83560,1,8,0:0:0:0:
416,0,83854,1,0,0:0:0:0:
452,116,84149,1,2,0:0:0:0:
320,152,84443,1,0,0:0:0:0:
192,60,84737,2,0,P|236:48|276:64,1,90,8|2,0:0|0:0,0:0:0:0:
364,244,85325,5,4,0:0:0:0:
492,192,85619,1,0,0:0:0:0:
408,328,85914,1,8,0:0:0:0:
324,260,86208,1,0,0:0:0:0:
364,140,86502,5,2,0:0:0:0:
492,192,86796,1,0,0:0:0:0:
408,48,87090,1,8,0:0:0:0:
288,112,87384,1,2,0:0:0:0:
216,228,87678,6,0,B|188:264|188:264|144:280,1,90,4|0,0:0|0:0,0:0:0:0:
344,292,88267,2,0,B|372:328|372:328|416:344,1,90,8|0,0:0|0:0,0:0:0:0:
432,232,88855,1,2,0:0:0:0:
248,328,89149,1,0,0:0:0:0:
256,120,89443,1,8,0:0:0:0:
280,232,89737,1,10,0:0:0:0:
288,288,89884,1,0,0:0:0:0:
248,328,90031,5,6,0:0:0:0:
132,300,90325,2,0,L|88:316,2,45,0|0|8,0:0|0:0|0:0,0:0:0:0:
184,192,90914,1,0,0:0:0:0:
312,148,91208,2,0,P|352:176|384:204,1,90,2|0,0:0|0:0,0:0:0:0:
376,68,91796,2,0,P|416:96|448:124,1,90,8|2,0:0|0:0,0:0:0:0:
472,256,92384,5,4,0:0:0:0:
312,248,92678,1,0,0:0:0:0:
272,232,92825,1,0,0:0:0:0:
256,192,92971,1,8,0:0:0:0:
256,56,93267,1,0,0:0:0:0:
256,192,93561,2,0,P|184:208|132:176,1,135,2|0,0:0|0:0,0:0:0:0:
144,136,94149,2,0,L|56:160,1,90,8|0,0:0|0:0,0:0:0:0:
68,40,94737,5,4,0:0:0:0:
88,328,95325,1,8,0:0:0:0:
116,312,95472,1,0,0:0:0:0:
148,308,95619,1,0,0:0:0:0:
256,332,95914,2,0,L|304:308,2,45,2|0|0,0:0|0:0|0:0,0:0:0:0:
380,276,96502,2,0,P|380:324|412:352,1,90,8|2,0:0|0:0,0:0:0:0:
472,280,97090,6,0,P|472:232|440:204,1,90,6|0,0:0|0:0,0:0:0:0:
400,192,97531,2,0,L|352:192,1,45,0|8,0:0|0:0,0:0:0:0:
272,84,97973,1,0,0:0:0:0:
300,56,98119,1,0,0:0:0:0:
340,52,98267,1,2,0:0:0:0:
428,116,98561,1,0,0:0:0:0:
344,260,98855,2,0,P|384:280|428:276,1,90,8|0,0:0|0:0,0:0:0:0:
380,140,99443,5,6,0:0:0:0:
344,260,99737,2,0,P|304:240|260:244,1,90,0|8,0:0|0:0,0:0:0:0:
136,288,100325,2,0,L|164:324,2,45,0|0|2,0:0|0:0|0:0,0:0:0:0:
288,312,100914,1,0,0:0:0:0:
328,300,101061,1,0,0:0:0:0:
344,260,101208,2,0,P|348:216|380:184,1,90,8|2,0:0|0:0,0:0:0:0:
448,280,101796,6,0,P|444:324|412:356,1,90,6|0,0:0|0:0,0:0:0:0:
372,368,102237,2,0,L|324:376,1,45,0|8,0:0|0:0,0:0:0:0:
168,320,102678,2,0,L|212:332,1,45
244,304,102972,2,0,L|288:304,1,45,10|0,0:0|0:0,0:0:0:0:
304,264,103267,2,0,L|340:236,1,45,2|0,0:0|0:0,0:0:0:0:
324,196,103561,2,0,L|344:156,1,45,10|0,0:0|0:0,0:0:0:0:
316,120,103855,1,10,0:0:0:0:
236,48,104149,6,0,P|279:9|350:20,1,135,4|0,0:0|0:0,0:0:0:0:
388,52,104737,1,8,0:0:0:0:
412,184,105031,1,0,0:0:0:0:
448,208,105178,1,0,0:0:0:0:
455,253,105325,2,0,P|439:310|413:328,1,90,2|0,0:0|0:0,0:0:0:0:
271,207,105913,2,0,P|286:149|312:131,1,90,8|2,0:0|0:0,0:0:0:0:
332,292,106501,5,6,0:0:0:0:
160,288,106796,1,0,0:0:0:0:
176,128,107090,1,8,0:0:0:0:
272,208,107384,1,0,0:0:0:0:
248,244,107531,1,0,0:0:0:0:
242,286,107678,1,2,0:0:0:0:
420,244,107972,2,0,L|460:220,1,45,2|0,0:0|0:0,0:0:0:0:
392,176,108267,2,0,L|348:188,1,45,10|0,0:0|0:0,0:0:0:0:
368,108,108561,6,0,P|424:104|456:88,1,90,0|4,0:0|0:0,0:0:0:0:
356,40,109149,1,0,0:0:0:0:
264,136,109443,1,8,0:0:0:0:
392,176,109737,1,0,0:0:0:0:
256,236,110031,1,2,0:0:0:0:
216,220,110178,1,0,0:0:0:0:
184,192,110325,2,0,P|165:151|170:107,1,90,0|8,0:0|0:0,0:0:0:0:
324,24,110914,1,2,0:0:0:0:
264,136,111208,5,4,0:0:0:0:
308,152,111355,1,0,0:0:0:0:
355,150,111502,1,8,0:0:0:0:
399,134,111649,1,0,0:0:0:0:
433,102,111796,1,8,0:0:0:0:
420,4,112089,1,0,0:0:0:0:
324,24,112384,2,0,P|284:48|268:88,1,90,2|0,0:0|0:0,0:0:0:0:
264,136,112825,1,0,0:0:0:0:
276,184,112972,2,0,L|312:212,2,45,8|0|0,0:0|0:0|0:0,0:0:0:0:
184,72,113561,6,0,B|100:80|152:176|52:176,1,180,6|8,0:0|0:0,0:0:0:0:
32,68,114443,1,0,0:0:0:0:
80,288,114737,1,2,0:0:0:0:
172,232,115031,1,0,0:0:0:0:
400,228,115325,1,8,0:0:0:0:
308,284,115619,1,2,0:0:0:0:
280,68,115914,6,0,P|232:72|204:100,1,90,6|0,0:0|0:0,0:0:0:0:
232,316,116502,2,0,P|280:312|308:284,1,90,8|0,0:0|0:0,0:0:0:0:
256,52,117090,2,0,P|184:64|148:120,1,135,2|0,0:0|0:0,0:0:0:0:
140,156,117678,1,8,0:0:0:0:
248,160,117972,1,0,0:0:0:0:
104,260,118267,5,6,0:0:0:0:
104,260,118561,1,0,0:0:0:0:
256,348,118855,1,12,0:0:0:0:
212,252,119149,1,0,0:0:0:0:
256,36,119443,1,6,0:0:0:0:
300,132,119737,1,0,0:0:0:0:
178,185,120031,5,12,0:0:0:0:
333,198,120325,1,2,0:0:0:0:
164,240,120618,5,6,0:0:0:0:
348,144,120914,1,0,0:0:0:0:
112,192,121208,5,8,0:0:0:0:
400,192,121502,1,0,0:0:0:0:
256,300,121796,2,0,B|200:288|192:248|192:248|224:212|204:160,1,180,6|8,0:0|0:0,0:0:0:0:
316,76,122678,1,0,0:0:0:0:
296,40,122825,1,0,0:0:0:0:
256,28,122972,5,4,0:0:0:0:
472,192,123561,1,8,0:0:0:0:
40,192,124149,1,6,0:0:0:0:
256,28,124737,1,10,0:0:0:0:
200,164,125031,1,0,0:0:0:0:
256,300,125325,1,4,0:0:0:0:
256,192,125472,12,4,127090,0:0:0:0:
128,240,127384,5,8,0:0:0:0:
180,224,127531,1,0,0:0:0:0:
232,240,127678,2,0,P|324:244|392:192,1,180,4|8,0:0|0:0,0:0:0:0:
336,100,128561,1,0,0:0:0:0:
444,116,128855,2,0,L|472:152,1,45,2|0,0:0|0:0,0:0:0:0:
504,80,129149,2,0,L|476:44,1,45,2|0,0:0|0:0,0:0:0:0:
400,44,129443,2,0,P|380:80|336:100,1,90,8|0,0:0|0:0,0:0:0:0:
264,96,129884,1,0,0:0:0:0:
256,24,130031,5,4,0:0:0:0:
124,84,130325,1,0,0:0:0:0:
244,164,130619,2,0,P|204:188|160:184,1,90,8|0,0:0|0:0,0:0:0:0:
136,260,131061,1,0,0:0:0:0:
136,260,131208,2,0,P|175:280|194:320,1,90,2|0,0:0|0:0,0:0:0:0:
272,308,131649,1,0,0:0:0:0:
272,308,131796,2,0,P|271:264|295:227,1,90,8|2,0:0|0:0,0:0:0:0:
364,192,132237,1,0,0:0:0:0:
432,216,132384,5,4,0:0:0:0:
432,216,132972,1,8,0:0:0:0:
408,332,133267,1,0,0:0:0:0:
276,280,133561,2,0,P|212:276|160:280,1,112.5,2|0,0:0|0:0,0:0:0:0:
92,280,134002,1,0,0:0:0:0:
92,280,134149,2,0,P|48:240|44:188,1,112.5,8|2,0:0|0:0,0:0:0:0:
156,108,134737,5,6,0:0:0:0:
256,252,135031,1,0,0:0:0:0:
356,108,135325,1,8,0:0:0:0:
168,204,135619,1,0,0:0:0:0:
344,204,135914,2,0,P|404:204|440:168,1,112.5,2|0,0:0|0:0,0:0:0:0:
444,120,136355,2,0,L|476:72,1,56.25,0|8,0:0|0:0,0:0:0:0:
284,144,136796,1,0,0:0:0:0:
448,264,137090,5,6,0:0:0:0:
336,336,137384,1,0,0:0:0:0:
336,336,137531,1,0,0:0:0:0:
336,336,137678,1,8,0:0:0:0:
228,252,137972,2,0,P|196:304|204:352,1,112.5,0|2,0:0|0:0,0:0:0:0:
308,260,138414,1,0,0:0:0:0:
308,260,138561,2,0,P|328:208|312:156,1,112.5,0|8,0:0|0:0,0:0:0:0:
264,320,139149,1,2,0:0:0:0:
444,242,139443,5,4,0:0:0:0:
438,196,139590,1,0,0:0:0:0:
416,156,139737,1,8,0:0:0:0:
380,128,139884,1,0,0:0:0:0:
336,116,140031,1,8,0:0:0:0:
224,192,140325,1,0,0:0:0:0:
264,320,140619,2,0,P|320:300|368:320,1,112.5,2|0,0:0|0:0,0:0:0:0:
196,236,141208,2,0,P|140:216|92:236,1,112.5,8|0,0:0|0:0,0:0:0:0:
304,208,141796,5,6,0:0:0:0:
264,320,142090,1,0,0:0:0:0:
144,312,142384,1,8,0:0:0:0:
144,312,142678,1,0,0:0:0:0:
208,176,142972,5,6,0:0:0:0:
248,64,143267,1,0,0:0:0:0:
368,72,143561,1,8,0:0:0:0:
368,72,143855,1,2,0:0:0:0:
368,224,144149,2,0,B|376:284|376:284|420:312,1,112.5,6|0,0:0|0:0,0:0:0:0:
144,224,144737,2,0,B|136:284|136:284|92:312,1,112.5,8|0,0:0|0:0,0:0:0:0:
256,192,145325,5,2,0:0:0:0:
368,72,145619,1,0,0:0:0:0:
256,80,145914,1,8,0:0:0:0:
256,304,146208,1,0,0:0:0:0:
156,192,146502,6,0,B|159:134|159:134|156:80,1,112.5,6|0,0:0|0:0,0:0:0:0:
356,192,147090,2,0,B|352:249|352:249|356:304,1,112.5,8|0,0:0|0:0,0:0:0:0:
256,304,147678,2,0,B|201:311|201:311|144:304,1,112.5,2|0,0:0|0:0,0:0:0:0:
256,80,148267,2,0,B|310:72|310:72|368:80,1,112.5,8|0,0:0|0:0,0:0:0:0:
104,212,148855,6,0,P|156:240|204:224,1,112.5,6|2,0:0|0:0,0:0:0:0:
256,192,149296,1,0,0:0:0:0:
308,224,149443,2,0,P|360:239|408:212,1,112.5,8|0,0:0|0:0,0:0:0:0:
356,52,150031,2,0,P|256:8|156:52,1,225,2|8,0:0|0:0,0:0:0:0:
256,104,150914,1,0,0:0:0:0:
256,280,151208,5,6,0:0:0:0:
256,104,151502,1,0,0:0:0:0:
356,128,151796,1,8,0:0:0:0:
256,104,152090,1,0,0:0:0:0:
256,280,152384,5,6,0:0:0:0:
160,128,152678,1,0,0:0:0:0:
256,280,152972,1,10,0:0:0:0:
256,192,153267,12,0,154737,0:0:0:0:
313,154,155031,5,2,0:0:0:0:
313,154,155178,1,2,0:0:0:0:
313,154,155325,1,8,0:0:0:0:
437,268,155619,1,0,0:0:0:0:
189,270,155914,5,6,0:0:0:0:
436,40,156502,1,8,0:0:0:0:
76,40,157090,1,6,0:0:0:0:
56,148,157384,1,0,0:0:0:0:
56,148,157531,1,0,0:0:0:0:
56,148,157678,2,0,P|76:200|128:220,1,112.5,8|2,0:0|0:0,0:0:0:0:
384,244,158267,6,0,P|364:192|312:172,1,112.5,6|0,0:0|0:0,0:0:0:0:
240,212,158708,1,0,0:0:0:0:
240,212,158855,2,0,P|231:267|266:310,1,112.5,12|0,0:0|0:0,0:0:0:0:
336,236,159296,1,0,0:0:0:0:
336,236,159443,2,0,P|388:215|408:164,1,112.5,6|0,0:0|0:0,0:0:0:0:
312,132,159884,1,0,0:0:0:0:
312,132,160031,2,0,P|268:96|213:105,1,112.5,12|2,0:0|0:0,0:0:0:0:
163,148,160472,1,0,0:0:0:0:
92,144,160619,5,4,0:0:0:0:
420,144,161208,1,8,0:0:0:0:
56,316,161796,1,6,0:0:0:0:
456,68,162384,1,8,0:0:0:0:
92,196,162972,6,0,P|136:212|164:244,1,90,6|0,0:0|0:0,0:0:0:0:
348,243,163561,2,0,P|377:210|420:196,1,90,8|0,0:0|0:0,0:0:0:0:
140,132,164149,2,0,P|182:117|211:84,1,90,6|0,0:0|0:0,0:0:0:0:
372,132,164737,2,0,P|329:117|300:84,1,90,8|2,0:0|0:0,0:0:0:0:
132,252,165325,6,0,B|184:300|256:252|256:252|324:300|380:252,1,270,6|0,0:0|0:0,0:0:0:0:
412,229,166355,1,0,0:0:0:0:
428,192,166502,1,6,0:0:0:0:
320,136,166796,1,0,0:0:0:0:
140,28,167090,1,8,0:0:0:0:
192,136,167384,1,2,0:0:0:0:
120,232,167678,5,6,0:0:0:0:
120,232,168267,6,0,L|164:216,1,45,10|0,0:0|0:0,0:0:0:0:
256,264,168561,2,0,L|212:276,1,45,2|0,0:0|0:0,0:0:0:0:
256,192,168855,12,4,172384,0:0:0:0:
