osu file format v5

[General]
AudioFilename: Nightwish - Wish I Had An Angel.mp3
AudioLeadIn: 0
PreviewTime: -1
Countdown: 1
SampleSet: Soft
StackLeniency: 0.7
Mode: 0
EditorBookmarks: 0,10188,45660,57264,82169,87169,129339,145471,182641,194245,248584

[Metadata]
Title:Wish I Had an Angel
Artist:Nightwish
Creator:MasamuneDragon
Version:Normal
Source:
Tags:

[Difficulty]
HPDrainRate:5
CircleSize:5
OverallDifficulty:5
SliderMultiplier:1.4
SliderTickRate:1

[Events]
//Background and Video events
0,0,"folder.jpg"
//Break Periods
2,45301,56545
2,81723,87494
2,132298,146373
2,182308,194684
//Storyboard Layer 0 (Background)
//Storyboard Layer 1 (Failing)
//Storyboard Layer 2 (Passing)
//Storyboard Layer 3 (Foreground)
//Storyboard Sound Samples
//Background Colour Transformations
3,100,163,162,255

[TimingPoints]
376,377.358490566038,4,2,0,100

[Colours]
Combo1 : 99,96,159
Combo2 : 148,97,115
Combo3 : 147,85,159
Combo4 : 105,118,139

[HitObjects]
48,48,10186,5,0
48,112,10564,1,2
48,176,10941,1,4
368,64,11508,5,2
368,128,11885,1,0
368,160,12074,1,2
368,224,12451,1,4
432,224,12828,1,0
432,288,13206,1,2
368,288,13583,1,0
304,288,13960,1,4
16,32,14526,5,2
80,32,14904,1,2
80,64,15092,1,0
144,64,15470,1,2
208,64,15847,1,0
208,128,16225,1,2
144,128,16602,1,0
176,192,16979,1,4
32,336,17545,5,0
96,336,17923,1,0
128,320,18111,1,2
192,320,18489,1,4
256,320,18866,1,0
320,320,19243,1,2
320,256,19621,1,2
320,192,19998,1,0
320,256,20376,1,2
320,320,20753,1,2
256,320,21130,1,4
192,320,21508,1,2
192,256,21885,1,4
192,192,22262,6,2,B|272:192|288:128|352:128|384:192|400:192,1,210
384,176,23394,1,0
288,176,23960,1,0
192,176,24526,1,0
192,112,24904,2,2,B|272:128|224:224,1,140
225,221,25659,2,2,B|112:32|16:224|16:224|16:48|16:48|168:44|288:48,1,700
398,35,27923,5,4
384,176,28300,2,4,B|272:304|272:304,1,140
256,288,28866,1,2
160,288,29432,1,0
160,192,29998,1,2
160,288,30564,1,2
160,224,30942,1,0
160,160,31319,1,4
464,208,32074,5,0
432,208,32262,1,4
400,208,32451,1,2
368,208,32640,1,0
304,208,33017,1,2
48,208,34149,5,2
80,208,34338,1,2
144,208,34715,1,0
176,208,34904,1,4
288,208,35470,1,2
160,208,36036,1,0
272,208,36602,1,2
352,208,37168,1,4
224,224,37734,2,2,B|32:112|32:112|512:16,1,700
48,320,39998,5,4
112,320,40375,1,0
208,320,40942,1,2
112,320,41508,1,0
208,320,42074,1,0
304,320,42640,2,2,B|304:176,1,140
304,192,43394,2,2,B|32:320,1,280
48,304,44338,1,0
48,304,44526,1,2
48,272,44715,1,4
112,272,45092,1,2
32,32,57734,5,4
96,32,58111,1,0
160,32,58489,1,2
224,32,58866,1,2
288,32,59243,1,4
352,32,59621,1,0
416,32,59998,1,2
480,32,60375,1,2
480,96,60753,5,4
416,96,61130,1,0
352,96,61508,1,2
288,96,61885,1,2
224,96,62262,1,4
160,96,62640,1,0
96,96,63017,1,2
32,96,63394,1,2
32,160,63772,5,4
96,160,64149,1,0
160,160,64526,1,2
224,160,64904,1,2
288,160,65281,1,4
352,160,65659,1,0
416,160,66036,1,2
480,160,66413,1,2
480,224,66791,5,4
416,224,67168,1,0
352,224,67545,1,2
288,224,67923,1,2
224,224,68300,1,4
160,224,68677,1,0
96,224,69055,1,2
32,224,69432,1,2
32,256,69621,5,2
128,256,70187,1,0
192,256,70564,1,4
256,256,71130,1,4
160,256,71696,1,0
160,192,72074,1,2
256,192,72640,1,2
256,96,73206,1,0
192,96,73583,1,0
128,96,73960,1,2
128,128,74149,1,4
128,224,74715,1,2
192,224,75092,1,0
480,352,75847,5,0
480,288,76225,1,2
416,288,76602,1,4
416,208,77168,1,0
320,208,77734,1,0
400,208,78111,1,0
304,208,78677,1,0
224,208,79243,5,4
224,144,79621,1,2
288,144,79998,1,0
224,80,80375,1,2
320,80,80942,1,4
384,80,81319,1,4
384,48,81508,1,2
320,192,88677,6,2,B|144:64,1,210
112,112,89809,2,2,B|288:240,1,210
288,240,90942,1,2
352,240,91319,1,0
352,160,91696,6,4,B|144:368|48:352|0:208|80:208,1,420
48,224,93017,1,2
176,176,94715,2,0,B|128:112|208:80|320:128|224:256|192:272|192:272|112:256|96:144|112:64|48:304,1,560
48,288,96791,1,4
144,288,97357,1,2
144,160,97923,2,4,B|32:160|32:80|32:80|32:32|160:16|240:32|384:32|448:48|448:48|480:64|480:384,1,910
160,352,100753,6,2,B|512:112,1,420
480,128,102262,1,2
384,128,102828,1,0
288,128,103394,1,4
224,128,103772,2,2,B|224:160|208:176|176:192|160:160|144:128|160:96|176:80|208:48|240:48|256:64|272:64|288:96|288:112|288:144|272:160|256:192|240:208|208:208|160:224|128:192|112:128|128:64|144:32,1,560
144,32,105659,1,4
32,32,106036,5,4
96,32,106413,1,0
160,32,106791,1,2
224,32,107168,1,2
288,32,107545,1,4
352,32,107923,1,0
416,32,108300,1,2
480,32,108677,1,2
480,96,109055,5,4
416,96,109432,1,0
352,96,109809,1,2
288,96,110187,1,2
224,96,110564,1,4
160,96,110942,1,0
96,96,111319,1,2
32,96,111696,1,2
32,160,112074,5,4
96,160,112451,1,0
160,160,112828,1,2
224,160,113206,1,2
288,160,113583,1,4
352,160,113960,1,0
416,160,114338,1,2
480,160,114715,1,2
480,224,115092,5,4
416,224,115470,1,0
352,224,115847,1,2
288,224,116225,1,2
224,224,116602,1,4
160,224,116979,1,0
96,224,117357,1,2
32,224,117734,1,2
32,256,117923,5,4
128,256,118489,1,2
176,288,118866,1,0
256,288,119432,1,2
160,288,119998,1,4
160,224,120375,1,0
256,224,120942,1,0
256,144,121508,1,4
192,144,121885,1,4
128,144,122262,1,0
128,192,122451,1,2
208,192,123017,1,0
288,192,123394,1,2
480,352,124149,5,2
480,288,124526,1,0
416,288,124904,1,4
416,208,125470,1,0
320,208,126036,1,2
400,208,126413,1,0
304,208,126979,1,2
224,208,127545,5,4
224,144,127923,1,2
288,144,128300,1,0
224,80,128677,1,2
320,80,129243,1,0
384,80,129621,1,2
384,48,129809,1,2
384,112,130187,1,0
384,160,130470,1,2
336,160,130753,1,4
368,160,130942,1,2
416,160,131225,1,0
464,160,131508,1,2
464,192,131696,1,0
400,192,132074,1,4
256,96,147545,5,0
352,160,147923,1,4
352,288,148300,1,4
160,288,148677,1,4
160,160,149055,1,4
256,96,149432,5,0
160,160,149809,1,4
160,288,150187,1,4
352,288,150564,1,4
352,160,150942,1,4
256,96,151319,5,4
160,288,151696,1,4
352,160,152074,1,4
160,160,152451,1,4
352,288,152828,1,4
256,96,153583,5,4
160,288,153960,1,4
352,288,154338,1,4
256,96,155092,5,2
352,288,155470,1,0
160,160,155847,1,2
352,160,156225,1,2
160,288,156602,1,2
256,96,156979,1,2
256,48,157357,1,2
256,48,157734,1,0
256,48,158111,6,4,B|112:304,1,280
118,292,158866,2,4,B|368:144,1,280
358,149,159621,2,2,B|36:145|96:160,1,280
91,158,160376,2,0,B|352:304,1,280
335,294,161130,2,2,B|208:32,1,280
212,42,161885,6,0,B|336:320,1,280
336,320,162640,2,2,B|80:160,1,280
81,168,163394,2,4,B|368:160,1,280
360,160,164149,2,2,B|112:352,1,280
128,336,164904,6,2,B|256:48,1,280
253,70,165659,2,2,B|368:336,1,280
364,327,166413,2,0,B|112:160,1,280
128,160,167168,2,0,B|416:144,1,280
408,144,167923,6,2,B|160:288,1,280
168,289,168677,2,2,B|272:16,1,280
267,27,169432,2,0,B|304:48|304:80|288:112|256:112|224:80|208:48|208:0|176:32|160:64|160:112|160:144|128:160|112:96|112:112,1,280
119,117,170187,2,4,B|96:160|112:208|208:240|240:176|272:144|352:128|400:128|432:192|400:304|320:304|192:304|48:304|48:336|16:304|48:224|48:192|48:192|32:64,1,840
64,96,172828,5,2
128,96,173206,2,0,B|128:48|128:32|160:16|192:16|208:16|208:16|432:16|448:16|448:32|432:48|432:80|448:80|448:112|432:128|432:128|320:320|320:304|288:320|272:352|240:336|208:304|256:272|272:240|224:224|192:240|176:272|176:320|144:320|128:304|96:240|112:176|80:208,1,980
128,160,176225,6,0,B|48:96|64:64|144:48|192:48|192:48|272:64|304:80|304:96|304:144|304:192|256:224|192:176|192:176|160:224|144:256|192:288|368:288,1,770
352,288,178866,1,2
288,288,179243,6,0,B|224:288|192:304|192:320|160:336|128:320|112:304|80:272|64:240|64:240|64:208|96:176|128:160|144:128|96:96|48:96|64:48|112:32|160:32|192:48,1,560
191,47,180753,2,2,B|384:48|416:64|432:112|432:176|368:176|320:144|304:160|304:208|336:240|400:240|384:288|336:304|272:288,1,490
96,352,195847,5,4
144,304,196225,1,0
192,256,196602,1,2
240,208,196979,1,2
288,160,197357,1,4
336,112,197734,1,0
384,64,198111,1,2
320,48,198489,5,4
256,80,198866,1,0
208,112,199243,1,2
176,144,199621,1,2
128,192,199998,1,4
128,256,200375,1,0
176,304,200753,1,2
240,288,201130,5,4
288,240,201508,1,0
320,192,201885,1,2
352,144,202262,1,2
400,96,202640,1,0
416,32,203017,5,4
352,48,203394,1,2
304,80,203772,1,0
256,128,204149,1,2
224,176,204526,1,2
192,224,204904,1,4
144,272,205281,1,0
96,320,205659,5,2
48,352,206036,1,4
48,288,206413,1,0
112,288,206791,1,2
112,320,206979,1,2
208,352,207545,1,4
272,352,207923,5,0
288,272,208489,1,2
336,160,209055,1,0
272,160,209432,1,4
176,160,209998,2,2,B|0:304,1,210
16,304,210942,1,2
96,304,211319,1,0
128,304,211508,1,2
176,256,212074,1,4
256,176,212451,1,4
32,272,213206,5,2
96,272,213583,1,0
32,208,213960,2,2,B|32:32|32:32|96:32,1,210
144,32,215092,1,0
192,112,215470,1,2
256,192,216036,1,0
320,336,216602,5,2
320,272,216979,1,0
320,208,217357,1,2
256,208,217734,1,0
160,208,218300,1,2
160,144,218677,1,4
160,144,218866,1,4
224,144,219243,1,2
288,144,219621,1,0
288,80,219998,1,0
352,80,220375,1,4
352,144,220753,1,4
352,240,221319,1,2
288,240,221696,1,4
288,240,221885,1,2
224,240,222262,5,0
288,240,222640,1,0
224,240,223017,1,2
160,240,223394,1,0
160,176,223772,1,2
256,176,224338,1,0
256,112,224715,1,2
256,112,224904,1,0
256,176,225281,1,2
320,176,225659,1,0
320,112,226036,1,0
256,112,226413,1,4
256,176,226791,1,2
320,176,227168,1,2
320,240,227545,2,0,B|240:240,1,70
240,240,227923,2,0,B|160:240,1,70
256,192,228300,12,4,230942
256,192,231319,12,4,233960
256,192,234338,12,4,236979
256,192,237357,12,4,239621
256,192,239809,12,4,240753
256,192,241130,5,2
