osu file format v5

[General]
AudioFilename: Nightwish - Wish I Had An Angel.mp3
AudioLeadIn: 0
PreviewTime: -1
Countdown: 1
SampleSet: Soft
StackLeniency: 0.7
Mode: 0
EditorBookmarks: 0,10188,45660,57264,82169,87169,129339,145471,182641,194245,248584

[Metadata]
Title:Wish I Had an Angel
Artist:Nightwish
Creator:MasamuneDragon
Version:Easy
Source:
Tags:

[Difficulty]
HPDrainRate:4
CircleSize:4
OverallDifficulty:4
SliderMultiplier:1.4
SliderTickRate:0.5

[Events]
//Background and Video events
0,0,"folder.jpg"
//Break Periods
2,44331,56400
2,81509,87349
2,132273,146228
2,180961,194539
//Storyboard Layer 0 (Background)
//Storyboard Layer 1 (Failing)
//Storyboard Layer 2 (Passing)
//Storyboard Layer 3 (Foreground)
//Storyboard Sound Samples
//Background Colour Transformations
3,100,163,162,255

[TimingPoints]
376,377.358490566038,4,2,0,100

[Colours]
Combo1 : 99,96,159
Combo2 : 148,97,115
Combo3 : 147,85,159
Combo4 : 105,118,139

[HitObjects]
48,336,10187,1,0
48,208,10942,1,4
144,208,11508,5,0
144,144,11885,1,2
144,112,12074,1,4
320,112,13206,5,0
320,176,13583,1,2
320,240,13960,1,4
224,240,14526,5,0
160,240,14904,1,2
128,240,15092,1,4
464,48,17545,5,0
400,48,17923,1,2
368,48,18111,1,4
192,48,19243,5,0
192,112,19621,1,2
192,176,19998,1,0
192,112,20376,1,2
192,48,20753,1,4
192,288,22262,6,0,B|272:288|405:288|405:288,1,210
400,112,23960,1,2
304,112,24526,1,0
304,176,24904,2,4,B|160:176,1,140
160,112,25659,1,4
448,336,27923,5,0
384,336,28300,2,2,B|244:175|244:175,1,210
144,176,29432,1,0
272,224,29998,1,2
272,128,30564,1,0
400,128,31319,1,4
272,112,32074,5,0
208,112,32451,1,2
176,112,32640,1,0
112,112,33017,1,4
112,288,34149,5,0
240,288,34904,1,2
336,288,35470,1,0
432,288,36036,1,2
432,160,36791,1,0
432,320,37734,2,4,B|352:320|352:320|352:352|352:352|320:352|320:352|320:320|320:320|272:320|272:320|272:352|272:352|240:352|240:352|240:64,1,560
112,112,39998,5,0
176,112,40375,1,2
272,112,40942,1,0
368,112,41508,1,2
464,112,42074,1,0
464,208,42640,1,2
464,336,43394,2,4,B|176:336,1,280
32,352,57734,5,0
160,352,58489,1,2
288,352,59243,1,0
416,352,59998,1,4
416,224,60753,5,0
288,224,61508,1,2
160,224,62262,1,0
32,224,63017,1,4
32,96,63772,5,0
160,96,64526,1,2
288,96,65281,1,0
416,96,66036,1,4
416,224,66791,5,0
288,224,67545,1,2
160,224,68300,1,0
160,96,69055,1,4
32,96,69809,5,0
32,224,70564,1,2
128,224,71130,1,0
224,224,71696,1,2
368,224,72640,1,4
368,320,73206,5,0
240,320,73960,1,2
208,320,74149,1,0
352,320,75092,1,4
352,192,75847,5,0
352,128,76225,1,2
352,64,76602,1,0
176,64,77734,1,2
112,64,78111,1,0
208,64,78677,1,4
208,160,79243,5,0
208,224,79621,1,2
208,352,80375,1,0
304,352,80942,1,2
304,256,81508,1,4
320,192,88677,6,0,B|96:192,1,210
112,288,89809,2,2,B|336:288,1,210
128,208,91696,2,0,B|123:352|123:352|443:352,1,455
384,304,94621,2,2,B|48:304|48:304|48:64,1,560
448,336,98111,2,0,B|16:336|16:336|16:240|16:240|352:240,1,840
384,240,100753,2,4,B|384:32|384:32|176:32,1,385
208,160,102640,5,0
336,160,103394,1,2
336,224,103772,2,4,B|144:224|144:224|144:128|144:128|16:128|16:128|16:288,1,560
16,368,106036,5,0
144,368,106791,1,2
272,368,107545,1,0
400,368,108300,1,4
400,240,109055,5,0
400,368,109809,1,2
272,368,110564,1,0
272,240,111319,1,4
400,240,112074,5,0
272,240,112828,1,2
144,240,113583,1,0
272,240,114338,1,4
144,240,115092,5,0
16,240,115847,1,2
144,240,116602,1,0
16,240,117357,1,4
16,112,118111,5,0
144,112,118866,1,2
320,112,119998,1,0
256,112,120375,1,2
160,112,120942,1,0
64,112,121508,1,4
64,240,122262,5,0
96,240,122451,1,2
240,240,123394,1,4
368,240,124149,5,0
304,240,124526,1,2
240,240,124904,1,0
144,240,125470,1,4
144,144,126036,5,0
144,80,126413,1,2
240,80,126979,1,4
336,80,127545,5,0
400,80,127923,1,2
400,208,128677,1,0
400,304,129243,1,4
304,304,129809,5,0
240,304,130187,1,0
176,304,130564,1,2
112,304,130942,1,0
208,304,131696,1,2
112,304,132074,1,4
256,288,147545,5,0
256,160,148300,1,2
128,160,149055,1,0
128,288,149809,1,2
256,288,150564,1,4
256,160,151319,5,0
320,272,152074,1,2
208,224,152828,1,4
336,224,153583,5,0
288,272,153960,1,2
272,208,154338,1,4
176,272,155092,5,0
288,208,155847,1,2
176,176,156602,1,0
80,112,157357,1,4
128,224,158111,6,0,B|320:16,1,280
176,48,159621,2,2,B|293:45|458:37,1,280
416,144,161130,2,0,B|224:352,1,280
272,208,162640,2,2,B|16:48,1,280
48,192,164149,2,0,B|288:352,1,280
144,304,165659,2,2,B|272:48,1,280
128,80,167168,2,0,B|416:112,1,280
272,64,168677,2,4,B|384:336,1,280
288,320,170187,6,0,B|265:277|281:229|377:197|409:261|441:293|521:309|569:309|601:245|569:133|489:133|361:133|217:133|217:101|185:133|217:213|217:245|217:245|201:373,1,840
112,288,173206,2,4,B|112:336|112:352|144:368|176:368|192:368|192:368|416:368|432:368|432:352|416:336|416:304|432:304|432:272|416:256|416:256|304:64|304:80|272:64|256:32|224:48|192:80|240:112|256:144|208:160|176:144|160:112|160:64|128:64|112:80|80:144|96:208|64:176,1,980
112,224,176225,6,0,B|32:288|48:320|128:336|176:336|176:336|256:320|288:304|288:288|288:240|288:192|240:160|176:208|176:208|144:160|128:128|176:96|352:96,1,770
192,112,179243,2,4,B|128:112|96:96|96:80|64:64|32:80|16:96|-16:128|-32:160|-32:160|-32:192|0:224|32:240|48:272|0:304|-48:304|-32:352|16:368|64:368|96:352,1,560
96,32,195847,5,0
192,112,196602,1,2
272,192,197357,1,0
352,272,198111,1,2
224,272,198866,1,0
96,272,199621,1,2
96,144,200375,1,4
224,144,201130,5,0
352,144,201885,1,2
480,144,202640,1,0
480,16,203394,1,2
352,16,204149,1,0
224,16,204904,1,4
96,32,205659,5,0
16,128,206413,1,2
16,256,207168,1,4
144,256,207923,5,0
144,352,208489,1,2
288,352,209432,1,0
224,352,209998,2,2,B|464:352,1,210
464,208,211319,1,0
432,208,211508,1,4
160,208,213206,5,0
96,208,213583,1,2
32,208,213960,2,0,B|32:32|32:32|96:32,1,210
160,32,215092,1,2
224,32,215470,1,0
224,128,216036,1,4
224,224,216602,5,0
224,352,217357,1,2
224,192,218300,1,0
288,192,218866,1,2
432,192,219621,1,0
304,192,220375,1,2
144,192,221319,1,0
240,192,221885,1,4
240,64,222640,5,0
240,192,223394,1,2
240,336,224338,1,0
240,176,225281,1,2
240,48,226036,1,0
240,176,226791,1,4
256,192,229055,12,4,241508
