osu file format v11

[General]
AudioFilename: Nightwish - White Night Fantasy.mp3
AudioLeadIn: 0
PreviewTime: 68553
Countdown: 0
SampleSet: None
StackLeniency: 0.7
Mode: 0
LetterboxInBreaks: 1

[Editor]
Bookmarks: 35071,43642,52213,60785,69356,77928,86499,88642,97213,105785,114356,122928,125071,133642,137928,142213,150785,155071,159356,167928,176499
DistanceSpacing: 1.4
BeatDivisor: 4
GridSize: 4

[Metadata]
Title:White Night Fantasy
TitleUnicode:White Night Fantasy
Artist:Nightwish
ArtistUnicode:Nightwish
Creator:Sieg
Version:Hard
Source:
Tags:nemo
BeatmapID:214135
BeatmapSetID:63082

[Difficulty]
HPDrainRate:6
CircleSize:4
OverallDifficulty:6
ApproachRate:7
SliderMultiplier:1.8
SliderTickRate:2

[Events]
//Background and Video events
0,0,"bg.jpg"
//Break Periods
//Storyboard Layer 0 (Background)
//Storyboard Layer 1 (Fail)
//Storyboard Layer 2 (Pass)
//Storyboard Layer 3 (Foreground)
//Storyboard Sound Samples
//Background Colour Transformations
3,100,163,162,255

[TimingPoints]
35071,535.714285714286,4,3,1,80,1,0
51678,-100,4,3,1,30,0,0
51946,-100,4,3,1,80,0,0
52213,-100,4,3,1,60,0,0
52347,-100,4,3,1,80,0,0
69088,-100,4,3,1,30,0,0
69490,-100,4,3,1,80,0,0
86231,-100,4,3,1,20,0,0
86499,-100,4,3,2,80,0,0
88642,-100,4,3,3,60,0,1
88776,-100,4,3,3,80,0,1
95874,-100,4,3,3,20,0,1
96142,-100,4,3,3,80,0,1
96678,-100,4,3,3,40,0,1
96946,-100,4,3,3,80,0,1
97213,-100,4,3,1,60,0,1
97347,-100,4,3,1,80,0,1
99356,-100,4,3,1,50,0,1
99490,-100,4,3,1,80,0,1
101499,-100,4,3,1,50,0,1
101767,-100,4,3,2,10,0,1
101901,-100,4,3,2,80,0,1
102571,-100,4,3,2,10,0,1
102704,-100,4,3,2,80,0,1
103374,-100,4,3,1,30,0,1
103642,-100,4,3,1,50,0,1
103910,-100,4,3,2,80,0,1
105785,-100,4,3,1,60,0,0
105919,-100,4,3,1,80,0,0
119713,-100,4,3,1,20,0,0
120785,-100,4,3,1,50,0,0
121321,-100,4,3,1,15,0,0
121856,-100,4,3,1,20,0,0
122392,-100,4,3,1,25,0,0
122928,-100,4,3,1,80,0,0
123731,-100,4,3,1,60,0,0
123999,-100,4,3,1,80,0,0
124267,-100,4,3,1,40,0,0
124535,-100,4,3,1,80,0,0
125071,-100,4,3,3,60,0,1
125204,-100,4,3,3,80,0,1
132303,-100,4,3,3,20,0,1
132571,-100,4,3,3,80,0,1
133106,-100,4,3,3,40,0,1
133374,-100,4,3,3,40,0,1
133642,-100,4,3,1,60,0,1
133776,-100,4,3,1,80,0,1
135785,-100,4,3,1,50,0,1
135919,-100,4,3,1,80,0,1
137794,-100,4,3,1,30,0,1
141678,-100,4,3,1,40,0,1
142213,-100,4,3,3,40,0,0
142347,-100,4,3,3,80,0,0
149446,-100,4,3,3,20,0,0
149713,-100,4,3,3,80,0,0
150249,-100,4,3,3,40,0,0
150517,-100,4,3,3,60,0,0
150919,-100,4,3,3,80,0,0
153196,-100,4,3,2,80,0,0
155071,-100,4,3,1,30,0,0
155204,-100,4,2,1,20,0,0
157749,-100,4,3,3,40,0,0
159356,-100,4,3,3,40,0,0
159490,-100,4,2,1,20,0,0
160428,-100,4,3,3,40,0,0
160562,-100,4,2,1,20,0,0
161499,-100,4,3,3,20,0,0
162035,-100,4,3,3,40,0,0
162571,-100,4,3,3,20,0,0
163106,-100,4,3,3,40,0,0
163776,-100,4,2,1,20,0,0
164713,-100,4,3,3,40,0,0
164847,-100,4,2,1,20,0,0
165785,-100,4,3,3,20,0,0
167392,-133.333333333333,4,3,3,20,0,0
167526,-133.333333333333,4,2,1,15,0,0
171678,-100,4,3,3,40,0,0
172213,-100,4,2,1,15,0,0
174356,-100,4,2,1,12,0,0
175428,-100,4,2,1,10,0,0

[Colours]
Combo1 : 177,164,232
Combo2 : 245,245,245
Combo3 : 249,153,244
SliderBorder : 255,255,255

[HitObjects]
136,240,35071,2,0,P|140:320|56:328,2,180,12|2|8,0:0|0:0|0:0,0:0:0
256,196,36410,1,8,0:0:0
376,240,36678,2,0,P|372:320|456:328,2,180,2|8|2,0:0|0:0|0:0,0:0:0
72,104,38285,5,8,0:0:0
184,44,38553,1,8,0:0:0
292,108,38821,1,2,0:0:0
404,52,39088,1,8,0:0:0
464,276,39356,6,0,P|376:272|316:336,1,180,8|2,0:0|0:0,0:0:0
364,88,40427,1,8,0:0:0
256,24,40695,1,8,0:0:0
148,88,40963,1,2,0:0:0
48,276,41499,2,0,P|136:272|196:336,1,180,8|2,0:0|0:0,0:0:0
464,276,42570,5,8,0:0:0
348,328,42838,1,8,0:0:0
256,244,43106,1,2,0:0:0
164,328,43373,1,8,0:0:0
48,276,43642,6,0,P|8:232|84:176|48:104,1,180,8|2,0:0|0:0,0:0:0
168,64,44446,1,8,0:0:0
160,188,44713,1,8,0:0:0
256,268,44981,1,8,0:0:0
352,188,45249,1,2,0:0:0
344,64,45517,1,8,0:0:0
464,104,45785,2,0,P|428:176|504:232|464:276,1,180,8|2,0:0|0:0,0:0:0
216,320,46856,5,8,0:0:0
108,256,47124,1,8,0:0:0
108,128,47392,1,2,0:0:0
216,64,47659,1,8,0:0:0
300,320,47928,6,0,P|380:336|404:256,1,180,8|2,0:0|0:0,0:0:0
256,52,48998,1,8,0:0:0
256,52,49266,1,8,0:0:0
256,52,49534,1,2,0:0:0
212,320,50071,2,0,P|132:336|108:256,1,180,8|2,0:0|0:0,0:0:0
168,144,50874,5,8,0:0:0
256,232,51141,1,8,0:0:0
344,144,51409,1,8,0:0:0
256,52,51677,1,12,0:0:0
256,52,51946,1,8,0:0:0
184,208,52213,6,0,P|104:236|48:172,1,180,4|2,0:0|0:0,0:0:0
88,52,53017,1,8,0:0:0
212,68,53285,2,0,P|256:76|300:68,1,90,8|8,0:0|0:0,0:0:0
424,52,53821,1,2,0:0:0
464,172,54088,1,8,0:0:0
328,208,54356,6,0,P|316:164|292:128,1,90,8|8,0:0|0:0,0:0:0
228,264,54892,2,0,P|200:228|160:208,1,90,2|8,0:0|0:0,0:0:0
140,344,55428,1,8,0:0:0
52,256,55696,1,8,0:0:0
52,128,55964,1,2,0:0:0
140,40,56231,1,8,0:0:0
276,64,56499,6,0,P|292:108|328:128,1,90,8|8,0:0|0:0,0:0:0
440,188,57035,1,2,0:0:0
404,308,57303,1,8,0:0:0
236,320,57571,6,0,P|220:276|184:256,1,90,8|8,0:0|0:0,0:0:0
72,196,58107,1,2,0:0:0
108,76,58374,1,8,0:0:0
256,104,58642,6,0,P|232:152|280:232|256:280,2,180,8|2|8,0:0|0:0|0:0,0:0:0
404,76,59981,1,8,0:0:0
440,196,60250,1,2,0:0:0
404,308,60517,1,8,0:0:0
280,360,60785,6,0,P|188:368|124:312,2,180,8|2|8,0:0|0:0|0:0,0:0:0
228,236,62124,1,8,0:0:0
104,216,62392,2,0,P|116:172|144:136,1,90,2|8,0:0|0:0,0:0:0
236,52,62928,2,0,P|328:44|392:100,1,180,8|2,0:0|0:0,0:0:0
436,216,63731,5,8,0:0:0
360,316,63999,1,8,0:0:0
240,280,64267,1,8,0:0:0
208,160,64535,1,2,0:0:0
116,76,64803,1,8,0:0:0
92,308,65071,6,0,P|152:300|152:220|152:220|152:156,1,180,8|2,0:0|0:0,0:0:0
148,32,65874,1,8,0:0:0
256,100,66142,2,0,P|256:280,1,180,8|2,0:0|0:0,0:0:0
364,352,66946,1,8,0:0:0
360,224,67213,2,0,P|360:163|360:163|360:83|420:75,1,180,8|2,0:0|0:0,0:0:0
472,192,68017,5,8,0:0:0
440,312,68285,1,8,0:0:0
320,352,68553,1,8,0:0:0
192,352,68821,1,2,0:0:0
72,312,69088,1,4,0:0:0
192,244,69356,6,0,P|208:156|160:84,1,180,4|2,0:0|0:0,0:0:0
48,24,70160,1,8,0:0:0
28,152,70428,2,0,P|20:240|72:312,1,180,8|2,0:0|0:0,0:0:0
192,344,71231,5,8,0:0:0
256,236,71499,2,0,P|248:212|264:172|256:144,2,90,8|8|2,0:0|0:0|0:0,0:0:0
320,344,72303,1,8,0:0:0
440,312,72571,2,0,P|452:264|448:224,1,90,8|8,0:0|0:0,0:0:0
324,248,73106,2,0,P|312:200|316:160,1,90,2|8,0:0|0:0,0:0:0
440,128,73642,6,0,P|444:80|432:40,1,90,8|8,0:0|0:0,0:0:0
320,112,74178,1,2,0:0:0
192,112,74446,1,8,0:0:0
96,32,74713,2,0,P|60:112|96:192,1,180,8|2,0:0|0:0,0:0:0
164,296,75517,1,8,0:0:0
288,276,75785,6,0,P|324:196|288:116,2,180,8|2|8,0:0|0:0|0:0,0:0:0
164,296,77124,1,8,0:0:0
104,184,77392,1,2,0:0:0
160,72,77660,1,8,0:0:0
284,204,77928,6,0,P|336:204|372:192,1,90,8|8,0:0|0:0,0:0:0
484,136,78463,1,2,0:0:0
404,40,78731,2,0,P|360:28|304:28,2,90,8|8|8,0:0|0:0|0:0,0:0:0
484,136,79535,2,0,P|444:156|392:160,1,90,2|8,0:0|0:0,0:0:0
256,160,80071,6,0,P|276:224|228:292|256:336,2,180,8|2|8,0:0|0:0|0:0,0:0:0
112,160,81410,1,8,0:0:0
48,268,81678,1,2,0:0:0
144,352,81946,1,8,0:0:0
212,248,82213,6,0,P|248:228|300:224,2,90,8|8|2,0:0|0:0|0:0,0:0:0
288,352,83017,2,0,P|336:352|376:340,1,90,8|8,0:0|0:0,0:0:0
296,224,83553,1,8,0:0:0
376,340,83821,2,0,P|440:280|440:192,2,180,2|8|2,0:0|0:0|0:0,0:0:0
256,304,85160,5,8,0:0:0
136,340,85428,1,8,0:0:0
40,256,85696,1,8,0:0:0
40,128,85963,1,2,0:0:0
136,44,86231,1,4,0:0:0
256,84,86499,6,0,P|256:128,2,45,2|8|8,0:0|0:0|0:0,0:0:0
376,44,87035,2,0,P|420:44,2,45,2|8|8,0:0|0:0|0:0,0:0:0
472,128,87571,1,4,0:0:0
472,256,87838,2,0,P|452:272|432:284,1,45,8|8,0:0|0:0,0:0:0
412,300,88106,2,0,P|392:312|372:320,1,45,8|8,0:0|0:0,0:0:0
348,328,88374,2,0,P|320:340|300:340,1,45,8|8,0:0|0:0,0:0:0
280,344,88642,6,0,P|184:348|96:328,1,180,4|2,0:0|0:0,0:0:0
36,224,89446,1,0,0:0:0
128,136,89713,2,0,P|216:132|312:152,2,180,8|2|8,0:0|0:0|0:0,0:0:0
76,252,91053,6,0,P|68:304|72:340,2,90,0|2|8,0:0|0:0|0:0,0:0:0
128,136,91856,1,8,0:0:0
208,236,92124,1,8,0:0:0
328,272,92392,1,2,0:0:0
440,212,92660,1,8,0:0:0
416,88,92928,6,0,P|336:60|228:76,1,180,8|2,0:0|0:0,0:0:0
144,152,93731,2,0,P|120:200|116:236,1,90,0|8,0:0|0:0,0:0:0
256,244,94267,1,0,0:0:0
368,152,94535,2,0,P|392:196|396:236,1,90,2|8,0:0|0:0,0:0:0
288,332,95071,6,0,P|200:344|116:312,1,180,8|2,0:0|0:0,0:0:0
36,216,95874,1,4,0:0:0
72,96,96142,1,8,0:0:0
192,56,96410,1,8,0:0:0
320,56,96678,1,6,0:0:0
440,96,96946,1,0,0:0:0
476,216,97213,6,0,P|400:248|372:172,1,180,12|2,0:0|0:0,0:0:0
256,120,98017,1,0,0:0:0
140,172,98285,2,0,P|112:248|36:216,2,180,8|2|12,0:0|0:0|0:0,0:0:0
256,120,99624,1,8,0:0:0
340,308,99892,6,0,P|256:336|172:308,2,180,2|8|2,0:0|0:0|0:0,0:0:0
428,220,101231,1,8,0:0:0
480,104,101499,6,0,P|400:68|320:104,1,180,4|2,0:0|0:0,0:0:0
192,104,102303,2,0,P|112:68|32:104,1,180,8|8,0:0|0:0,0:0:0
60,228,103106,1,8,0:0:0
160,308,103374,1,12,0:0:0
256,228,103642,5,12,0:0:0
352,308,103910,2,0,P|388:336,2,45,8|8|8,0:0|0:0|0:0,0:0:0
452,228,104446,1,8,0:0:0
352,152,104713,2,0,P|392:120,2,45,8|8|8,0:0|0:0|0:0,0:0:0
256,228,105249,1,8,0:0:0
160,152,105517,2,0,P|124:124,1,45,8|8,0:0|0:0,0:0:0
100,112,105785,6,0,P|76:200|100:284,1,180,4|2,0:0|0:0,0:0:0
256,336,106588,1,8,0:0:0
412,284,106856,2,0,P|456:264|480:232,1,90,8|8,0:0|0:0,0:0:0
336,228,107392,2,0,P|288:152,1,90,2|8,0:0|0:0,0:0:0
340,312,107928,6,0,P|296:336|256:336,1,90,8|8,0:0|0:0,0:0:0
184,188,108463,2,0,P|228:204|256:236,1,90,2|8,0:0|0:0,0:0:0
136,348,108999,2,0,P|144:300|176:272,1,90,8|8,0:0|0:0,0:0:0
224,112,109535,2,0,P|212:160|184:188,1,90,2|8,0:0|0:0,0:0:0
80,260,110071,5,8,0:0:0
80,260,110338,1,8,0:0:0
40,140,110606,2,0,P|44:96|64:56,1,90,2|8,0:0|0:0,0:0:0
168,128,111142,2,0,P|256:144|344:128,1,180,8|2,0:0|0:0,0:0:0
448,56,111946,1,8,0:0:0
344,128,112213,6,0,P|336:176|344:216,1,90,8|8,0:0|0:0,0:0:0
464,180,112749,2,0,P|472:228|464:268,1,90,2|8,0:0|0:0,0:0:0
360,340,113285,1,8,0:0:0
256,268,113553,1,8,0:0:0
184,164,113821,1,2,0:0:0
256,60,114088,1,8,0:0:0
328,164,114356,5,8,0:0:0
256,268,114624,1,8,0:0:0
152,340,114892,1,2,0:0:0
48,268,115160,2,0,P|40:228|48:180,1,90,8|8,0:0|0:0,0:0:0
168,216,115696,1,8,0:0:0
168,216,115963,2,0,P|176:176|168:128,1,90,2|8,0:0|0:0,0:0:0
52,76,116499,6,0,P|68:36|128:36|128:36|216:36,1,180,8|2,0:0|0:0,0:0:0
340,56,117303,1,8,0:0:0
296,172,117571,1,8,0:0:0
388,256,117838,1,8,0:0:0
296,344,118106,1,2,0:0:0
216,40,118642,5,8,0:0:0
124,128,118910,1,8,0:0:0
208,224,119178,1,2,0:0:0
104,300,119446,1,8,0:0:0
32,196,119713,5,4,0:0:0
256,36,120249,1,6,0:0:0
480,196,120785,1,12,0:0:0
256,348,121321,1,6,0:0:0
68,168,121856,5,12,0:0:0
128,280,122124,1,8,0:0:0
256,308,122392,1,6,0:0:0
384,280,122660,1,8,0:0:0
444,168,122928,5,12,0:0:0
348,84,123196,1,8,0:0:0
316,204,123463,1,8,0:0:0
192,172,123731,1,12,0:0:0
224,52,123999,1,8,0:0:0
340,96,124267,1,8,0:0:0
312,220,124535,1,12,0:0:0
188,188,124803,1,8,0:0:0
348,332,125071,6,0,P|420:312|368:256,1,180,4|2,0:0|0:0,0:0:0
256,196,125875,1,0,0:0:0
144,128,126142,2,0,P|92:72|164:52,2,180,8|2|8,0:0|0:0|0:0,0:0:0
256,196,127482,6,0,P|248:220|264:264|256:288,2,90,0|2|0,0:0|0:0|0:0,0:0:0
256,68,128285,1,8,0:0:0
368,128,128553,1,8,0:0:0
368,256,128821,1,2,0:0:0
256,316,129089,1,8,0:0:0
120,356,129356,6,0,P|60:280|52:200,1,180,8|2,0:0|0:0,0:0:0
148,288,130160,2,0,P|124:248|124:204,1,90,0|8,0:0|0:0,0:0:0
256,192,130696,1,0,0:0:0
364,96,130963,2,0,P|388:136|388:180,1,90,2|0,0:0|0:0,0:0:0
392,28,131500,2,0,P|452:104|460:184,1,180,8|2,0:0|0:0,0:0:0
460,312,132303,5,4,0:0:0
340,348,132571,1,8,0:0:0
256,256,132839,1,8,0:0:0
172,348,133107,1,6,0:0:0
52,312,133375,1,0,0:0:0
36,168,133642,6,0,P|112:136|140:212,1,180,12|2,0:0|0:0,0:0:0
256,256,134446,1,8,0:0:0
372,212,134714,2,0,P|400:136|476:168,2,180,8|2|12,0:0|0:0|0:0,0:0:0
256,164,136053,1,8,0:0:0
176,68,136321,6,0,P|256:32|336:68,2,180,2|8|2,0:0|0:0|0:0,0:0:0
256,164,137660,1,8,0:0:0
256,192,137928,12,4,141678,0:0:0
404,256,142213,6,0,P|308:212|244:236,1,180,4|2,0:0|0:0,0:0:0
132,296,143017,1,0,0:0:0
72,184,143284,2,0,P|160:164|236:116,2,180,8|2|8,0:0|0:0|0:0,0:0:0
136,76,144624,6,0,P|96:96|52:100,2,90,0|2|0,0:0|0:0|0:0,0:0:0
260,60,145427,1,8,0:0:0
324,168,145695,1,8,0:0:0
388,60,145963,1,2,0:0:0
452,168,146231,1,8,0:0:0
452,168,146499,6,0,P|424:248|440:356,1,180,8|2,0:0|0:0,0:0:0
348,252,147302,2,0,P|344:204|324:168,1,90,0|8,0:0|0:0,0:0:0
256,60,147838,1,0,0:0:0
188,216,148106,2,0,P|168:180|164:132,1,90,2|0,0:0|0:0,0:0:0
80,44,148642,2,0,P|92:132|60:216,1,180,8|2,0:0|0:0,0:0:0
28,336,149445,5,4,0:0:0
140,280,149713,1,8,0:0:0
256,332,149981,1,8,0:0:0
372,280,150249,1,6,0:0:0
484,336,150517,1,0,0:0:0
472,176,150784,6,0,P|416:108|332:132,1,180,12|2,0:0|0:0,0:0:0
256,224,151588,1,0,0:0:0
176,128,151856,2,0,P|84:112|40:176,2,180,8|2|12,0:0|0:0|0:0,0:0:0
256,224,153196,6,0,P|280:264,2,45,8|8|8,0:0|0:0|0:0,0:0:0
356,144,153732,1,8,0:0:0
264,60,153999,2,0,P|232:20,2,45,8|8|8,0:0|0:0|0:0,0:0:0
148,112,154535,1,8,0:0:0
156,240,154803,2,0,P|116:268,1,45,8|8,0:0|0:0,0:0:0
120,264,155071,6,0,P|332:328|100:192,1,900,4|0,0:0|0:0,0:0:0
80,56,159356,6,0,B|108:128|28:164|24:224|48:288|88:336|172:348,2,360,0|0|4,0:0|0:0|0:0,0:0:0
176,216,162035,1,0,0:0:0
256,56,162571,1,4,0:0:0
336,216,163106,1,0,0:0:0
432,56,163642,2,0,B|404:128|484:164|488:224|464:288|424:336|345:347,2,360,0|0|4,0:0|0:0|0:0,0:0:0
256,336,167392,6,0,B|192:219|20:280|-40:83|136:-68|224:80|224:80|238:101|256:116|274:101|288:80|288:80|376:-68|552:83|492:280|304:224|324:300,1,1080.00004119873,4|0,0:0|0:0,0:0:0
256,192,172213,12,0,176499,0:0:0
