osu file format v14

[General]
AudioFilename: While Your Lips Are Still Red.mp3
AudioLeadIn: 2500
PreviewTime: 100
Countdown: 0
SampleSet: Soft
StackLeniency: 0.7
Mode: 0
LetterboxInBreaks: 0
WidescreenStoryboard: 0

[Editor]
Bookmarks: 60700,99100,136900,175300
DistanceSpacing: 1.5
BeatDivisor: 8
GridSize: 4
TimelineZoom: 1.3

[Metadata]
Title:While Your Lips Are Still Red
TitleUnicode:While Your Lips Are Still Red
Artist:Nightwish
ArtistUnicode:Nightwish
Creator:T-Mac
Version:Hard
Source:
Tags:Tuomas Holopainen Marco Hietala NW Lieksa Symphonic Rock Amaranth tm1209 tt mouse ttm
BeatmapID:784285
BeatmapSetID:356374

[Difficulty]
HPDrainRate:3
CircleSize:3.7
OverallDifficulty:5
ApproachRate:6
SliderMultiplier:1.5
SliderTickRate:1

[Events]
//Background and Video events
0,0,"30469841_1398602801_5M7M.jpg",0,0
//Break Periods
//Storyboard Layer 0 (Background)
//Storyboard Layer 1 (Fail)
//Storyboard Layer 2 (Pass)
//Storyboard Layer 3 (Foreground)
//Storyboard Sound Samples

[TimingPoints]
-1100,600,4,2,1,40,1,0
100,-100,4,2,1,20,0,0
1300,-100,4,2,1,40,0,0
22600,-100,4,2,1,20,0,0
22900,-100,4,2,1,40,0,0
32475,600,4,2,1,40,1,0
37300,600,3,2,1,40,1,0
39100,600,4,2,1,40,1,0
41500,600,4,2,1,40,1,0
60700,-100,4,2,1,70,0,0
61300,-100,4,2,1,50,0,0
79300,-100,4,2,1,20,0,0
79900,-100,4,2,1,60,0,0
91900,-100,4,2,1,70,0,0
94300,-100,4,2,1,80,0,0
98500,-100,4,2,1,20,0,0
99100,-100,4,2,2,60,0,0
113500,600,3,2,2,70,1,0
115300,600,4,2,1,70,1,0
117700,600,4,2,2,70,1,0
136900,-100,4,2,2,80,0,0
155500,-100,4,2,2,20,0,0
156100,-100,4,2,2,60,0,0
173800,-100,4,2,2,20,0,0
174100,-100,4,2,2,70,0,0
175300,-100,4,2,2,90,0,1
193300,-100,4,2,2,90,0,0
194500,-100,4,2,2,90,0,1
213700,-100,4,3,2,80,0,0
253900,-100,4,3,2,60,0,0
254500,-100,4,3,2,45,0,0
255100,-100,4,3,2,30,0,0
255700,-100,4,3,2,15,0,0
256300,-100,4,3,2,10,0,0
256600,-100,4,2,2,5,0,0

[Colours]
Combo1 : 181,142,111
Combo2 : 132,160,204
Combo3 : 156,167,152
Combo4 : 220,95,98

[HitObjects]
89,344,100,6,0,L|79:266,1,75,2|2,0:0|0:0,0:0:0:0:
3,187,700,2,0,L|13:109,1,75,2|2,0:0|0:0,0:0:0:0:
113,163,1300,6,0,P|188:164|256:133,1,150,2|0,0:0|0:0,0:0:0:0:
313,37,2200,1,0,0:0:0:0:
410,94,2500,2,0,L|420:172,1,75,2|0,0:0|0:0,0:0:0:0:
496,251,3100,1,2,0:0:0:0:
496,251,3400,1,0,0:0:0:0:
444,350,3700,38,0,P|378:382|298:377,1,150,2|0,0:0|0:0,0:0:0:0:
209,314,4600,1,0,0:0:0:0:
108,364,4900,2,0,B|98:290|98:290|63:319|16:316,1,150,2|0,0:0|0:0,0:0:0:0:
16,128,6100,6,0,B|26:202|26:202|61:173|108:176,1,150,2|0,0:0|0:0,0:0:0:0:
194,231,7000,1,0,0:0:0:0:
286,166,7300,2,0,L|294:88,1,75,2|0,0:0|0:0,0:0:0:0:
386,27,7900,1,2,0:0:0:0:
386,27,8200,1,0,0:0:0:0:
395,139,8500,38,0,L|379:288,1,150,2|0,0:0|0:0,0:0:0:0:
488,317,9399,1,0,0:0:0:0:
458,208,9700,2,0,P|390:177|318:194,1,150,2|0,0:0|0:0,0:0:0:0:
190,327,10900,6,0,P|118:343|51:312,1,150,2|0,0:0|0:0,0:0:0:0:
21,204,11800,1,0,0:0:0:0:
100,124,12100,2,0,L|109:39,1,75,2|0,0:0|0:0,0:0:0:0:
209,97,12700,2,0,P|246:103|283:97,1,75,2|0,0:0|0:0,0:0:0:0:
384,49,13300,38,0,B|392:124|392:124|429:135|459:178,1,150,2|0,0:0|0:0,0:0:0:0:
459,280,14200,1,0,0:0:0:0:
349,305,14500,2,0,B|341:267|358:231|358:231|316:216|296:181,1,150,2|0,0:0|0:0,0:0:0:0:
256,5,15700,6,0,B|248:43|265:79|265:79|223:94|203:129,2,150,2|0|2,0:0|0:0|0:0,0:0:0:0:
366,29,17200,1,0,0:0:0:0:
404,135,17500,2,0,L|395:220,1,75,2|0,0:0|0:0,0:0:0:0:
478,287,18100,38,0,P|448:311|398:323,1,75,2|0,0:0|0:0,0:0:0:0:
309,280,18700,1,0,0:0:0:0:
201,312,19000,1,0,0:0:0:0:
201,312,19300,6,0,P|195:274|209:224,1,75,2|0,0:0|0:0,0:0:0:0:
291,169,19900,1,0,0:0:0:0:
318,60,20200,1,0,0:0:0:0:
318,60,20500,38,0,P|353:73|389:111,1,75,2|0,0:0|0:0,0:0:0:0:
396,209,21100,1,0,0:0:0:0:
478,287,21400,1,0,0:0:0:0:
478,287,21700,6,0,B|438:324|390:333|338:306|338:306|328:345|300:368,1,225,2|0,0:0|0:0,0:0:0:0:
229,280,22900,38,0,B|194:262|155:269|155:269|116:276|81:258,1,150,2|0,0:0|0:0,0:0:0:0:
22,165,23800,1,0,0:0:0:0:
72,64,24100,2,0,P|106:48|145:46,1,75,2|0,0:0|0:0,0:0:0:0:
179,55,24550,1,0,0:0:0:0:
210,76,24700,2,0,P|244:92|283:94,1,75,0|0,0:0|0:0,0:0:0:0:
381,42,25300,6,0,B|373:117|373:117|410:132|430:165,1,150,2|0,0:0|0:0,0:0:0:0:
432,277,26200,1,0,0:0:0:0:
333,223,26500,2,0,P|295:219|258:231,1,75,2|0,0:0|0:0,0:0:0:0:
186,314,27100,2,0,P|150:324|113:320,1,75,2|0,0:0|0:0,0:0:0:0:
26,247,27700,38,0,B|17:136|17:136|31:93,1,150,2|0,0:0|0:0,0:0:0:0:
130,149,28600,1,0,0:0:0:0:
219,80,28900,2,0,L|299:91,1,75,2|0,0:0|0:0,0:0:0:0:
271,201,29500,2,0,L|351:190,1,75,2|0,0:0|0:0,0:0:0:0:
429,267,30100,6,0,P|450:235|458:195,2,75,2|0|0,0:0|0:0|0:0,0:0:0:0:
322,301,31000,1,0,0:0:0:0:
271,201,31300,2,0,L|191:190,1,75,0|0,0:0|0:0,0:0:0:0:
220,80,31900,2,0,L|140:91,1,75
84,173,32475,38,0,B|70:246|70:246|31:252|3:284,1,150,2|0,0:0|0:0,0:0:0:0:
89,357,33375,1,0,0:0:0:0:
201,354,33675,2,0,B|199:314|175:285|175:285|217:207,1,150,2|0,0:0|0:0,0:0:0:0:
178,111,34575,1,0,0:0:0:0:
254,28,34875,6,0,L|337:18,1,75,2|0,0:0|0:0,0:0:0:0:
373,122,35475,2,0,L|456:132,1,75,0|0,0:0|0:0,0:0:0:0:
510,225,36075,1,2,0:0:0:0:
510,225,36375,1,0,0:0:0:0:
398,232,36675,1,2,0:0:0:0:
398,232,36975,1,0,0:0:0:0:
331,333,37300,38,0,B|256:345|256:345|270:307|258:268,1,150,2|0,0:0|0:0,0:0:0:0:
151,304,38200,1,0,0:0:0:0:
69,227,38500,2,0,L|73:144,1,75,2|0,0:0|0:0,0:0:0:0:
143,64,39100,6,0,B|174:91|181:126|181:126|205:78|250:53|306:62,1,225,2|0,0:0|0:0,0:0:0:0:
389,137,40300,1,0,0:0:0:0:
389,137,40600,1,0,0:0:0:0:
283,173,40900,1,0,0:0:0:0:
283,173,41200,1,0,0:0:0:0:
268,284,41500,38,0,B|341:297|341:297|393:352|393:352|466:365,1,225,2|0,0:0|0:0,0:0:0:0:
445,255,42700,2,0,L|451:174,1,75,2|0,0:0|0:0,0:0:0:0:
394,82,43300,1,0,0:0:0:0:
394,82,43600,1,0,0:0:0:0:
304,149,43900,6,0,P|230:162|160:122,1,150,2|0,0:0|0:0,0:0:0:0:
140,20,44800,1,0,0:0:0:0:
248,52,45100,2,0,L|224:205,1,150,2|0,0:0|0:0,0:0:0:0:
67,301,46300,38,0,L|45:153,2,150,2|0|2,0:0|0:0|0:0,0:0:0:0:
164,357,47800,1,0,0:0:0:0:
265,306,48100,2,0,L|276:232,1,75,2|0,0:0|0:0,0:0:0:0:
372,173,48700,6,0,P|416:228|375:285,1,150,2|0,0:0|0:0,0:0:0:0:
276,232,49600,1,0,0:0:0:0:
166,253,49900,2,0,B|91:241|91:241|71:278|28:287,1,150,2|0,0:0|0:0,0:0:0:0:
34,98,51100,38,0,B|71:106|91:143|91:143|166:131,1,150,2|0,0:0|0:0,0:0:0:0:
276,152,52000,1,0,0:0:0:0:
312,45,52300,2,0,P|275:38|238:45,2,75,2|0|0,0:0|0:0|0:0,0:0:0:0:
386,130,53200,1,0,0:0:0:0:
496,108,53500,6,0,L|486:182,2,75,2|0|0,0:0|0:0|0:0,0:0:0:0:
422,23,54400,1,0,0:0:0:0:
386,130,54700,2,0,B|376:204|376:204|344:232|338:275,1,150,2|0,0:0|0:0,0:0:0:0:
450,290,55600,1,0,0:0:0:0:
375,373,55900,38,0,B|335:383|291:379|261:352|243:322|243:322|208:340|170:332,1,225,2|0,0:0|0:0,0:0:0:0:
86,261,57100,2,0,L|83:180,1,75,2|0,0:0|0:0,0:0:0:0:
191,222,57700,1,2,0:0:0:0:
191,222,58000,1,0,0:0:0:0:
287,163,58300,6,0,B|308:131|305:90|305:90|369:127|369:127|366:86|387:54,1,225,2|0,0:0|0:0,0:0:0:0:
486,3,59500,1,0,0:0:0:0:
486,3,59800,1,0,0:0:0:0:
481,116,60100,1,0,0:0:0:0:
481,116,60400,1,0,0:0:0:0:
434,218,60700,38,0,B|449:292|449:292|436:367,2,150,4|0|0,1:1|0:0|0:0,0:0:0:0:
263,294,62500,2,0,P|226:293|187:276,1,75,0|0,0:0|0:0,0:0:0:0:
137,180,63100,6,0,P|70:209|84:282,1,150,2|0,0:0|0:0,0:0:0:0:
191,279,64000,1,0,0:0:0:0:
250,182,64300,2,0,P|245:144|226:109,1,75,2|0,0:0|0:0,0:0:0:0:
319,46,64900,2,0,P|324:84|343:119,1,75,2|0,0:0|0:0,0:0:0:0:
444,162,65500,38,0,P|479:101|431:50,1,150,2|0,0:0|0:0,0:0:0:0:
341,116,66400,1,0,0:0:0:0:
353,228,66700,2,0,B|343:264|343:264|365:325|330:375,1,150,2|0,0:0|0:0,0:0:0:0:
239,308,67600,1,0,0:0:0:0:
149,377,67900,6,0,L|73:369,1,75,2|0,0:0|0:0,0:0:0:0:
27,267,68500,2,0,L|101:259,1,75,2|0,0:0|0:0,0:0:0:0:
53,157,69100,2,0,B|63:82|63:82|88:120|133:129,1,150,2|0,0:0|0:0,0:0:0:0:
292,47,70300,38,0,P|228:9|156:18,1,150,2|0,0:0|0:0,0:0:0:0:
207,119,71200,1,0,0:0:0:0:
292,47,71500,2,0,L|367:59,1,75,2|0,0:0|0:0,0:0:0:0:
424,156,72100,2,0,P|431:193|424:230,1,75
363,324,72700,6,0,B|288:336|288:336|263:368|220:376,1,150,2|0,0:0|0:0,0:0:0:0:
119,339,73600,1,0,0:0:0:0:
202,263,73900,2,0,P|175:239|131:227,1,75,2|0,0:0|0:0,0:0:0:0:
33,267,74500,2,0,P|24:230|31:194,1,75,2|0,0:0|0:0,0:0:0:0:
114,118,75100,38,0,B|108:44|108:44|138:72|178:74,1,150,2|0,0:0|0:0,0:0:0:0:
288,83,76000,1,0,0:0:0:0:
390,38,76300,2,0,B|396:112,1,75,2|0,0:0|0:0,0:0:0:0:
477,191,76900,2,0,B|471:265,1,75,2|0,0:0|0:0,0:0:0:0:
403,356,77500,6,0,B|362:293|362:293|368:219|368:219|295:258|222:219|222:219|228:293|228:293|187:356|187:356,1,450
10,294,79900,5,2,0:0:0:0:
119,266,80200,1,0,0:0:0:0:
119,266,80350,1,0,0:0:0:0:
119,266,80500,2,0,B|113:192,1,75
51,97,81100,1,2,0:0:0:0:
256,192,81400,12,0,84100,0:0:0:0:
10,90,84700,5,2,0:0:0:0:
119,118,85000,1,0,0:0:0:0:
119,118,85150,1,0,0:0:0:0:
119,118,85300,2,0,B|113:192,1,75
51,287,85900,1,2,0:0:0:0:
256,192,86200,12,0,88900,0:0:0:0:
332,168,89500,37,2,0:0:0:0:
393,262,89800,2,0,L|388:308,2,37.5,0|0|0,0:0|0:0|0:0,0:0:0:0:
281,268,90400,1,0,0:0:0:0:
281,268,90700,5,2,0:0:0:0:
187,329,91000,2,0,L|140:324,2,37.5,0|0|0,0:0|0:0|0:0,0:0:0:0:
181,217,91600,1,0,0:0:0:0:
181,217,91900,37,2,0:0:0:0:
120,122,92200,2,0,L|125:76,2,37.5,0|0|0,0:0|0:0|0:0,0:0:0:0:
232,116,92800,1,0,0:0:0:0:
232,116,93100,5,2,0:0:0:0:
326,56,93400,2,0,L|372:61,2,37.5,0|0|0,0:0|0:0|0:0,0:0:0:0:
332,168,94000,1,0,0:0:0:0:
332,168,94300,37,2,0:0:0:0:
393,262,94600,2,0,L|388:308,2,37.5,0|0|0,0:0|0:0|0:0,0:0:0:0:
256,192,95200,12,0,98500,0:0:0:0:
32,182,99100,6,0,L|110:173,1,75,6|0,0:0|0:0,0:0:0:0:
193,101,99700,2,0,L|271:110,1,75,0|0,0:0|0:0,0:0:0:0:
377,85,100300,2,0,B|382:136|382:136|357:177|357:177|362:228,1,150,8|0,0:0|0:0,0:0:0:0:
472,203,101200,1,0,0:0:0:0:
438,310,101500,38,0,P|407:331|369:340,1,75,2|0,0:0|0:0,0:0:0:0:
333,336,101950,1,0,0:0:0:0:
299,321,102100,1,0,0:0:0:0:
250,220,102400,1,0,0:0:0:0:
143,256,102700,2,0,L|130:336,1,75,8|0,0:0|0:0,0:0:0:0:
32,276,103300,2,0,L|19:196,1,75,0|0,0:0|0:0,0:0:0:0:
40,170,103750,1,0,0:0:0:0:
52,134,103900,6,0,B|57:96|36:61|36:61|111:83,1,150,4|0,1:3|0:0,0:0:0:0:
218,68,104800,1,0,0:0:0:0:
218,68,104950,1,0,0:0:0:0:
218,68,105100,2,0,B|223:106|202:141|202:141|277:119,1,150,8|0,0:0|0:0,0:0:0:0:
385,133,106000,1,0,0:0:0:0:
489,176,106300,37,2,0:0:0:0:
489,176,106450,1,0,0:0:0:0:
489,176,106600,1,0,0:0:0:0:
473,65,106900,2,0,P|413:23|340:30,1,150,0|8,0:0|0:0,0:0:0:0:
272,120,107800,1,0,0:0:0:0:
164,88,108100,2,0,L|82:101,1,75,0|0,0:0|0:0,0:0:0:0:
4,173,108700,6,0,B|69:210|69:210|144:199,1,150,4|0,1:3|0:0,0:0:0:0:
252,231,109600,1,0,0:0:0:0:
284,339,109900,2,0,B|330:317|330:317|353:275|353:275|399:253,1,150,8|0,0:0|0:0,0:0:0:0:
434,360,110800,1,0,0:0:0:0:
510,277,111100,37,2,0:0:0:0:
476,170,111400,1,0,0:0:0:0:
476,170,111550,1,0,0:0:0:0:
476,170,111700,2,0,L|486:93,1,75,0|0,0:0|0:0,0:0:0:0:
409,13,112300,1,8,0:0:0:0:
409,13,112600,1,0,0:0:0:0:
375,120,112900,1,0,0:0:0:0:
375,120,113200,1,0,0:0:0:0:
271,164,113500,6,0,B|198:150|198:150|166:175|120:174,1,150,4|0,1:3|0:0,0:0:0:0:
129,61,114400,1,0,0:0:0:0:
31,116,114700,2,0,P|15:154|16:189,1,75,8|0,0:0|0:0,0:0:0:0:
26,223,115150,1,0,0:0:0:0:
48,253,115300,38,0,L|40:336,1,75,0|0,0:0|0:0,0:0:0:0:
144,375,115900,2,0,L|150:300,1,75,2|0,0:0|0:0,0:0:0:0:
242,235,116500,1,0,0:0:0:0:
253,347,116800,1,0,0:0:0:0:
362,371,117100,1,2,0:0:0:0:
420,275,117400,1,0,0:0:0:0:
345,190,117700,5,4,1:3:0:0:
242,235,118000,1,0,0:0:0:0:
242,235,118150,1,0,0:0:0:0:
242,235,118300,2,0,P|232:201|236:162,1,75,0|0,0:0|0:0,0:0:0:0:
315,82,118900,1,8,0:0:0:0:
143,8,119500,2,0,L|63:27,1,75,0|0,0:0|0:0,0:0:0:0:
20,127,120100,38,0,B|15:165|36:198|36:198|27:284,1,150,2|0,0:0|0:0,0:0:0:0:
138,246,121000,1,0,0:0:0:0:
240,294,121300,2,0,B|247:218,1,75,8|0,0:0|0:0,0:0:0:0:
357,246,121900,2,0,B|349:170,1,75,0|0,0:0|0:0,0:0:0:0:
427,90,122500,6,0,P|482:129|459:198,2,150,4|0|8,1:3|0:0|0:0,0:0:0:0:
349,171,124000,1,0,0:0:0:0:
240,144,124300,2,0,B|164:152,1,75,0|0,0:0|0:0,0:0:0:0:
64,103,124900,38,0,B|116:50|116:50|192:42,1,150,2|0,0:0|0:0,0:0:0:0:
165,151,125800,1,0,0:0:0:0:
76,221,126100,2,0,B|138:261|138:261|214:253,1,150,8|0,0:0|0:0,0:0:0:0:
322,222,127000,1,0,0:0:0:0:
393,309,127300,5,4,1:3:0:0:
501,278,127600,1,0,0:0:0:0:
501,278,127750,1,0,0:0:0:0:
501,278,127900,2,0,L|510:195,1,75,0|0,0:0|0:0,0:0:0:0:
464,100,128500,2,0,P|431:85|388:82,1,75,8|0,0:0|0:0,0:0:0:0:
314,161,129100,2,0,P|281:176|238:179,1,75,0|0,0:0|0:0,0:0:0:0:
150,116,129700,37,2,0:0:0:0:
150,116,130000,1,0,0:0:0:0:
251,67,130300,1,0,0:0:0:0:
251,67,130600,1,0,0:0:0:0:
314,161,130900,2,0,L|306:243,1,75,8|0,0:0|0:0,0:0:0:0:
416,209,131500,2,0,L|424:291,1,75,0|0,0:0|0:0,0:0:0:0:
330,346,132100,6,0,B|246:356|205:283|205:283|195:365,1,225,4|0,1:3|0:0,0:0:0:0:
95,307,133300,2,0,B|85:225,1,75,8|0,0:0|0:0,0:0:0:0:
182,173,133900,1,0,0:0:0:0:
182,173,134200,1,0,0:0:0:0:
157,63,134500,38,0,B|208:58|208:58|249:83|249:83|300:78,1,150,2|0,0:0|0:0,0:0:0:0:
387,7,135400,1,0,0:0:0:0:
405,117,135700,1,8,0:0:0:0:
405,117,136000,1,0,0:0:0:0:
497,182,136300,1,0,0:0:0:0:
497,182,136600,1,0,0:0:0:0:
487,294,136900,6,0,P|421:340|341:328,2,150,4|0|8,1:1|0:0|0:0,0:0:0:0:
309,232,138700,2,0,L|228:247,1,75,0|0,0:0|0:0,0:0:0:0:
166,155,139300,38,0,P|95:139|29:171,1,150,2|0,0:0|0:0,0:0:0:0:
1,281,140200,1,0,0:0:0:0:
110,252,140500,2,0,L|90:99,1,150,8|0,0:0|0:0,0:0:0:0:
271,155,141700,6,0,L|419:135,1,150,4|0,1:3|0:0,0:0:0:0:
423,23,142600,1,0,0:0:0:0:
324,76,142900,2,0,P|307:147|339:213,1,150,8|0,0:0|0:0,0:0:0:0:
448,244,143800,1,0,0:0:0:0:
367,323,144100,38,0,L|279:314,1,75,2|0,0:0|0:0,0:0:0:0:
194,371,144700,2,0,L|106:380,1,75
19,327,145300,2,0,P|8:291|11:252,1,75,8|0,0:0|0:0,0:0:0:0:
104,190,145900,2,0,P|115:154|112:115,1,75,0|0,0:0|0:0,0:0:0:0:
35,35,146500,5,4,1:3:0:0:
144,9,146800,1,0,0:0:0:0:
144,9,146950,1,0,0:0:0:0:
144,9,147100,2,0,L|232:18,1,75,0|0,0:0|0:0,0:0:0:0:
290,103,147700,2,0,P|325:116|367:116,1,75,8|0,0:0|0:0,0:0:0:0:
451,47,148300,2,0,P|468:79|475:116,1,75
419,214,148900,38,0,B|410:325|410:325|381:367,1,150,2|0,0:0|0:0,0:0:0:0:
300,286,149800,1,0,0:0:0:0:
194,324,150100,2,0,L|110:315,1,75,8|0,0:0|0:0,0:0:0:0:
72,214,150700,2,0,L|156:205,1,75,0|0,0:0|0:0,0:0:0:0:
247,155,151300,6,0,P|262:80|228:11,1,150,4|0,1:3|0:0,0:0:0:0:
152,94,152200,1,0,0:0:0:0:
247,155,152500,2,0,L|331:164,1,75,8|0,0:0|0:0,0:0:0:0:
417,224,153100,2,0,L|501:214,1,75
467,325,153700,6,0,B|392:333|392:333|333:317|312:262|312:262|287:335|287:335|266:280|207:264|207:264|131:272,1,450
12,128,156100,5,4,1:3:0:0:
119,161,156400,1,0,0:0:0:0:
119,161,156550,1,0,0:0:0:0:
119,161,156700,2,0,L|203:151,1,75
290,95,157300,1,8,0:0:0:0:
256,192,157600,12,0,160300,0:0:0:0:
395,373,160900,37,4,1:3:0:0:
440,269,161200,1,0,0:0:0:0:
440,269,161350,1,0,0:0:0:0:
440,269,161500,2,0,L|365:263,1,75,0|0,0:0|0:0,0:0:0:0:
275,195,162100,2,0,B|337:154|337:154|412:160|412:160|474:119,1,225,8|0,0:0|0:0,0:0:0:0:
488,7,163300,5,2,0:0:0:0:
384,50,163600,1,0,0:0:0:0:
384,50,163750,1,0,0:0:0:0:
384,50,163900,2,0,L|309:44,1,75,0|0,0:0|0:0,0:0:0:0:
214,104,164500,2,0,B|156:122|108:85|108:85|60:48|2:66,1,225,8|0,0:0|0:0,0:0:0:0:
38,173,165700,37,4,1:3:0:0:
3,280,166000,1,0,0:0:0:0:
3,280,166150,1,0,0:0:0:0:
3,280,166300,2,0,L|15:365,1,75,0|0,0:0|0:0,0:0:0:0:
113,302,166900,2,0,B|191:289|251:343|251:343|260:266,1,225,8|0,0:0|0:0,0:0:0:0:
318,171,168100,5,2,0:0:0:0:
407,240,168400,1,0,0:0:0:0:
407,240,168550,1,0,0:0:0:0:
407,240,168700,2,0,L|482:225,1,75,0|0,0:0|0:0,0:0:0:0:
495,114,169300,2,0,B|422:129|422:129|400:78|346:46|290:62,1,225,8|0,0:0|0:0,0:0:0:0:
205,119,170500,37,4,1:3:0:0:
210,231,170800,1,0,0:0:0:0:
210,231,170950,1,0,0:0:0:0:
210,231,171100,2,0,L|201:313,1,75
302,354,171700,6,0,B|311:280|311:280|321:222|374:192|374:192|427:162|437:104|437:104|446:30|446:30|409:72|354:92|304:80,1,525
200,56,174100,5,2,1:3:0:0:
95,88,174400,1,0,0:0:0:0:
137,192,174700,1,4,1:3:0:0:
95,296,175000,1,4,1:3:0:0:
200,327,175300,22,0,B|275:318|275:318|280:355|310:382,2,150,4|0|8,1:1|0:0|0:0,0:0:0:0:
386,299,177100,2,0,P|420:285|448:258,1,75,0|0,0:0|0:0,0:0:0:0:
488,154,177700,38,0,B|494:43|494:43|473:3,1,150,4|0,0:3|0:0,0:0:0:0:
380,68,178600,1,0,0:0:0:0:
272,35,178900,2,0,L|192:44,1,75,8|0,0:0|0:0,0:0:0:0:
104,106,179500,2,0,L|24:97,1,75,0|0,0:0|0:0,0:0:0:0:
55,207,180100,6,0,B|129:215|129:215|193:176,2,150,4|0|8,0:3|0:0|0:0,0:0:0:0:
163,361,181900,1,0,0:0:0:0:
255,297,182200,1,0,0:0:0:0:
356,345,182500,38,0,L|436:336,1,75,4|0,0:3|0:0,0:0:0:0:
479,235,183100,2,0,L|404:226,1,75,0|0,0:0|0:0,0:0:0:0:
455,126,183700,2,0,L|446:46,1,75,8|0,0:0|0:0,0:0:0:0:
345,3,184300,2,0,L|336:83,1,75,0|0,0:0|0:0,0:0:0:0:
244,141,184900,6,0,B|187:166|133:132|133:132|79:98|22:123,1,225,4|0,0:3|0:0,0:0:0:0:
70,225,186100,2,0,L|56:309,2,75,8|0|0,0:0|0:0|0:0,0:0:0:0:
169,279,187000,1,0,0:0:0:0:
276,245,187300,37,4,0:3:0:0:
325,346,187600,1,0,0:0:0:0:
437,355,187900,2,0,L|510:342,1,75,0|0,0:0|0:0,0:0:0:0:
456,244,188500,2,0,P|450:207|456:171,1,75,8|0,0:0|0:0,0:0:0:0:
510,71,189100,2,0,L|436:58,1,75,0|0,0:0|0:0,0:0:0:0:
330,20,189700,6,0,P|299:83|351:131,2,150,4|0|8,0:3|0:0|0:0,0:0:0:0:
256,192,191500,2,0,L|264:266,1,75,0|0,0:0|0:0,0:0:0:0:
156,243,192100,38,0,B|117:239|86:267|86:267|95:193,1,150,4|0,0:3|0:0,0:0:0:0:
166,21,193300,1,8,0:0:0:0:
262,80,193600,1,0,0:0:0:0:
256,192,193900,1,0,0:0:0:0:
250,304,194200,1,0,0:0:0:0:
346,363,194500,6,0,P|420:368|491:341,2,150,4|0|8,1:1|0:0|0:0,0:0:0:0:
392,182,196300,2,0,L|384:108,1,75,0|0,0:0|0:0,0:0:0:0:
313,18,196900,38,0,B|274:83|274:83|282:157,1,150,4|0,0:3|0:0,0:0:0:0:
315,265,197800,1,0,0:0:0:0:
205,239,198100,2,0,P|166:243|130:262,1,75,8|0,0:0|0:0,0:0:0:0:
197,351,198700,2,0,P|163:367|126:370,1,75,0|0,0:0|0:0,0:0:0:0:
33,308,199300,6,0,B|24:233|24:233|65:166,1,150,4|0,0:3|0:0,0:0:0:0:
245,125,200500,2,0,B|320:134|320:134|387:93,1,150,8|0,0:0|0:0,0:0:0:0:
296,25,201400,1,0,0:0:0:0:
184,31,201700,38,0,P|156:56|137:96,1,75,4|0,0:3|0:0,0:0:0:0:
133,126,202150,1,0,0:0:0:0:
140,163,202300,2,0,P|141:200|129:235,1,75,0|0,0:0|0:0,0:0:0:0:
73,334,202900,2,0,L|146:346,1,75,8|0,0:0|0:0,0:0:0:0:
234,276,203500,2,0,L|307:263,1,75,4|0,0:1|0:0,0:0:0:0:
411,302,204100,6,0,B|363:361|363:361|290:374,2,150,4|0|8,0:1|0:0|0:0,0:0:0:0:
300,151,205900,1,0,0:0:0:0:
300,151,206200,1,0,0:0:0:0:
199,100,206500,38,0,B|161:107|161:107|113:65|48:85,1,150,4|0,0:3|0:0,0:0:0:0:
87,192,207400,1,0,0:0:0:0:
57,302,207700,2,0,B|112:319|160:277|160:277|198:284,1,150,8|0,0:0|0:0,0:0:0:0:
381,241,208900,6,0,P|453:247|509:300,1,150,4|0,0:3|0:0,0:0:0:0:
408,351,209800,1,0,0:0:0:0:
381,241,210100,2,0,L|392:160,1,75,8|0,0:0|0:0,0:0:0:0:
297,105,210700,2,0,L|286:24,1,75,0|0,0:0|0:0,0:0:0:0:
187,83,211300,37,4,0:3:0:0:
187,83,211600,1,8,0:3:0:0:
77,61,211900,1,4,0:3:0:0:
77,61,212200,1,0,0:0:0:0:
112,168,212500,1,4,0:3:0:0:
112,168,212800,1,0,0:0:0:0:
2,146,213100,1,4,0:3:0:0:
2,146,213400,1,4,0:3:0:0:
37,253,213700,5,4,1:1:0:0:
147,275,214000,1,0,0:0:0:0:
147,275,214150,1,0,0:0:0:0:
147,275,214300,2,0,L|227:270,1,75,0|0,1:0|0:0,0:0:0:0:
302,191,214900,2,0,P|366:153|444:164,1,150,0|0,0:0|1:0,0:0:0:0:
500,256,215800,1,2,2:0:0:0:
482,367,216100,38,0,P|417:330|388:256,1,150,0|0,0:0|1:0,0:0:0:0:
439,162,217000,1,0,0:0:0:0:
376,69,217300,2,0,P|339:57|299:61,1,75,0|0,0:0|0:0,0:0:0:0:
250,159,217900,2,0,P|214:174|173:173,1,75,0|0,1:0|0:0,0:0:0:0:
88,106,218500,5,0,0:0:0:0:
142,7,218800,1,0,0:0:0:0:
142,7,218950,1,0,0:0:0:0:
142,7,219100,2,0,P|173:30|192:65,1,75,0|0,1:0|0:0,0:0:0:0:
178,174,219700,2,0,B|156:205|118:215|118:215|141:248|186:248,1,150,0|0,0:0|1:0,0:0:0:0:
286,203,220600,1,2,2:0:0:0:
388,248,220900,38,0,B|403:214|393:175|393:175|433:178|456:217,1,150,0|0,0:0|1:0,0:0:0:0:
467,327,221800,1,0,0:0:0:0:
359,357,222100,2,0,L|281:348,1,75,0|0,0:0|0:0,0:0:0:0:
180,304,222700,2,0,L|102:313,1,75,0|0,1:0|0:0,0:0:0:0:
23,236,223300,5,0,0:0:0:0:
48,126,223600,2,0,L|42:82,2,37.5,0|0|0,0:0|0:0|1:0,0:0:0:0:
131,203,224200,1,0,0:0:0:0:
131,203,224500,37,0,0:0:0:0:
156,93,224800,2,0,L|150:49,2,37.5,0|0|0,0:0|0:0|1:0,0:0:0:0:
239,170,225400,1,2,2:0:0:0:
239,170,225700,5,0,0:0:0:0:
322,247,226000,2,0,L|328:291,2,37.5,0|0|0,0:0|0:0|1:0,0:0:0:0:
347,137,226600,1,0,0:0:0:0:
347,137,226900,37,0,0:0:0:0:
430,214,227200,2,0,L|436:258,2,37.5,0|0|0,0:0|0:0|1:0,0:0:0:0:
455,104,227800,1,0,0:0:0:0:
455,104,228100,5,0,0:0:0:0:
373,27,228400,1,0,0:0:0:0:
373,27,228550,1,0,0:0:0:0:
373,27,228700,2,0,B|293:13|247:85|247:85|183:42|183:42|171:83|141:105,1,300,0|0,1:0|0:0,0:0:0:0:
74,13,230200,1,4,2:2:0:0:
31,118,230500,38,0,P|41:154|67:188,1,75,0|0,0:0|0:0,0:0:0:0:
17,286,231100,2,0,P|54:296|91:291,1,75,0|0,1:0|0:0,0:0:0:0:
171,214,231700,1,0,1:0:0:0:
171,214,231850,1,0,1:0:0:0:
171,214,232000,1,0,1:0:0:0:
256,288,232300,1,0,1:0:0:0:
341,214,232600,1,0,1:0:0:0:
341,214,232750,1,0,1:0:0:0:
341,214,232900,6,0,L|349:134,1,75,4|0,1:1|0:0,0:0:0:0:
384,153,233350,1,0,0:0:0:0:
421,155,233500,2,0,P|457:146|487:121,1,75,0|0,1:0|0:0,0:0:0:0:
407,43,234100,38,0,P|372:28|329:28,1,75,0|0,0:0|0:0,0:0:0:0:
300,38,234550,1,0,0:0:0:0:
269,60,234700,2,0,P|236:77|198:81,1,75,0|2,1:0|2:0,0:0:0:0:
92,45,235300,6,0,B|79:84|93:121|93:121|54:116|22:133,1,150,0|0,0:0|1:0,0:0:0:0:
76,232,236200,1,0,0:0:0:0:
22,331,236500,2,0,B|57:349|99:343,1,75,0|0,0:0|0:0,0:0:0:0:
181,272,237100,2,0,B|216:254|258:260,1,75,0|0,1:0|0:0,0:0:0:0:
341,331,237700,38,0,B|364:300|366:261,1,75,0|0,0:0|0:0,0:0:0:0:
361,225,238150,1,0,0:0:0:0:
344,192,238300,2,0,B|349:110,1,75,0|0,1:0|0:0,0:0:0:0:
452,161,238900,6,0,B|457:79,1,75,0|0,0:0|0:0,0:0:0:0:
440,52,239350,1,0,0:0:0:0:
414,25,239500,2,0,P|379:8|337:4,1,75,0|2,1:0|2:0,0:0:0:0:
249,64,240100,38,0,B|211:72|176:56|176:56|187:92|173:131,1,150,0|0,0:0|1:0,0:0:0:0:
68,90,241000,1,0,0:0:0:0:
20,192,241300,2,0,L|13:274,1,75,0|0,0:0|0:0,0:0:0:0:
122,239,241900,2,0,L|129:321,1,75,0|0,1:0|0:0,0:0:0:0:
231,268,242500,5,4,1:1:0:0:
325,329,242800,2,0,L|372:324,2,37.5,0|0|0,0:0|0:0|1:0,0:0:0:0:
331,217,243400,1,0,0:0:0:0:
331,217,243700,37,0,0:0:0:0:
392,122,244000,2,0,L|387:76,2,37.5,0|0|0,0:0|0:0|1:0,0:0:0:0:
280,116,244600,1,2,2:0:0:0:
280,116,244900,5,4,1:1:0:0:
186,56,245200,2,0,L|140:61,2,37.5,0|0|0,0:0|0:0|1:0,0:0:0:0:
180,168,245800,1,0,0:0:0:0:
180,168,246100,37,0,0:0:0:0:
119,262,246400,2,0,L|124:308,2,37.5,0|0|0,0:0|0:0|1:0,0:0:0:0:
231,268,247000,1,0,0:0:0:0:
231,268,247300,5,4,1:1:0:0:
325,329,247600,1,0,0:0:0:0:
325,329,247750,1,0,0:0:0:0:
325,329,247900,2,0,B|341:282|341:282|338:233|338:233|354:186,1,150,0|0,1:0|0:0,0:0:0:0:
448,248,248800,1,0,0:0:0:0:
456,136,249100,2,0,P|433:103|403:83,1,75,0|0,1:0|0:0,0:0:0:0:
292,91,249700,37,0,0:0:0:0:
292,91,250000,1,0,1:0:0:0:
215,173,250300,1,4,0:0:0:0:
215,173,250600,1,4,0:0:0:0:
113,125,250900,1,4,0:0:0:0:
113,125,251200,1,4,0:0:0:0:
127,13,251500,1,4,0:0:0:0:
127,13,251800,1,4,0:0:0:0:
256,192,252100,12,0,256900,0:0:0:0:
