osu file format v9

[General]
AudioFilename: The Islander.mp3
AudioLeadIn: 0
PreviewTime: 98417
Countdown: 0
SampleSet: Soft
StackLeniency: 0.8
Mode: 0
LetterboxInBreaks: 0

[Editor]
Bookmarks: 155193
DistanceSpacing: 0.9
BeatDivisor: 4
GridSize: 4

[Metadata]
Title:The Islander
Artist:Nightwish
Creator:narakucrimson
Version:Easy
Source:
Tags:dark passion play

[Difficulty]
HPDrainRate:2
CircleSize:3
OverallDifficulty:2
ApproachRate:3
SliderMultiplier:1.2
SliderTickRate:1

[Events]
//Background and Video events
Video,11632,"video.avi"
0,0,"bg.png"
//Break Periods
2,116817,123749
2,191817,197677
2,208960,219820
//Storyboard Layer 0 (Background)
//Storyboard Layer 1 (Fail)
//Storyboard Layer 2 (Pass)
//Storyboard Layer 3 (Foreground)
//Storyboard Sound Samples
//Background Colour Transformations
3,100,163,162,255

[TimingPoints]
11618,357.142857142857,3,2,1,80,1,0
99399,-100,3,2,1,60,0,0
125024,-100,3,2,1,80,0,0
199042,-133.333333333333,3,2,1,80,0,0
201707,-133.333333333333,3,2,1,60,0,0
221185,-133.333333333333,3,2,1,10,0,0
221364,-133.333333333333,3,2,1,40,0,0
221542,-133.333333333333,3,2,1,70,0,0
231260,-133.333333333333,3,2,1,75,0,0
232332,-133.333333333333,3,2,1,80,0,0
234475,-100,3,2,1,100,0,1
251617,-100,3,2,1,100,0,0
251721,-100,3,2,1,50,0,0

[Colours]
Combo1 : 233,233,233
Combo2 : 66,72,85
Combo3 : 51,53,117
SliderTrackOverride : 230,225,210
SliderBorder : 240,240,240

[HitObjects]
256,64,28760,5,8
256,336,29475,1,0
160,288,29832,2,0,B|192:224|256:208|320:224|352:288,1,240,2|8
448,336,30903,1,2
448,232,31260,2,0,B|396:116|256:60|116:116|64:232,1,480,0|0
64,336,33046,1,4
256,240,33760,6,0,B|256:120,1,120,8|2
344,184,34475,2,0,B|416:88,1,120,8|8
312,48,35189,2,0,B|288:32|256:24|224:32|200:48,1,120,2|8
96,88,35903,2,0,B|168:184,1,120,8|2
256,380,36975,6,0,B|224:344|288:304|256:268,1,120,8|4
176,200,37689,1,8
200,96,38046,1,8
312,96,38403,1,2
336,200,38760,1,8
424,136,39118,1,8
448,240,39475,2,0,B|396:356|256:412|116:356|64:240,1,480,2|0
144,168,41260,6,0,B|208:144|256:184,1,120,0|2
216,80,41975,2,8,B|216:40|256:40|296:40|296:80,1,120,8|8
256,184,42689,2,0,B|304:143|368:167,1,120,2|8
408,272,43403,1,8
312,312,43760,2,0,B|256:352|200:312,1,120,2|8
104,272,44475,1,8
104,272,44832,1,8
256,120,45546,6,0,B|256:40,2,60,8|0|4
464,48,46618,1,8
416,144,46975,2,0,B|416:184|384:216|336:216|336:216|288:216|256:248|256:288,1,240,2|8
256,288,48046,2,0,B|255:247|223:215|175:215|175:215|127:215|95:183|95:143,1,240,2|8
48,48,49118,1,8
48,264,49832,5,8
136,200,50189,2,0,B|160:136|216:112,1,120,2|8
256,216,50903,1,8
298,112,51260,2,0,B|352:136|376:200,1,120,2|8
480,224,51975,1,8
472,328,52332,2,0,B|424:328|400:296|400:296|368:320|328:344|288:320|256:296|256:296|224:320|184:344|144:320|112:296|112:296|88:328|40:328,1,480,2|8
256,192,54475,12,2,56618
176,312,58760,5,2
336,312,59296,1,2
256,240,59653,2,0,B|256:176,1,60,0|2
328,32,60368,1,0
408,168,60903,6,0,B|368:168|336:184|336:208|336:232|304:248|256:248,1,180,6|2
104,208,61975,2,0,B|144:208|176:192|176:168|176:144|208:128|256:128,1,180,2|2
320,280,63046,6,0,B|304:336|256:352|208:336|192:280,2,180,4|2|0
256,128,64653,1,2
112,56,65189,2,0,B|96:168|184:208,1,180,4|2
24,248,66260,2,0,B|192:316,1,180,0|0
256,164,67332,5,4
400,56,67868,1,2
400,56,68403,2,0,B|416:168|328:208,1,180,2|0
480,264,69475,2,0,B|416:328|312:296,1,180,4|2
336,136,70546,2,0,B|288:128|256:168|256:168|224:128|176:136,1,180,2|2
176,296,71618,6,0,B|224:304|256:264|256:264|288:304|336:296,1,180,4|2
336,136,72689,2,0,B|304:112|256:72|208:112|176:136,1,180,4|0
336,216,73760,2,0,B|288:224|256:184|256:184|224:224|176:216,2,180,4|2|0
256,192,75189,12,0,78046
336,96,79118,5,4
176,96,79653,1,2
312,184,80189,2,0,B|328:232|256:256|184:232|200:184,1,180,2|0
256,336,81260,1,4
416,312,81796,2,0,B|456:200,1,120,2|0
416,160,82332,2,0,B|360:232|248:216,1,180,2|0
176,80,83403,6,0,B|112:97|96:161,1,120,4|0
56,192,83939,2,0,B|96:305|96:305|112:344|128:360,1,180,2|0
256,264,85010,1,2
168,128,85546,2,0,B|256:96|344:128,2,180,4|2|0
256,264,87153,2,0,B|256:328,1,60,2|0
168,264,87689,6,0,B|144:208|176:128|256:96|336:128|368:208|344:264,1,360,4|0
256,232,89117,1,2
256,232,89475,1,2
256,128,89832,2,0,B|216:32|112:48,1,180,4|2
256,128,90903,2,0,B|296:32|400:48,1,180,2|2
312,184,91975,6,0,B|272:272|168:280,1,180,4|0
341,279,93046,2,0,B|240:272|200:184,1,180,4|2
256,32,94117,1,0
176,176,94653,2,0,B|224:160|256:136|256:136|288:160|336:176,1,180,2|4
312,336,95725,6,0,B|360:296,3,60,2|0|0|2
200,336,96796,2,0,B|152:296,3,60,2|0|0|2
226,136,97867,2,0,B|290:136,3,60,2|0|0|2
316,224,98760,2,0,B|196:224,1,120,2|0
256,312,99475,5,4
60,52,100546,1,0
256,312,101617,1,2
452,52,102689,1,0
160,192,103760,6,0,B|144:72|256:16|368:72|352:192,1,360,2|2
256,240,105189,1,0
256,344,105546,1,0
156,300,105903,2,0,B|188:244|256:220|324:244|356:300,1,240,2|0
256,344,106975,2,0,B|256:104,1,240,2|0
256,104,108046,5,4
48,352,109117,1,2
256,104,110189,1,0
464,352,111260,1,2
160,232,112332,6,0,B|144:352|256:408|368:352|352:232,1,360,2|2
256,184,113760,2,0,B|256:64,1,120
256,192,114475,12,4,116617
256,320,125189,5,8
256,48,125903,1,0
352,96,126260,2,0,B|320:160|256:176|192:160|160:96,1,240,2|8
64,48,127332,1,2
64,152,127689,2,0,B|116:268|256:324|396:268|448:152,1,480,0|0
360,88,129475,1,4
152,88,130189,6,0,B|152:208,1,120,8|2
256,176,130903,2,0,B|256:56,1,120,8|8
360,88,131617,2,0,B|360:208,1,120,2|8
312,304,132332,2,0,B|280:308|256:288|256:288|232:308|200:304,1,120,8|2
200,88,133403,2,0,B|232:84|256:104|256:104|280:84|312:88,1,120,8|4
256,240,134296,5,2
256,240,134653,2,0,B|256:304,1,60,0|2
152,328,135189,2,0,B|152:208,1,120
152,104,135903,6,0,B|144:56|216:32|216:32|256:96,1,180,4|2
256,95,136975,2,0,B|296:32|296:32|368:56|360:104,1,180,2|2
320,264,138046,6,0,B|304:208|256:192|208:208|192:264,2,180,4|2|0
256,128,139653,1,2
104,192,140189,2,0,B|96:272|96:272|104:288|104:288|176:328,1,180,4|2
336,328,141260,2,0,B|407:288|407:288|415:272|415:272|407:192,1,180,0|2
256,248,142332,5,4
256,88,142867,1,2
96,88,143403,2,0,B|144:128|144:128|192:168|184:232,1,180,2|0
328,232,144475,2,0,B|320:168|368:128|368:128|416:88,1,180,4|2
256,48,145546,2,0,B|288:112|224:168|256:224,1,180,2|2
360,344,146617,6,0,B|464:296|416:184,1,180,4|2
336,56,147689,2,0,B|288:48|256:88|256:88|224:48|176:56,1,180,4|2
91,196,148760,2,0,B|48:296|152:344,1,180,4|2
256,192,149832,12,0,153046
392,128,154117,5,4
256,40,154653,1,2
320,192,155189,2,2,B|304:240|256:248|256:248|208:240|192:192,1,180,2|2
256,40,156260,1,4
128,136,156796,2,0,B|120:168|104:192|104:192|120:216|128:248,1,120,2|0
184,256,157332,2,0,B|240:184|344:184,1,180,2|0
256,327,158403,6,0,B|328:272|432:304,1,180,4|2
496,152,159475,2,0,B|424:207|320:175,1,180,4|2
256,32,160546,2,0,B|184:87|80:55,2,180,4|2|0
256,144,161975,2,0,B|256:264,1,120,2|2
168,328,162689,6,0,B|144:272|176:192|256:160|336:192|368:272|344:328,1,360,4|0
464,216,164296,1,2
328,128,164832,2,0,B|328:56|256:56|256:56|192:56,1,180,4|2
184,216,165903,2,0,B|183:287|255:287|255:287|319:287,1,180,0|2
456,192,166975,6,0,B|400:120|296:120,1,180,4|0
456,80,168046,2,0,B|368:128|360:224,1,180,4|0
256,344,169117,2,0,B|232:296|280:208|256:168,1,180,2|0
256,24,170189,1,4
256,192,170546,12,2,174475
104,184,175546,6,0,B|208:200|256:112|256:112|304:200|408:184,2,360,2|2|0
408,288,178760,6,0,B|384:344|256:424|128:344|104:288,1,360,2|2
204,244,180189,1,0
308,244,180546,1,0
356,148,180903,2,0,B|324:92|256:68|188:92|156:148,1,240,2|0
156,252,181975,2,0,B|188:308|256:332|324:308|356:252,1,240,2|0
256,204,183046,6,0,B|288:112|408:176|440:72,1,240,4|2
472,176,184117,2,0,B|416:192|344:176|312:104|336:40,1,240,0|2
440,72,185189,6,0,B|408:164|528:152|480:296,1,240,4|2
376,328,186260,2,0,B|368:224|256:168|144:224|136:328,1,360,0|4
296,360,187867,2,0,B|312:300|256:264|200:300|216:360,1,180,2|2
144,288,188760,2,0,B|176:224|240:216,1,120,2|2
256,192,189475,12,4,191617
128,184,199117,6,0,B|192:128|320:256|384:200,1,269.999991953373,2|4
256,96,200903,5,0
192,48,201260,2,0,B|160:80|168:128|192:176|256:176,1,179.999994635582,2|0
336,176,202332,1,4
256,312,203046,1,0
320,360,203403,2,0,B|352:328|344:280|320:232|256:232,1,179.999994635582,2|0
176,240,204475,6,0,B|168:160|256:160|256:88,1,179.999994635582,4|0
255,87,205546,2,0,B|256:160|344:160|336:240,1,179.999994635582,4|0
256,232,206617,1,2
408,176,207332,5,0
456,112,207689,2,2,B|400:32|296:64,1,179.999994635582,2|0
256,136,208760,1,4
256,192,221260,6,8,B|256:144,2,44.9999986588955,8|8|8
152,320,222332,2,0,B|112:240,1,89.9999973177911,0|2
176,192,223046,2,0,B|216:272,1,89.9999973177911,0|0
296,272,223760,2,0,B|336:191,1,89.9999973177911,8|0
400,239,224475,2,0,B|360:320,1,89.9999973177911,0|2
256,192,225546,5,0
256,112,225903,2,0,B|344:80|432:112,1,179.999994635582,4|0
392,184,226975,2,0,B|312:224|296:328,1,179.999994635582,4|0
215,327,228046,2,0,B|200:224|120:184,1,179.999994635582,4|0
104,104,229117,1,2
256,192,230189,12,2,233403
144,192,234475,6,0,B|136:104|256:72|256:72|376:104|368:192,3,360,4|2|0|4
48,128,238760,6,0,B|48:248,1,120,2|0
104,336,239475,1,0
208,344,239832,2,0,B|224:304|288:304|304:344,1,120,2|0
408,336,240546,1,0
336,256,240903,2,0,B|264:240|224:208|200:176|216:144|256:112|296:144|312:176|288:208|248:240|176:256,1,360,4|2
256,56,242689,5,0
200,152,243046,2,0,B|192:216|224:272|312:216|384:240,1,240,4|2
312,152,244117,2,0,B|320:216|288:272|200:216|128:240,1,240,4|2
80,336,245189,2,0,B|216:296|208:336|256:384|304:336|296:296|432:336,1,360,4|2
256,208,246975,5,0
256,104,247332,2,0,B|168:104|120:216|184:280,1,240,4|2
256,208,248403,1,4
256,104,248760,2,0,B|344:104|392:216|328:280,1,240,2|4
256,208,249832,5,0
184,288,250189,1,0
256,368,250546,1,2
328,288,250903,1,8
256,208,251260,1,8
184,288,251617,1,4
256,192,251796,12,2,255903
