osu file format v9

[General]
AudioFilename: Escapist.mp3
AudioLeadIn: 0
PreviewTime: 68469
Countdown: 1
SampleSet: Normal
StackLeniency: 0.7
Mode: 0
LetterboxInBreaks: 1
SkinPreference:Default
EpilepsyWarning: 1

[Editor]
DistanceSpacing: 1.2
BeatDivisor: 1
GridSize: 8

[Metadata]
Title:The Escapist
Artist:Nightwish
Creator:Dragvon
Version:Nightmare
Source:
Tags:dark passion play symphonic metal

[Difficulty]
HPDrainRate:7
CircleSize:5
OverallDifficulty:7
ApproachRate:8
SliderMultiplier:2.1
SliderTickRate:1

[Events]
//Background and Video events
0,0,"Nightwish.jpg"
//Break Periods
2,68741,81125
2,95407,107791
2,148741,151125
2,205408,217583
//Storyboard Layer 0 (Background)
//Storyboard Layer 1 (Fail)
//Storyboard Layer 2 (Pass)
//Storyboard Layer 3 (Foreground)
//Storyboard Sound Samples
//Background Colour Transformations
3,100,128,64,64

[TimingPoints]
41875,416.666666666667,4,1,0,70,1,0
121875,-100,4,1,0,70,0,1
148541,-100,4,1,0,70,0,0
151875,-100,4,2,0,70,0,0
178750,-100,4,1,0,70,0,0
218541,-100,4,1,0,70,0,1
243958,-100,4,1,0,70,0,0
245208,-100,4,1,0,70,0,1
257291,-100,4,1,0,70,0,0
258541,-100,4,1,0,70,0,1
271875,-100,4,1,0,70,0,0
273125,-100,4,1,0,0,0,0

[Colours]
Combo1 : 106,172,191
Combo2 : 0,64,128

[HitObjects]
256,40,41874,5,12
256,40,42083,1,0
256,136,42291,2,0,B|256:248|256:248,1,105
256,344,42708,1,8
256,344,42916,1,0
256,240,43124,2,0,B|256:128|256:128,1,105
152,192,43541,2,8,B|368:192|368:192,3,210,8|0|8|0
464,192,45208,5,8
464,192,45416,1,0
360,192,45624,2,0,B|256:192|256:192,1,105
48,192,46041,1,8
48,192,46249,1,0
152,192,46458,2,0,B|256:192|256:192,1,105
256,88,46874,2,8,B|256:304|256:304,3,210,8|0|8|0
464,336,48541,5,12
464,336,48749,1,0
384,264,48958,2,0,B|304:192|304:192,1,105
256,104,49374,1,8
256,104,49583,1,0
200,192,49791,2,0,B|120:264|120:264,1,105
24,296,50208,2,8,B|24:80|24:80,3,210,8|0|8|0
48,336,51874,5,8
48,336,52083,1,0
128,264,52291,2,0,B|208:192|208:192,1,105
256,104,52708,1,8
256,104,52916,1,0
312,192,53124,2,0,B|392:264|392:264,1,105
488,296,53541,2,8,B|488:80|488:80,1,210
400,32,54166,1,0
312,88,54374,2,8,B|312:304|312:304,1,210
256,192,54999,1,0
256,192,55208,6,0,B|160:120|160:120,1,105,12|0
88,64,55624,1,0
192,56,55833,1,0
296,56,56041,2,0,B|344:16|408:64,2,105,8|0|0
256,152,56666,1,0
256,256,56874,5,8
456,192,57291,1,0
256,120,57708,1,8
56,192,58124,1,0
256,120,58541,6,0,B|352:192|352:192,1,105,12|0
424,320,58958,1,0
320,328,59166,1,0
216,328,59374,2,0,B|168:368|104:320,2,105,8|0|0
256,232,59999,1,0
256,128,60208,5,8
56,192,60624,1,0
256,264,61041,1,8
456,192,61458,1,0
256,120,61874,6,0,B|256:64|200:32|200:32,1,105,12|0
96,80,62291,1,0
40,168,62499,1,0
144,168,62708,1,8
96,264,62916,1,0
184,320,63124,1,0
256,240,63333,1,0
376,192,63541,5,8
256,24,63958,1,0
128,192,64374,1,8
256,352,64791,1,0
256,352,64999,5,0
256,352,65208,2,2,B|256:128|256:128,1,210
336,40,65833,1,0
416,144,66041,2,2,B|416:368|416:368,1,210
256,192,66874,12,4,68541
432,32,81875,5,12
432,136,82083,1,0
328,136,82291,1,0
432,136,82500,1,0
432,240,82708,1,8
328,240,82916,1,0
432,240,83125,1,0
432,360,83333,1,0
328,360,83541,5,8
304,360,83645,1,0
280,360,83750,1,0
208,288,83958,1,8
232,288,84062,1,0
256,288,84166,1,0
328,208,84375,1,8
304,208,84479,1,0
280,208,84583,1,0
176,208,84791,6,8,B|104:160|104:88|184:40,1,210,0|8
304,40,85416,1,0
416,104,85625,1,0
304,168,85833,1,0
416,232,86041,1,8
304,296,86250,1,0
304,168,86458,1,0
200,232,86666,1,0
200,104,86875,5,8
183,87,86979,1,0
166,70,87083,1,0
72,112,87291,1,8
72,136,87395,1,0
72,160,87500,1,0
168,208,87708,1,8
184,191,87812,1,0
201,174,87916,1,0
264,96,88125,6,8,B|320:32|424:104|272:168|320:224|320:224,1,210,0|12
312,336,88750,1,0
184,336,88958,1,0
248,224,89166,1,0
248,352,89375,1,8
144,288,89583,1,0
248,224,89791,1,0
184,336,90000,1,0
128,224,90208,6,0,B|72:240,2,52.5,8|0|0
248,184,90625,2,0,B|304:200,2,52.5,8|0|0
128,144,91041,2,0,B|72:160,2,52.5,8|0|0
256,120,91458,6,8,B|336:200|184:264|272:336,1,210,0|8
376,312,92083,1,0
376,184,92291,1,0
504,184,92500,1,0
376,184,92708,1,8
248,184,92916,1,0
376,184,93125,1,0
376,56,93333,1,0
256,80,93541,6,0,B|200:96,2,52.5,8|0|0
256,208,93958,2,0,B|312:224,2,52.5,8|0|0
256,336,94375,2,0,B|200:352,2,52.5,8|0|0
256,208,94791,2,0,B|256:88,2,105,8|0|4
112,96,108541,6,0,B|24:24,2,105,0|0|8
216,24,109166,1,0
344,24,109375,2,0,B|384:40|384:96|344:104|344:104,1,105
216,104,109791,1,8
64,304,110208,6,0,B|64:240|64:240,2,52.5
128,192,110625,2,0,B|128:256|128:256,2,52.5,8|0|0
192,304,111041,2,0,B|192:240|192:240,2,52.5
256,192,111458,2,0,B|256:256|256:256,2,52.5,8|0|0
320,304,111875,2,0,B|424:320|432:168|304:192|304:192,2,210,0|8|0
360,56,113125,1,8
112,48,113541,5,0
112,48,113645,1,0
112,48,113750,1,0
40,152,113958,1,8
40,152,114062,1,0
40,152,114166,1,0
112,256,114375,1,0
112,256,114479,1,0
112,256,114583,1,0
184,152,114791,1,8
184,152,114895,1,0
184,152,115000,1,0
256,48,115208,6,8,B|336:16|464:80|464:136|456:232|272:264|240:208|240:208,1,420
40,80,116458,1,0
40,336,116875,6,0,B|256:336,1,210,8|0
312,336,117395,1,0
376,336,117500,2,0,B|440:336|464:288|456:240|456:240,1,105,0|8
256,120,118125,1,0
56,280,118541,1,8
256,192,118750,12,0,119791
40,192,120416,5,0
112,88,120625,1,0
184,192,120833,1,0
248,296,121041,1,0
320,192,121250,1,0
384,88,121458,1,0
456,192,121666,1,0
456,192,121770,1,0
456,192,121875,5,4
256,336,122291,1,8
256,208,122500,1,0
256,80,122708,2,0,B|224:24|160:32|96:24|72:88|72:88,1,210,0|8
80,208,123333,1,0
120,328,123541,5,0
160,360,123645,1,0
200,328,123750,1,0
120,232,123958,1,8
160,200,124062,1,0
200,232,124166,1,0
160,288,124375,1,0
160,288,124791,1,8
400,200,125208,6,0,B|400:144|352:64|248:80,1,210,0|8
136,80,125833,1,0
48,192,126041,1,0
48,192,126145,1,0
48,192,126250,1,0
128,288,126458,1,8
384,288,126875,1,0
464,192,127083,1,0
384,96,127291,1,8
256,312,127708,1,4
256,32,128541,5,8
400,240,128958,2,0,B|352:288|472:288|376:344,2,105,0|0|8
256,32,129791,1,0
256,32,130000,1,0
144,96,130208,1,8
128,112,130312,1,0
112,128,130416,1,0
40,232,130625,1,8
256,360,131041,1,8
440,192,131458,6,0,B|496:160|360:160|440:112|440:112,2,105,0|0|8
368,296,132083,1,0
296,192,132291,1,0
296,192,132395,1,0
296,192,132500,1,0
368,88,132708,2,0,B|432:48|456:128|480:80|480:80,2,105,8|0|0
256,312,133541,1,8
256,312,133750,1,0
256,192,133958,12,0,134791
88,48,135208,5,4
96,304,135625,1,8
224,304,135833,1,0
352,304,136041,2,0,B|408:272|400:208|408:144|344:120|344:120,1,210,0|8
256,48,136666,1,0
208,168,136875,5,0
176,208,136979,1,0
208,248,137083,1,0
304,168,137291,1,8
336,208,137395,1,0
304,248,137500,1,0
256,208,137708,1,0
256,208,138125,1,8
48,344,138541,6,0,B|232:368|64:264|248:296|248:296,1,210,0|8
368,296,139166,1,0
440,192,139375,2,0,B|496:192|496:192,2,52.5
368,88,139791,2,0,B|296:80|448:288|216:152|256:240|256:240,1,210,8|0
256,360,140416,1,0
136,312,140625,1,8
32,88,141041,1,4
464,344,141875,6,0,B|504:288|456:240|456:240|448:240,1,105,8|0
336,248,142291,2,0,B|288:296|408:296|312:352,2,105,0|0|8
96,336,143125,1,0
224,336,143333,1,0
136,240,143541,1,8
184,240,143645,1,0
160,200,143750,1,0
160,72,143958,1,8
160,328,144375,1,8
376,192,144791,6,0,B|408:136|408:272|456:192|456:192,2,105,0|0|8
384,320,145416,1,0
256,328,145625,1,0
256,328,145729,1,0
256,328,145833,1,0
128,336,146041,2,0,B|64:296|64:160|144:144|144:144,1,210,8|0
376,136,146875,5,8
376,136,147083,1,0
256,192,147291,12,0,148541
256,40,151875,5,2
192,144,152083,1,0
320,144,152291,1,2
256,360,152708,1,8
120,144,153125,2,0,B|72:200|120:240|120:240,1,105,2|0
256,24,153750,1,0
440,192,154166,1,0
376,80,154375,5,8
344,80,154479,1,0
312,80,154583,1,0
280,80,154687,1,0
256,80,154791,6,0,B|144:80|144:80,3,105,10|0|2|0
136,208,155625,1,2
384,208,156041,1,8
256,80,156458,1,2
256,80,156666,1,0
256,336,157083,1,0
256,336,157291,1,2
256,336,157500,1,0
256,232,157708,5,8
256,208,157812,1,0
256,176,157916,1,0
256,144,158020,1,0
256,120,158124,6,0,B|256:8|256:8,2,105,10|0|6
344,32,158749,1,0
456,96,158958,1,2
456,96,159166,1,0
456,96,159374,2,0,B|328:96|328:96,1,105,6|0
144,152,159791,5,2
144,152,159999,1,0
144,152,160208,2,0,B|256:152|256:152,1,105,6|0
456,240,160624,1,2
456,240,160833,1,0
456,240,161041,2,0,B|336:240|336:240,1,105,6|0
384,360,161458,5,2
384,360,161666,1,0
384,360,161874,2,0,B|280:288|280:288|288:296,1,105,6|0
240,296,162291,1,2
240,296,162499,1,0
240,296,162708,2,0,B|328:224|328:224,1,105,6|0
376,184,163124,1,2
376,184,163333,1,0
376,184,163541,2,0,B|280:104|280:104,1,105,6|0
168,112,163958,6,0,B|40:112|40:112,2,105,2|0|6
256,24,164583,1,0
344,112,164791,2,2,B|416:112,4,52.5,2|2|2|2|6
472,112,165416,5,0
472,240,165624,1,2
224,192,166041,1,8
472,136,166458,2,0,B|520:192|472:232|472:232,1,105,2|0
256,360,167083,1,0
72,192,167499,1,0
136,304,167708,5,8
168,304,167812,1,0
200,304,167916,1,0
232,304,168020,1,0
256,304,168124,6,0,B|368:304|368:304,3,105,10|0|2|0
376,176,168958,1,2
128,176,169374,1,8
256,304,169791,1,2
256,304,169999,1,0
256,48,170416,1,0
256,48,170624,1,2
256,48,170833,1,0
256,152,171041,5,8
256,176,171145,1,0
256,208,171249,1,0
256,240,171354,1,0
256,264,171458,6,0,B|256:376|256:376,2,105,10|0|6
168,352,172083,1,0
56,288,172291,1,2
56,288,172499,1,0
56,288,172708,2,0,B|184:288|184:288,1,105,6|0
368,232,173124,5,2
368,232,173333,1,0
368,232,173541,2,0,B|256:232|256:232,1,105,6|0
56,144,173958,1,2
56,144,174166,1,0
56,144,174374,2,0,B|176:144|176:144,1,105,6|0
128,24,174791,5,2
128,24,174999,1,0
128,24,175208,2,0,B|232:96|232:96|224:88,1,105,6|0
272,88,175624,1,2
272,88,175833,1,0
272,88,176041,2,0,B|184:160|184:160,1,105,6|0
136,200,176458,1,2
136,200,176666,1,0
136,200,176874,2,0,B|232:280|232:280,1,105,6|0
280,96,177291,6,0,B|368:16|368:16,2,105,2|0|6
256,224,177916,1,0
256,352,178124,2,2,B|184:352,4,52.5,2|2|2|2|6
384,352,178749,5,2
400,328,178854,1,0
416,304,178958,1,0
320,224,179166,1,0
256,112,179374,1,2
256,240,179583,1,0
256,112,179791,1,8
136,72,179999,5,0
136,72,180104,1,0
136,72,180208,2,2,B|72:176|136:288|136:288,2,210
256,40,181249,5,0
304,160,181458,1,8
352,40,181666,1,0
400,160,181874,2,0,B|464:192|464:192|400:216|400:216|464:248|464:248,2,210,8|0|8
256,96,183124,1,0
24,184,183541,6,2,B|96:280,1,105,2|0
184,184,183958,2,2,B|112:280,1,105,10|0
104,144,184374,1,2
104,144,184479,1,0
104,144,184583,1,0
104,144,184687,1,0
104,144,184791,1,10
336,40,185208,6,2,B|432:40|480:88|472:144|472:176,1,210,2|2
320,200,185833,1,0
296,40,186041,2,2,B|200:40|152:88|160:144|160:176,1,210,2|2
96,272,186666,1,0
208,336,186874,5,8
208,336,186979,1,0
208,336,187083,1,0
256,216,187291,1,8
256,216,187395,1,0
256,216,187499,1,0
304,336,187708,6,0,B|416:336,2,105,8|0|8
400,248,188333,1,0
296,176,188541,2,0,B|352:248|400:88|512:216|512:216,2,210,8|0|8
72,56,189791,1,0
328,56,190208,1,8
344,56,190312,1,0
360,56,190416,1,0
376,56,190520,1,0
392,56,190624,1,8
128,328,191874,6,0,B|192:360|240:320,2,105,2|0|8
32,248,192499,1,0
112,144,192708,1,2
240,144,192916,1,0
312,248,193124,1,8
416,312,193333,5,0
416,312,193437,1,0
416,312,193541,2,2,B|312:376|200:312|200:312,2,210
416,184,194583,5,0
376,64,194791,1,8
256,32,194999,1,0
136,56,195208,2,8,B|112:80|112:80|144:80|144:80|112:104|112:104|144:104|144:104|112:128|112:128|144:128|144:128|112:152|112:152|144:168|144:168|112:168|112:168|144:184|144:184|112:200|112:200|144:224|144:224,1,420
392,224,196458,1,0
256,16,196874,6,2,B|256:128,1,105,2|0
184,16,197291,2,2,B|184:136,1,105,10|0
112,16,197708,1,2
112,48,197812,1,0
112,80,197916,1,0
112,112,198020,1,0
112,144,198124,1,10
256,352,198541,6,2,B|320:368|400:320|392:224,1,210,2|2
256,192,199166,1,0
136,160,199374,2,0,B|120:96|168:16|264:24,1,210,2|2
384,24,199999,1,0
384,152,200208,6,0,B|440:152|440:152,2,52.5,8|0|0
384,280,200624,2,0,B|320:280|320:280,2,52.5,8|0|0
256,296,201041,6,8,B|256:80|256:80,1,210
136,40,201666,1,0
88,160,201874,2,0,B|144:200|192:152,1,105,8|0
256,56,202291,1,0
384,40,202499,1,0
424,160,202708,2,0,B|368:200|320:152,1,105,8|0
72,160,203333,6,0,B|24:160|24:96|88:88,2,105,0|8|0
72,288,203958,1,8
256,192,204374,12,4,205208
256,304,218333,6,0,B|256:360|256:360,2,52.5,0|0|4
480,192,218958,5,8
392,104,219166,1,0
304,192,219374,2,0,B|336:248|400:240|464:248|488:184|488:184,1,210,0|8
392,104,219999,1,0
256,104,220208,6,0,B|256:48,2,52.5
256,232,220624,2,0,B|256:288|256:288,2,52.5,8|0|0
152,168,221041,1,0
152,168,221458,1,8
368,40,221874,6,0,B|368:152|464:96|440:232|440:232,1,210,0|8
376,336,222499,1,0
256,304,222708,1,0
256,304,222812,1,0
256,304,222916,1,0
136,336,223124,1,8
256,112,223541,1,0
256,240,223749,1,0
256,112,223958,1,8
376,336,224374,1,4
256,32,225208,5,8
256,32,225624,2,0,B|304:80|184:80|280:136,2,105,0|0|8
64,192,226458,1,0
64,192,226666,1,0
192,192,226874,1,8
214,192,226979,1,0
237,192,227083,1,0
256,320,227291,1,8
472,192,227708,1,8
256,80,228124,5,0
144,32,228333,1,0
32,88,228541,1,8
144,144,228749,1,0
256,80,228958,1,0
256,80,229062,1,0
256,80,229166,1,0
376,40,229374,2,0,B|440:80|464:0|488:48|488:48,2,105,8|0|0
256,264,230208,1,8
256,264,230416,1,0
256,192,230624,12,0,231458
256,192,231666,5,0
256,192,231770,1,0
256,192,231874,1,4
464,336,232291,1,8
336,336,232499,1,0
312,216,232708,2,0,B|344:160|408:168|472:160|496:224|496:224,1,210,0|8
400,304,233333,1,0
320,208,233541,6,0,B|376:208,2,52.5
192,208,233958,2,0,B|136:208|136:208,2,52.5,8|0|0
256,312,234374,1,0
256,312,234791,1,8
256,56,235208,6,0,B|144:56|96:144|120:208|120:208,1,210,0|8
120,312,235833,1,0
208,216,236041,1,0
208,216,236145,1,0
208,216,236249,1,0
288,312,236458,2,0,B|440:288|296:192|488:192|488:192,1,210,8|0
448,72,237083,1,0
320,72,237291,1,8
64,72,237708,1,4
480,352,238541,6,0,B|368:352|368:352,1,105,8|0
248,352,238958,2,0,B|176:304|280:248,3,105,0|0|8|0
376,272,239791,1,0
376,272,239999,1,0
376,144,240208,2,0,B|416:96|416:96,2,52.5,8|0|0
248,144,240624,2,8,B|176:136|88:176|120:272|120:272,1,210
256,56,241458,5,0
136,96,241666,1,0
48,192,241874,2,0,B|32:248|80:288|80:288,1,105,8|0
200,320,242291,1,0
200,320,242395,1,0
200,320,242499,1,0
320,288,242708,2,0,B|384:328|408:248|432:296|432:296,2,105,8|0|0
256,48,243541,5,8
256,48,243749,1,0
256,192,243958,12,0,244791
256,192,244999,5,0
256,192,245104,1,0
256,192,245208,1,4
48,336,245624,2,8,B|152:264|152:264,1,105,8|0
152,152,246041,2,0,B|214:135|253:185|304:225|276:287|276:287,1,210,0|8
152,264,246666,1,0
264,320,246874,5,0
296,320,246979,1,0
328,320,247083,1,0
328,192,247291,1,8
296,192,247395,1,0
264,192,247499,1,0
376,256,247708,1,0
216,256,248124,1,8
344,40,248541,6,0,B|456:40|448:184|336:152|336:152,1,210,0|8
232,96,249166,1,0
120,40,249374,1,0
120,40,249479,1,0
120,40,249583,1,0
120,168,249791,2,8,B|336:168|336:168,1,210,8|0
256,272,250416,1,0
384,272,250624,1,8
320,24,251041,1,4
48,48,251874,5,8
256,192,252291,1,0
256,192,252499,1,0
256,192,252708,1,8
464,48,253124,1,0
464,48,253333,1,0
368,128,253541,2,0,B|304:128|304:128,2,52.5,8|0|0
464,216,253958,1,8
256,352,254374,1,8
64,192,254791,6,0,B|64:160|64:160|64:80|64:80,2,105,0|0|8
192,192,255416,1,0
320,192,255624,1,0
320,192,255729,1,0
320,192,255833,1,0
448,192,256041,2,0,B|448:248|448:272|448:304|448:304,2,105,8|0|0
256,32,256874,1,8
256,32,257083,1,0
256,192,257291,12,0,258124
256,192,258333,5,0
256,192,258437,1,0
256,192,258541,2,0,B|200:144|256:64|368:112|336:176|288:216,1,210,8|0
256,192,259374,12,0,264374
256,192,264791,5,0
256,192,264999,1,0
256,192,265208,12,0,273125
