osu file format v9

[General]
AudioFilename: Escapist.mp3
AudioLeadIn: 0
PreviewTime: 68469
Countdown: 1
SampleSet: Normal
StackLeniency: 0.7
Mode: 0
LetterboxInBreaks: 1
SkinPreference:Default
EpilepsyWarning: 1

[Editor]
DistanceSpacing: 0.8
BeatDivisor: 4
GridSize: 8

[Metadata]
Title:The Escapist
Artist:Nightwish
Creator:Dragvon
Version:Night
Source:
Tags:dark passion play symphonic metal

[Difficulty]
HPDrainRate:5
CircleSize:4
OverallDifficulty:5
ApproachRate:5
SliderMultiplier:1.4
SliderTickRate:1

[Events]
//Background and Video events
0,0,"Nightwish.jpg"
//Break Periods
2,68741,80675
2,95407,107341
2,148324,164008
2,205408,217133
//Storyboard Layer 0 (Background)
//Storyboard Layer 1 (Fail)
//Storyboard Layer 2 (Pass)
//Storyboard Layer 3 (Foreground)
//Storyboard Sound Samples
//Background Colour Transformations
3,100,128,64,64

[TimingPoints]
41875,416.666666666667,4,1,0,70,1,0
121893,-100,4,1,0,70,0,1
148559,-100,4,1,0,70,0,0
165208,-100,4,2,0,70,0,0
178541,-100,4,1,0,70,0,0
218559,-100,4,1,0,70,0,1
243976,-100,4,1,0,70,0,0
245226,-100,4,1,0,70,0,1
257309,-100,4,1,0,70,0,0
258559,-100,4,1,0,70,0,1
271875,-100,4,1,0,70,0,0
273125,-100,4,1,0,0,0,0

[Colours]
Combo1 : 106,172,191
Combo2 : 0,64,128

[HitObjects]
448,272,41874,5,12
448,272,42291,2,0,B|448:352|448:352,2,70,0|0|8
368,192,43124,2,0,B|280:192|280:192,1,70
240,192,43541,2,8,B|168:256|240:320|240:320,3,140,8|0|8|0
304,232,45208,5,8
304,232,45624,2,0,B|304:152|304:152,2,70,0|0|8
304,344,46458,2,0,B|216:344|216:344,1,70
176,344,46874,2,8,B|104:280|176:216|176:216,3,140,8|0|8|0
256,144,48541,5,12
256,144,48958,2,0,B|256:64|256:64,2,70,0|0|8
368,144,49791,2,0,B|368:224|368:224,1,70
368,272,50208,2,8,B|304:304|304:304|240:272|240:272,3,140,8|0|8|0
128,264,51874,5,8
128,264,52291,2,0,B|128:344|128:344,2,70,0|0|8
128,152,53124,2,0,B|128:72|128:72,1,70
184,80,53541,2,8,B|248:48|248:48|312:80|312:80,3,140,8|0|8|0
424,72,55208,6,8,B|464:128|424:216|424:216,1,140,12|0
384,240,55833,1,0
384,296,56041,1,8
296,224,56458,1,0
296,224,56666,1,0
296,280,56874,2,0,B|296:352,2,70,8|0|8
240,280,57499,2,0,B|240:160,2,70,0|8|0
184,280,58124,1,0
72,312,58541,6,8,B|32:256|72:168|72:168,1,140,8|0
88,128,59166,1,0
88,72,59374,1,8
168,152,59791,1,0
168,152,59999,1,0
168,96,60208,2,0,B|168:24,2,70,8|0|8
224,96,60833,2,0,B|224:216,2,70,0|8|0
280,96,61458,1,0
424,72,61874,6,8,B|322:173|322:173,1,140,12|0
328,224,62499,2,0,B|328:272|376:264|376:264,3,70,0|8|0|0
288,336,63541,2,0,B|376:336|376:336,5,70,8|0|8|0|8|0
416,336,64791,1,8
416,224,65208,6,2,B|416:176|424:104|352:40|256:32,2,280
256,192,67083,12,4,68541
256,336,81875,5,12
344,264,82291,2,0,B|344:344|344:344,2,70,0|0|8
456,256,83125,2,0,B|456:168|456:168,1,70
456,128,83541,1,8
360,72,83958,1,0
256,32,84375,1,8
152,72,84791,1,0
56,128,85208,5,8
144,200,85625,2,0,B|144:120|144:120,2,70,0|0|8
256,200,86458,2,0,B|256:288|256:288,1,70
256,328,86875,1,8
336,248,87291,1,0
416,328,87708,1,8
496,248,88125,1,0
400,192,88541,5,12
288,192,88958,1,0
232,192,89166,1,0
176,192,89375,1,8
64,192,89791,1,0
64,192,90000,1,0
64,192,90208,6,8,B|160:88|160:88|264:200|264:200|368:88|368:88,1,420
464,104,91875,5,8
464,216,92291,1,0
464,272,92500,1,0
464,328,92708,1,8
352,328,93125,1,0
352,328,93333,1,0
296,328,93541,5,8
216,248,93958,1,0
296,176,94375,1,8
216,96,94791,2,0,B|216:16|216:16,2,70,8|0|4
344,56,108541,6,0,B|432:56|464:136|464:136,2,140,0|8|4
256,128,109791,1,8
120,48,110208,6,0,B|88:88|128:128|128:128,1,70
160,144,110625,2,0,B|192:192|144:224|144:224,1,70,8|0
120,248,111041,2,0,B|88:288|128:328|128:328,2,70,0|0|8
96,136,111875,6,0,B|96:48|16:16|16:16,2,140,0|8|4
192,192,113125,1,8
256,280,113541,5,0
296,320,113750,1,0
336,280,113958,1,8
376,320,114166,1,0
416,280,114375,2,8,B|496:280|496:280,2,70,0|0|8
352,192,115208,6,0,B|288:224|264:160|200:200|200:200,2,140,0|8|4
352,80,116458,1,8
256,32,116875,5,0
256,144,117291,2,0,B|256:200|208:200|208:200,2,70,8|0|0
256,32,118125,1,8
256,192,118541,12,4,120208
256,348,121666,5,0
256,348,121875,2,0,B|256:192|256:192,1,140,8|0
256,96,122708,1,8
312,192,123125,1,0
200,192,123541,1,8
256,96,123958,6,0,B|256:16|256:16,2,70,0|0|8
144,96,124791,1,0
144,96,125000,2,0,B|104:96|88:144|88:144,1,70,0|8
88,248,125625,2,0,B|56:280|16:240,2,70,0|0|8
176,320,126458,2,0,B|224:264|256:368|328:312|328:312,1,140,0|8
360,320,127083,1,0
360,320,127291,1,8
472,320,127708,1,8
472,96,128541,5,8
416,192,128958,2,0,B|352:192|352:144|288:144|288:144|288:136,1,140,0|8
256,32,129791,1,0
160,96,130208,1,8
160,96,130416,1,0
160,96,130625,1,8
80,32,131041,1,12
104,144,131458,6,0,B|16:144|16:144,2,70,0|0|8
216,144,132291,1,0
328,144,132708,1,8
440,144,133125,1,0
440,256,133541,1,8
440,256,133750,1,0
440,256,133958,2,0,B|392:224|368:312|336:296|296:288|296:288,1,140,8|4
448,192,135000,5,0
448,192,135208,2,0,B|384:128|304:208,1,140,8|0
208,192,136041,2,8,B|144:128|64:208,2,140,8|0|8
168,296,137291,6,0,B|88:296|88:296,2,70,0|0|8
280,296,138125,1,0
336,296,138333,2,0,B|376:296|392:248|392:248,1,70,0|8
392,144,138958,2,0,B|360:112|320:152,2,70,0|0|8
296,80,139791,2,0,B|376:32|448:88|448:88,1,140,0|8
464,120,140416,1,0
464,120,140625,1,8
384,192,141041,1,8
160,192,141875,6,0,B|112:192|112:192|112:128|112:128|64:128|64:128,2,140,8|0|8
256,136,143125,1,0
352,192,143541,1,8
352,192,143750,1,0
352,192,143958,1,8
256,256,144375,1,12
256,144,144791,6,0,B|256:64|200:32|176:32,1,140,0|8
72,32,145625,1,0
128,128,146041,1,8
72,224,146458,1,0
136,320,146875,1,8
136,320,147083,1,0
168,280,147291,2,0,B|208:200|299:240|299:240|368:272|416:192,1,280,8|4
400,192,165208,6,0,B|472:192|472:192,2,70,2|0|6
320,112,166041,5,8
256,16,166458,2,0,B|256:112|256:112,1,70,2|0
144,88,167083,2,0,B|144:8,2,70,2|8|0
144,144,167708,2,2,B|56:144,2,70
256,144,168541,6,0,B|336:144|336:144,2,70,2|0|6
256,256,169374,5,8
320,352,169791,2,0,B|400:352|400:352,1,70,2|0
288,304,170416,2,0,B|288:224,2,70,2|8|0
256,352,171041,2,2,B|184:352|184:352,2,70
160,296,171874,5,6
160,296,172083,2,2,B|160:216|160:216,1,70
160,112,172708,1,6
160,112,172916,2,2,B|160:192|160:192,1,70
256,232,173541,5,6
256,232,173749,2,2,B|256:152|256:152,1,70
256,48,174374,1,6
256,48,174583,2,2,B|256:128|256:128,1,70
368,112,175208,6,6,B|368:264,2,140,6|2|6
256,96,176458,1,2
144,112,176874,6,6,B|144:264,2,140,6|2|6
256,96,178124,1,2
232,208,178541,6,2,B|144:272|232:320|232:320,1,140,2|8
284,268,179166,1,0
336,320,179374,2,2,B|424:264|336:208|336:208,1,140,2|8
280,200,179999,1,0
280,144,180208,2,2,B|280:88|208:152|208:152|168:80|168:80,2,140,2|10|2
376,88,181458,5,8
432,88,181666,1,0
488,88,181874,2,2,B|528:272|320:248|320:248,1,280,2|8
256,344,183124,1,0
144,344,183541,2,2,B|88:288|88:288|88:280,1,70,2|0
96,240,183958,2,0,B|152:200|152:200,1,70,10|0
152,144,184374,2,2,B|88:96|88:96,1,70,2|0
96,48,184791,1,10
208,48,185208,6,10,B|440:48|440:48,1,210,8|2
456,72,186041,2,2,B|456:224|456:224,1,140,8|2
432,264,186666,1,0
384,288,186874,1,8
320,192,187291,1,0
256,288,187708,1,8
184,192,188124,5,0
184,192,188333,1,0
128,192,188541,2,0,B|72:128|136:56|136:56,2,140,8|0|8
176,296,189791,1,0
288,296,190208,2,0,B|368:296|368:296,2,70,8|0|8
480,24,191874,6,2,B|480:168|480:168,1,140,2|8
424,168,192499,1,0
368,168,192708,2,2,B|368:16|368:16,1,140,2|8
312,24,193333,1,0
312,80,193541,2,2,B|248:112|248:112|176:80|176:80,2,140,2|10|2
312,192,194791,5,8
256,208,194999,1,0
200,192,195208,2,2,B|144:120|248:40|312:72|368:136|296:224|296:224,1,280,2|8
256,288,196458,1,0
352,336,196874,2,2,B|408:280|408:280,1,70,2|0
352,272,197291,2,0,B|296:216,1,70,10|0
352,200,197708,2,2,B|416:144|416:144,1,70,2|0
352,128,198124,1,10
280,40,198541,6,10,B|176:72|216:192|280:192|280:192,1,210,8|2
336,168,199374,2,2,B|400:152|376:40|320:64,1,140,8|2
280,56,199999,1,0
224,56,200208,1,8
112,56,200624,1,0
40,136,201041,1,8
136,192,201458,5,0
136,192,201666,1,0
136,192,201874,2,0,B|200:248|272:184|272:184,2,140,8|0|8
136,80,203124,1,0
248,80,203541,2,0,B|328:80|328:80,2,70,8|0|8
256,192,204374,12,4,205208
248,352,218333,5,0
248,352,218541,2,0,B|320:276|240:212|240:212,1,140,8|0
176,140,219374,1,8
232,40,219791,1,0
344,40,220208,1,8
400,136,220624,5,0
400,136,220833,1,0
400,136,221041,1,8
400,248,221458,2,0,B|328:288|264:248,1,140,0|8
304,144,222291,2,0,B|336:112|376:152,2,70,0|0|8
208,200,223124,2,0,B|152:248|184:320|280:288|280:288,1,140,0|8
304,288,223749,1,0
360,288,223958,1,8
472,288,224374,1,8
344,104,225208,6,0,B|344:64|344:64|464:64|464:64|464:64,2,140,8|0|8
344,216,226458,2,0,B|344:232|344:232|280:232,2,70,0|0|8
344,160,227083,1,0
344,160,227291,1,8
232,160,227708,1,12
232,48,228124,6,0,B|320:48|320:48,2,70,0|0|8
128,96,228958,1,0
64,192,229374,1,8
136,280,229791,1,0
248,280,230208,1,8
248,280,230416,1,0
248,280,230624,2,0,B|336:288|304:152|216:208|216:208,1,140,8|4
400,128,231666,5,0
400,128,231874,2,0,B|448:192|448:192|376:256|376:256,1,140,8|0
288,232,232708,2,0,B|240:168|240:168|312:104|312:104,1,140,8|0
344,32,233541,1,8
344,144,233958,6,0,B|344:224|344:224,2,70,0|0|8
256,72,234791,2,0,B|256:224,1,140,0|8
224,320,235624,2,0,B|256:352|296:312,2,70,0|0|8
128,264,236458,2,0,B|72:208|96:144|144:136|144:136,1,140,0|8
176,112,237083,1,0
176,112,237291,1,8
256,192,237708,1,8
480,192,238541,5,8
368,192,238958,1,0
312,192,239166,1,0
256,192,239374,1,8
144,192,239791,1,0
144,192,239999,1,0
144,192,240208,1,8
144,192,240416,1,0
144,192,240624,2,8,B|96:128|144:64,1,140,8|12
256,80,241458,6,0,B|288:96|288:128|232:144|232:144,2,70,0|0|8
360,40,242291,1,0
424,128,242708,1,8
360,224,243124,1,0
304,128,243541,1,8
304,128,243749,1,0
248,128,243958,2,0,B|96:128|96:128,1,140,8|4
96,296,244999,5,0
96,296,245208,2,0,B|252:296|252:296,1,140,8|0
240,184,246041,2,0,B|84:184|84:184,1,140,8|0
104,72,246874,1,8
216,72,247291,5,0
272,72,247499,1,0
328,72,247708,1,8
328,184,248124,1,0
272,184,248333,1,0
216,184,248541,1,8
112,232,248958,2,0,B|80:264|120:304,2,70,0|0|8
184,320,249791,2,0,B|264:368|336:312|336:312,1,140,0|8
368,296,250416,1,0
368,296,250624,1,8
432,208,251041,1,8
256,72,251874,6,0,B|208:128|312:160|256:208,2,140,8|0|8
144,72,253124,1,0
104,112,253333,1,0
144,152,253541,1,8
176,192,253749,1,0
144,240,253958,1,8
256,240,254374,1,12
312,144,254791,6,0,B|312:56|312:56,2,70,0|0|8
312,256,255624,1,0
408,192,256041,1,8
408,80,256458,1,0
296,80,256874,1,8
296,80,257083,1,0
296,80,257291,2,0,B|248:48|224:136|192:120|152:112|152:112,1,140,8|4
320,192,258333,5,0
320,192,258541,2,0,B|164:192|164:192,1,140,8|0
256,192,259374,12,0,264374
256,192,265208,12,0,273125
