osu file format v9

[General]
AudioFilename: Escapist.mp3
AudioLeadIn: 0
PreviewTime: 68469
Countdown: 1
SampleSet: Normal
StackLeniency: 0.7
Mode: 0
LetterboxInBreaks: 1
SkinPreference:Default
EpilepsyWarning: 1

[Editor]
DistanceSpacing: 0.8
BeatDivisor: 4
GridSize: 8

[Metadata]
Title:The Escapist
Artist:Nightwish
Creator:Dragvon
Version:Midnight
Source:
Tags:dark passion play symphonic metal

[Difficulty]
HPDrainRate:7
CircleSize:5
OverallDifficulty:7
ApproachRate:7
SliderMultiplier:1.8
SliderTickRate:1

[Events]
//Background and Video events
0,0,"Nightwish.jpg"
//Break Periods
2,68741,80975
2,95408,107641
2,148741,150975
2,205408,217433
//Storyboard Layer 0 (Background)
//Storyboard Layer 1 (Fail)
//Storyboard Layer 2 (Pass)
//Storyboard Layer 3 (Foreground)
//Storyboard Sound Samples
//Background Colour Transformations
3,100,128,64,64

[TimingPoints]
41875,416.666666666667,4,1,0,70,1,0
121875,-100,4,1,0,70,0,1
148541,-100,4,1,0,70,0,0
151875,-100,4,2,0,70,0,0
178750,-100,4,1,0,70,0,0
218541,-100,4,1,0,70,0,1
243958,-100,4,1,0,70,0,0
245208,-100,4,1,0,70,0,1
257291,-100,4,1,0,70,0,0
258541,-100,4,1,0,70,0,1
271875,-100,4,1,0,70,0,0
273125,-100,4,1,0,0,0,0

[Colours]
Combo1 : 106,172,191
Combo2 : 0,64,128

[HitObjects]
128,56,41874,5,12
128,56,42083,2,0,B|32:56|32:56,2,90
128,128,42708,1,8
128,128,42916,2,0,B|224:128|224:128,2,90
128,200,43541,2,8,B|128:320|256:320|256:320,3,180,8|0|8|0
256,176,45208,5,8
256,176,45416,2,0,B|256:72|256:72,2,90
256,248,46041,1,8
256,248,46249,2,0,B|256:352|256:352,2,90
256,176,46874,2,8,B|256:56|384:56|384:56,3,180,8|0|8|0
328,192,48541,5,12
328,192,48749,2,0,B|424:192|424:192,2,90
328,264,49374,1,8
328,264,49583,2,0,B|232:264|232:264,2,90
328,192,50208,2,8,B|272:32|232:192|232:192,3,180,8|0|8|0
232,336,51874,5,8
160,336,52083,1,0
88,336,52291,2,0,B|48:296|96:248,1,90
160,256,52708,1,8
232,256,52916,1,0
304,256,53124,2,0,B|344:216|296:168,1,90
232,176,53541,6,0,B|136:176|136:176|192:112|192:112,1,180,8|0
192,40,54166,1,0
248,80,54374,2,0,B|344:80|344:80|288:144|288:144,1,180,8|0
208,264,55208,6,0,B|304:264|304:264|304:272,3,90,12|0|0|0
296,192,56041,2,0,B|200:192|200:192|200:184,3,90,8|0|0|0
136,192,56874,5,8
136,336,57291,1,0
136,192,57708,1,8
136,336,58124,1,0
136,192,58541,6,0,B|136:96|136:96|144:96,3,90,8|0|0|0
208,104,59374,2,0,B|208:200|208:200|216:200,3,90,8|0|0|0
280,192,60208,5,8
424,192,60624,1,0
280,192,61041,1,8
424,192,61458,1,0
424,48,61874,5,12
424,48,62083,1,0
424,48,62291,1,0
424,48,62499,1,0
352,48,62708,5,8
352,48,62916,1,0
352,48,63124,1,0
352,48,63333,1,0
280,48,63541,5,8
152,120,63958,1,0
256,224,64374,1,8
136,296,64791,1,0
256,224,65208,6,2,B|344:312|424:216|424:216,1,180
416,72,66041,2,2,B|328:-16|248:80|248:80,1,180
256,192,66874,12,4,68541
256,352,81875,5,12
256,352,82083,1,0
296,288,82291,1,0
336,224,82500,1,0
376,160,82708,1,8
376,160,82916,1,0
336,104,83125,1,0
296,48,83333,1,0
224,48,83541,6,0,B|112:48|112:48,1,90,8|0
88,104,83958,2,0,B|192:104|192:104|184:104,1,90,8|0
136,160,84375,2,0,B|32:160|32:160,1,90,8|0
8,216,84791,2,0,B|112:216|112:216,1,90,8|0
168,216,85208,5,8
168,216,85416,1,0
208,280,85625,1,0
248,344,85833,1,0
280,280,86041,1,8
280,280,86250,1,0
320,344,86458,1,0
360,280,86666,1,0
432,280,86875,6,0,B|432:168|432:168,1,90,8|0
432,120,87291,2,0,B|328:120|328:120|336:120,1,90,8|0
344,192,87708,2,0,B|344:296|344:296,1,90,8|0
344,352,88125,2,0,B|240:352|240:352,1,90,8|0
192,352,88541,6,0,B|128:280|128:280,1,90,12|0
88,224,88958,1,0
88,224,89166,1,0
136,176,89375,2,0,B|208:112|208:112,1,90,8|0
256,64,89791,1,0
256,64,90000,1,0
328,64,90208,6,0,B|408:112|408:112,1,90,8|0
464,152,90625,2,0,B|384:232|384:232,1,90,8|0
360,272,91041,2,0,B|464:344|464:344,2,90,8|0|8
256,168,91875,5,8
256,240,92083,1,0
184,248,92291,2,0,B|144:208|192:160,1,90
256,168,92708,1,8
256,240,92916,1,0
328,248,93125,2,0,B|368:208|320:160,1,90
384,128,93541,6,0,B|384:32|384:32|320:88|320:88,1,180,8|8
264,136,94166,1,0
152,128,94375,2,0,B|152:32|152:32|216:88|216:88,1,180,8|8
264,136,95000,5,0
264,136,95208,1,4
472,40,108541,6,0,B|392:112,3,90,0|0|8|0
336,104,109375,2,0,B|336:8|336:8,2,90,0|0|8
208,40,110208,6,0,B|248:88|200:128,1,90
152,168,110625,2,0,B|120:120|152:80,1,90,8|0
208,40,111041,2,0,B|240:88|208:128,1,90,0|0
152,168,111458,2,0,B|112:120|160:80,1,90,8|0
208,136,111875,6,0,B|288:208,3,90,0|0|8|0
328,240,112708,2,0,B|376:264|432:232,2,90,0|0|8
216,144,113541,6,0,B|256:96|208:56,1,90
288,64,113958,2,0,B|256:120|296:152,1,90,8|0
216,144,114375,2,0,B|248:96|208:56,1,90,0|0
288,64,114791,2,0,B|248:112|296:152,1,90,8|0
360,144,115208,6,0,B|432:232|360:320|360:320,2,180,0|8|0
256,240,116458,1,8
256,96,116875,5,0
112,96,117291,1,0
112,96,117500,1,0
168,144,117708,2,0,B|240:176|312:168|352:136|352:136,2,180,0|8|0
256,192,118750,12,0,119791
448,56,120416,6,0,B|384:128|384:128,1,90
312,120,120833,2,0,B|248:48|248:48,1,90
176,56,121250,2,0,B|112:128|112:128,1,90
120,192,121666,2,0,B|120:296|120:296|120:288,1,90,0|4
256,328,122291,5,8
256,256,122500,1,0
328,256,122708,2,0,B|360:352|408:368|432:232|432:232,1,180,0|8
376,200,123333,5,0
424,144,123541,2,0,B|392:48|344:32|320:168|320:168,3,180,0|8|0|8
232,40,125208,6,0,B|144:88|320:128|208:200|208:200,1,180,0|8
144,192,125833,1,0
72,192,126041,1,0
160,304,126458,6,0,B|352:304|352:304,1,180,8|0
416,304,127083,1,0
416,304,127291,1,8
376,168,127708,1,12
112,56,128541,5,8
112,56,128958,2,0,B|112:168|112:168,2,90,0|0|8
224,144,129791,1,0
328,40,130208,1,8
368,104,130416,1,0
288,104,130625,1,8
328,240,131041,1,8
328,96,131458,6,0,B|368:64|304:64|328:16|328:16,2,90,0|0|8
440,192,132291,1,0
440,192,132500,1,0
360,192,132708,2,0,B|264:192|264:192,2,90,8|0|0
216,192,133541,1,8
216,192,133750,1,0
256,192,133958,12,0,134791
256,328,135000,5,0
256,328,135208,2,0,B|368:344|416:264|416:264,1,180,0|8
416,192,135833,1,0
344,192,136041,2,0,B|232:208|184:128|184:128,1,180,0|8
184,56,136666,5,0
256,56,136875,2,8,B|336:48|392:88|368:160|368:160,1,180,0|8
352,248,137500,1,0
256,248,137708,2,8,B|176:256|120:216|144:144|144:144,1,180,0|8
256,56,138541,6,0,B|352:48|424:112|424:112|424:112,1,180,0|8
472,168,139166,1,0
472,240,139375,1,0
352,168,139791,6,0,B|320:144|320:144|256:208|256:208|216:168|216:168,1,180,8|0
216,96,140416,1,0
216,96,140625,1,8
72,96,141041,1,12
256,320,141875,5,8
256,320,142291,2,0,B|208:272|152:336|152:336,2,90,0|0|8
400,320,143125,2,0,B|448:280|392:240,1,90
328,248,143541,2,0,B|288:208|328:168,1,90,8|0
400,168,143958,2,8,B|440:104|344:72|296:112|336:192,1,180
296,304,144791,6,0,B|264:344|216:304|216:304,2,90,0|0|8
256,168,145625,1,0
256,168,145833,1,0
216,232,146041,2,0,B|272:264|312:224|312:224,2,90,8|0|0
256,96,146875,1,8
256,96,147083,1,0
256,192,147291,12,0,148541
96,48,151875,5,2
168,48,152083,1,0
240,48,152291,1,2
256,192,152708,1,8
272,48,153125,1,2
272,48,153333,1,0
416,48,153750,1,0
456,104,153958,1,2
416,160,154166,1,0
456,216,154375,2,2,B|456:264|456:264,4,45,8|2|0|2|8
416,336,155208,5,2
344,336,155416,1,0
272,336,155625,1,2
256,192,156041,1,8
240,336,156458,1,2
240,336,156666,1,0
96,336,157083,1,0
56,280,157291,1,2
96,224,157500,1,0
56,168,157708,2,2,B|56:120|56:120,4,45,8|2|0|2|8
128,40,158541,6,0,B|224:40|224:40,1,90,6|0
288,40,158958,2,0,B|384:40,2,90,2|0|6
288,112,159583,1,0
216,112,159791,2,0,B|120:112,2,90,2|0|6
216,184,160416,5,0
288,184,160624,2,0,B|384:184,2,90,2|0|6
288,256,161249,1,0
216,256,161458,2,0,B|120:256,2,90,2|0|6
216,328,162083,5,0
288,328,162291,2,0,B|384:328,2,90,2|0|6
288,256,162916,1,0
288,184,163124,2,0,B|192:184,2,90,2|0|6
288,112,163749,1,0
216,112,163958,6,0,B|96:112|96:112,2,90,2|0|6
256,48,164583,1,0
288,112,164791,2,2,B|352:112,4,45,2|2|2|2|6
256,176,165416,1,0
256,176,165624,1,2
256,320,166041,5,8
112,320,166458,1,2
112,320,166666,1,0
48,192,167083,1,0
120,192,167291,1,2
192,192,167499,1,0
264,192,167708,2,2,B|312:192|312:192,4,45,8|2|0|2|8
256,48,168541,5,2
256,48,168749,1,0
256,48,168958,1,2
112,48,169374,1,8
256,48,169791,1,2
256,48,169999,1,0
400,48,170416,1,0
400,120,170624,1,2
400,192,170833,1,0
400,264,171041,2,2,B|400:312|400:312,4,45,8|2|0|2|8
280,344,171874,6,0,B|184:344|184:344,1,90,6|0
120,344,172291,2,0,B|24:344,2,90,2|0|6
120,272,172916,1,0
192,272,173124,2,0,B|288:272,2,90,2|0|6
192,200,173749,5,0
120,200,173958,2,0,B|24:200,2,90,2|0|6
120,128,174583,1,0
192,128,174791,2,0,B|288:128,2,90,2|0|6
192,56,175416,5,0
264,56,175624,2,0,B|360:56,2,90,2|0|6
264,128,176249,1,0
344,128,176458,2,0,B|440:128,2,90,2|0|6
336,200,177083,1,0
344,272,177291,6,0,B|464:272|464:272,2,90,2|0|6
296,328,177916,1,0
248,272,178124,2,2,B|184:272,4,45,2|2|2|2|6
320,272,178749,6,2,B|424:272|424:272,1,90,2|0
440,208,179166,1,0
440,136,179374,2,0,B|440:32|440:32,2,90,2|0|8
376,112,179999,1,0
312,80,180208,2,10,B|168:24|272:152|144:72|144:72,2,180,2|10|2
256,216,181458,5,8
256,288,181666,1,0
256,360,181874,2,2,B|152:328|80:256|80:256|192:288|256:216,1,360,2|8
256,96,183124,1,0
384,40,183541,5,2
384,40,183749,1,0
440,80,183958,1,8
440,80,184166,1,0
384,120,184374,1,2
384,120,184583,1,0
440,168,184791,1,10
384,304,185208,6,10,B|112:304|112:304,1,270,8|2
80,240,186041,2,2,B|272:240|272:240,1,180,8|2
336,240,186666,1,0
408,240,186874,1,8
376,96,187291,1,0
376,240,187708,1,8
376,96,188124,5,0
376,96,188333,1,0
304,96,188541,2,0,B|248:168|200:8|112:120|112:120,2,180,8|0|8
416,192,189791,1,0
344,320,190208,1,8
344,320,190416,1,0
344,320,190624,1,8
32,24,191874,6,2,B|136:24|136:24,2,90,2|0|10
56,96,192499,1,0
88,160,192708,2,0,B|192:160|192:160,2,90,2|0|8
120,224,193333,1,0
160,280,193541,2,10,B|224:336|280:336|328:272|328:272,2,180,2|10|2
256,168,194791,5,8
256,96,194999,1,0
256,24,195208,2,2,B|176:24|136:72|112:184|160:256|216:264|256:264,1,360,2|8
400,264,196458,1,0
400,120,196874,6,0,B|328:64,1,90,2|0
288,120,197291,2,0,B|368:184,1,90,8|0
312,232,197708,2,0,B|224:160,2,90,2|0|10
248,360,198541,6,10,B|136:352|104:192|256:192|256:192,1,270,8|2
280,256,199374,2,2,B|352:248|344:112|280:120|280:120,1,180,8|2
216,96,199999,1,0
144,80,200208,1,8
56,192,200624,1,0
144,312,201041,1,8
288,280,201458,5,0
288,352,201666,1,0
288,280,201874,2,0,B|288:184,1,90,8|0
288,120,202291,1,0
288,48,202499,1,0
288,120,202708,2,0,B|288:216,1,90,8|0
400,120,203333,5,0
456,168,203541,1,8
456,240,203749,1,0
400,288,203958,1,8
256,192,204374,12,4,205208
480,192,218333,6,0,B|384:192|384:192,1,90
256,136,218958,1,8
256,64,219166,1,0
184,64,219374,2,0,B|96:80|64:144|72:224|72:224,1,180,0|8
72,264,219999,5,0
144,272,220208,2,0,B|232:280|272:200|256:152|256:152,3,180,0|8|0|8
256,16,221874,6,0,B|344:64|408:96|440:112|440:112,1,180,0|8
480,128,222499,1,0
440,192,222708,1,0
352,304,223124,6,0,B|272:144|272:144,1,180,8|0
224,88,223749,1,0
152,72,223958,1,8
72,192,224374,1,12
312,352,225208,5,8
256,216,225624,2,0,B|256:328|256:328,2,90,0|0|8
304,80,226458,2,0,B|368:80|392:112,1,90
432,160,226874,1,8
480,208,227083,1,0
432,264,227291,1,8
304,192,227708,1,8
256,328,228124,6,0,B|288:288|288:352|336:328|336:328,2,90,0|0|8
112,328,228958,1,0
112,328,229166,1,0
184,312,229374,2,0,B|184:216|184:216,2,90,8|0|0
184,168,230208,1,8
184,168,230416,1,0
256,192,230624,12,0,231458
64,192,231666,5,0
64,192,231874,2,0,B|168:192|256:136|256:136,1,180,0|8
256,80,232499,1,0
281,147,232708,2,0,B|376:192|480:192|480:192,1,180,0|8
456,264,233333,5,0
384,264,233541,2,0,B|248:296|480:368|288:360|288:360,3,180,0|8|0|8
144,360,235208,6,0,B|56:312|232:272|120:200|120:200,1,180,0|8
80,152,235833,1,0
128,96,236041,1,0
256,32,236458,6,0,B|336:64|328:152|256:160|256:160,1,180,8|0
216,96,237083,1,0
216,96,237291,1,8
256,232,237708,1,12
472,40,238541,5,8
472,184,238958,1,0
432,240,239166,1,0
384,184,239374,1,8
296,72,239791,2,0,B|256:16|216:80,1,90
176,128,240208,1,8
128,184,240416,1,0
80,128,240624,1,8
128,264,241041,1,8
256,336,241458,6,0,B|256:144,1,180,0|8
312,288,242291,1,0
312,288,242499,1,0
368,336,242708,2,0,B|368:240|368:240,2,90,8|0|0
368,192,243541,1,8
368,192,243749,1,0
256,192,243958,12,0,244791
256,192,244999,5,0
256,192,245208,2,0,B|224:144|256:80|336:96|344:152|312:176,1,180,0|8
256,192,245833,1,0
256,192,246041,2,0,B|288:240|256:304|176:288|168:232|200:208,1,180,0|8
192,144,246666,5,0
256,112,246874,2,0,B|416:80|424:72|360:136|360:136,3,180,0|8|0|8
248,208,248541,6,0,B|72:312|72:312,1,180,0|8
32,336,249166,1,0
32,264,249374,1,0
160,192,249791,6,0,B|152:48|304:88|304:88,1,180,8|0
344,80,250416,1,0
344,80,250624,1,8
480,32,251041,1,12
480,320,251874,5,8
336,320,252291,2,0,B|224:320|224:320,2,90,0|0|8
408,192,253124,1,0
368,128,253333,1,0
304,88,253541,1,8
240,64,253749,1,0
176,88,253958,1,8
80,192,254374,1,8
152,320,254791,6,0,B|224:320|256:256|256:224|256:192,1,180,0|8
256,56,255624,1,0
256,56,255833,1,0
256,128,256041,2,0,B|256:192|336:184|336:184,2,90,8|0|0
112,136,256874,1,8
112,136,257083,1,0
256,192,257291,12,0,258124
256,192,258333,5,0
240,128,258541,2,0,B|146:153|175:279|270:261|270:261,1,180,8|0
256,192,259374,12,0,264374
256,192,264791,6,0,B|256:296|256:296,1,90
256,192,265208,12,0,273125
