osu file format v14

[General]
AudioFilename: Nightwish - She Is My Sin.mp3
AudioLeadIn: 2000
PreviewTime: 88460
Countdown: 0
SampleSet: Normal
StackLeniency: 0.7
Mode: 0
LetterboxInBreaks: 0
WidescreenStoryboard: 0

[Editor]
Bookmarks: 12752,37881,66110,75520,88077,125710,144531,194721,207268,219815,232363
DistanceSpacing: 1
BeatDivisor: 4
GridSize: 4
TimelineZoom: 1

[Metadata]
Title:She Is My Sin
TitleUnicode:She Is My Sin
Artist:Nightwish
ArtistUnicode:Nightwish
Creator:liangv587
Version:Normal
Source:
Tags:wishmaster tarja
BeatmapID:576149
BeatmapSetID:233875

[Difficulty]
HPDrainRate:4
CircleSize:3
OverallDifficulty:4
ApproachRate:5
SliderMultiplier:1.2
SliderTickRate:1

[Events]
//Background and Video events
0,0,"b1.jpg",0,0
//Break Periods
2,113460,124608
2,182471,193619
2,238928,245753
//Storyboard Layer 0 (Background)
//Storyboard Layer 1 (Fail)
//Storyboard Layer 2 (Pass)
//Storyboard Layer 3 (Foreground)
//Storyboard Sound Samples

[TimingPoints]
327,391.359432485323,4,1,1,70,1,0
12067,380.710659898477,4,1,1,70,1,0
12447,403.225806451613,4,1,1,70,1,0
12850,400,4,1,1,70,1,0
14450,392.106862745098,4,1,1,70,1,0
37976,-100,4,2,2,70,0,0
43661,-100,4,1,1,70,0,0
47288,-100,4,2,2,70,0,0
53072,-100,4,1,1,70,0,0
56699,-100,4,2,2,70,0,0
62483,-100,4,1,1,70,0,0
66110,-100,4,2,2,70,0,0
71893,-100,4,1,1,70,0,0
86597,-100,4,2,0,70,0,0
86793,-100,4,2,1,40,0,0
87381,-100,4,2,0,50,0,0
87773,-100,4,1,0,60,0,0
88166,-100,4,1,2,80,0,1
113260,-100,4,2,2,70,0,0
131493,-100,4,1,1,70,0,0
135120,-100,4,2,2,70,0,0
140904,-100,4,1,1,70,0,0
157176,-100,4,1,2,80,0,1
182271,-100,4,1,1,70,0,0
194819,-100,4,2,1,70,0,0
204131,-100,4,1,1,70,0,0
207268,-100,4,2,1,70,0,0
218247,-100,4,1,1,80,0,0
219913,-80,4,1,2,80,0,1
232461,-100,4,1,1,70,0,0
235598,391.26181936746,4,2,1,70,1,0
235598,-100,4,2,1,70,0,0
237065,-100,4,2,1,50,0,0
238630,-100,4,2,1,30,0,0
239804,-100,4,2,1,10,0,0
246553,400,4,1,1,50,1,0
248153,408.163265306122,4,1,2,80,1,1
248153,-80,4,1,2,80,0,1
248561,384.15306122449,4,1,2,80,1,1
248561,-80,4,1,2,80,0,1
249329,392.003136025088,4,1,2,80,1,1
249329,-80,4,1,2,80,0,1
249721,391.900718484651,4,1,2,80,1,1
249721,-80,4,1,2,80,0,1
273235,-90.9090909090909,4,1,1,70,0,0
277350,-100,4,1,1,70,0,0

[Colours]
Combo1 : 231,152,152
Combo2 : 118,175,80
Combo3 : 234,223,172
Combo4 : 22,160,147

[HitObjects]
193,282,327,6,0,L|217:342,2,60,2|0|2,0:2|0:0|0:2,0:0:0:0:
80,181,2870,6,0,P|137:199|197:204,1,120,2|2,0:2|0:2,0:0:0:0:
255,192,3457,2,0,L|279:252,2,60,2|0|2,0:2|0:0|0:2,0:0:0:0:
143,84,6001,6,0,P|200:102|260:107,1,120,2|2,0:2|0:2,0:0:0:0:
318,95,6588,2,0,L|342:155,2,60,2|0|2,0:2|0:0|0:2,0:0:0:0:
83,144,7762,6,0,P|73:207|78:272,1,120,4|4,0:2|0:2,0:0:0:0:
161,347,8545,2,0,P|223:351|280:342,1,120,2|2,0:2|0:2,0:0:0:0:
360,253,9328,1,4,0:2:0:0:
256,192,9719,1,4,0:2:0:0:
256,192,10110,12,0,12067,0:0:0:0:
332,120,12850,6,0,P|355:169|363:242,1,120,4|8,0:2|0:0,0:0:0:0:
327,282,13450,1,0,0:0:0:0:
275,313,13650,2,0,P|213:314|142:297,1,120,0|8,0:0|0:0,0:0:0:0:
102,192,14450,2,0,L|162:185,2,60,0|0|8,0:0|0:0|0:0,0:0:0:0:
90,133,15038,1,0,0:0:0:0:
79,73,15234,2,0,L|12:52,2,60,0|0|8,0:0|0:0|0:0,0:0:0:0:
197,91,16018,6,0,P|253:84|323:62,1,120,4|8,0:2|0:0,0:0:0:0:
367,38,16606,1,0,0:0:0:0:
420,11,16802,1,0,0:0:0:0:
496,103,17194,1,8,0:0:0:0:
401,177,17586,2,0,P|349:204|281:219,1,120,0|8,0:0|0:0,0:0:0:0:
233,197,18175,1,0,0:0:0:0:
177,176,18371,2,0,L|155:245,2,60,0|0|8,0:0|0:0|0:0,0:0:0:0:
112,74,19155,5,4,0:2:0:0:
50,177,19547,1,8,0:0:0:0:
73,294,19939,1,8,0:0:0:0:
178,350,20331,2,0,L|297:337,1,120,4|4,0:2|0:2,0:0:0:0:
348,229,21115,2,0,L|224:245,1,120,2|2,0:2|0:2,0:0:0:0:
148,155,21900,2,0,L|266:139,1,120,4|4,0:2|0:2,0:0:0:0:
256,192,22684,12,0,24644,0:0:0:0:
326,204,25428,6,0,P|321:144|304:86,1,120,4|8,0:2|0:0,0:0:0:0:
247,65,26017,1,0,0:0:0:0:
193,91,26213,2,0,P|190:160|204:226,1,120,0|8,0:0|0:0,0:0:0:0:
269,307,26997,2,0,L|208:348,2,60,0|0|8,0:0|0:0|0:0,0:0:0:0:
326,323,27585,1,0,0:0:0:0:
384,336,27781,2,0,L|444:331,2,60,0|0|8,0:0|0:0|0:0,0:0:0:0:
350,220,28565,6,0,P|366:160|402:111,1,120,4|8,0:2|0:0,0:0:0:0:
441,70,29154,1,0,0:0:0:0:
489,35,29350,1,0,0:0:0:0:
372,8,29742,1,8,0:0:0:0:
258,45,30134,2,0,L|200:33,2,60,0|0|8,0:0|0:0|0:0,0:0:0:0:
264,104,30722,1,0,0:0:0:0:
266,163,30918,2,0,P|250:223|214:272,1,120,0|8,0:0|0:0,0:0:0:0:
96,269,31702,5,4,0:2:0:0:
20,175,32094,1,8,0:0:0:0:
67,64,32486,1,8,0:0:0:0:
185,85,32879,2,0,P|249:96|315:98,1,120,4|4,0:2|0:2,0:0:0:0:
368,199,33663,2,0,P|304:188|238:186,1,120,2|2,0:2|0:2,0:0:0:0:
160,266,34447,2,0,P|224:277|290:279,1,120,4|4,0:2|0:2,0:0:0:0:
256,192,35231,12,0,37192,0:0:0:0:
238,322,37976,6,0,P|187:331|107:327,1,120,4|0,0:0|1:0,0:0:0:0:
95,274,38564,2,0,P|124:224|182:174,1,120,2|0,0:0|0:0,0:0:0:0:
229,177,39152,2,0,L|297:202,1,60,0|0,1:0|0:0,0:0:0:0:
345,194,39544,2,0,P|389:153|419:101,1,120,2|0,0:0|1:0,0:0:0:0:
368,69,40132,1,0,0:0:0:0:
309,53,40329,2,0,P|249:50|190:60,1,120,2|0,0:0|1:0,0:0:0:0:
134,83,40917,1,0,0:0:0:0:
92,126,41113,6,0,L|96:247,1,120,2|0,0:0|1:0,0:0:0:0:
190,319,41897,1,2,0:0:0:0:
309,316,42289,1,0,1:0:0:0:
415,259,42681,2,0,L|411:138,1,120,2|0,0:0|1:0,0:0:0:0:
303,86,43465,2,0,L|306:207,1,120,2|0,0:0|0:0,0:0:0:0:
239,306,44250,6,0,P|188:347|126:359,1,120,0|8,0:0|0:0,0:0:0:0:
76,349,44838,1,0,0:0:0:0:
40,300,45034,2,0,P|91:259|153:247,1,120,0|8,0:0|0:0,0:0:0:0:
171,134,45818,2,0,L|168:73,2,60,0|8|0,0:0|0:0|0:0,0:0:0:0:
224,160,46406,1,0,0:0:0:0:
275,191,46602,2,0,L|349:186,1,60,8|0,0:0|0:0,0:0:0:0:
345,246,46994,2,0,L|424:248,1,60,0|8,0:0|0:0,0:0:0:0:
456,278,47386,6,0,P|449:213|452:140,1,120,4|0,0:0|1:0,0:0:0:0:
454,98,47975,2,0,P|402:128|340:142,1,120,2|0,0:0|0:0,0:0:0:0:
289,116,48563,2,0,L|227:112,1,60,0|0,1:0|0:0,0:0:0:0:
177,82,48955,2,0,P|184:147|181:220,1,120,2|0,0:0|1:0,0:0:0:0:
155,254,49543,1,0,0:0:0:0:
122,304,49739,2,0,P|182:307|268:294,1,120,2|0,0:0|1:0,0:0:0:0:
354,339,50523,6,0,P|357:276|349:210,1,120,2|0,0:0|1:0,0:0:0:0:
321,167,51111,1,0,0:0:0:0:
290,116,51308,2,0,P|230:113|164:120,1,120,2|0,0:0|1:0,0:0:0:0:
78,195,52092,1,2,0:0:0:0:
123,305,52484,1,0,1:0:0:0:
237,340,52876,2,0,P|242:277|232:222,1,120,2|0,0:0|0:0,0:0:0:0:
171,119,53660,5,0,0:0:0:0:
230,113,53856,1,0,0:0:0:0:
289,108,54052,1,8,0:0:0:0:
404,140,54444,2,0,L|459:110,2,60,0|0|8,0:0|0:0|0:0,0:0:0:0:
364,253,55229,1,0,0:0:0:0:
305,259,55425,1,8,0:0:0:0:
246,264,55621,1,0,0:0:0:0:
129,236,56013,2,0,L|72:268,1,60,8|0,0:0|0:0,0:0:0:0:
60,207,56405,2,0,L|37:134,1,60,0|8,0:0|0:0,0:0:0:0:
92,117,56797,6,0,B|154:80|154:80|206:93,1,120,4|0,0:0|1:0,0:0:0:0:
226,145,57385,2,0,B|272:156|272:156|334:119,1,120,2|0,0:0|0:0,0:0:0:0:
388,92,57973,2,0,L|453:108,1,60,0|0,1:0|0:0,0:0:0:0:
471,160,58365,2,0,P|476:216|466:289,1,120,2|0,0:0|1:0,0:0:0:0:
408,276,58954,2,0,P|349:276|289:291,1,120,2|0,0:0|0:0,0:0:0:0:
239,322,59542,2,0,L|171:305,1,60,0|0,1:0|0:0,0:0:0:0:
124,327,59934,6,0,P|119:271|129:198,1,120,2|0,0:0|1:0,0:0:0:0:
82,167,60522,1,0,0:0:0:0:
35,128,60718,2,0,P|94:117|155:92,1,120,2|0,0:0|1:0,0:0:0:0:
255,38,61502,2,0,P|260:94|250:167,1,120,2|0,0:0|1:0,0:0:0:0:
228,212,62090,1,0,0:0:0:0:
204,267,62287,2,0,P|270:281|322:302,1,120,2|0,0:0|0:0,0:0:0:0:
438,298,63071,6,0,P|464:243|469:173,1,120,0|8,0:0|0:0,0:0:0:0:
460,125,63659,1,0,0:0:0:0:
442,67,63855,2,0,P|379:51|321:58,1,120,0|8,0:0|0:0,0:0:0:0:
258,156,64639,2,0,L|189:136,2,60,0|8|0,0:0|0:0|0:0,0:0:0:0:
299,200,65227,1,0,0:0:0:0:
294,259,65423,2,0,L|249:302,1,60,8|0,0:0|0:0,0:0:0:0:
248,360,65815,2,0,L|177:369,1,60,0|8,0:0|0:0,0:0:0:0:
128,369,66208,6,0,P|115:314|110:246,1,120,4|0,0:0|1:0,0:0:0:0:
55,226,66796,2,0,P|64:164|62:100,1,120,2|0,0:0|0:0,0:0:0:0:
103,62,67384,2,0,L|163:72,1,60,0|0,1:0|0:0,0:0:0:0:
208,33,67776,2,0,P|266:50|330:57,1,120,2|0,0:0|1:0,0:0:0:0:
385,57,68364,1,0,0:0:0:0:
431,94,68560,2,0,P|431:145|414:222,1,120,2|0,0:0|1:0,0:0:0:0:
370,250,69148,1,0,0:0:0:0:
310,256,69344,6,0,P|303:196|306:136,1,120,2|0,0:0|1:0,0:0:0:0:
247,150,69933,2,0,P|192:156|126:151,1,120,2|0,0:0|0:0,0:0:0:0:
71,130,70521,2,0,L|62:195,1,60,0|0,1:0|0:0,0:0:0:0:
54,248,70913,2,0,P|109:242|175:247,1,120,2|0,0:0|1:0,0:0:0:0:
253,336,71697,2,0,P|198:342|132:337,1,120,2|0,0:0|0:0,0:0:0:0:
214,248,72481,5,0,0:0:0:0:
330,275,72873,1,8,0:0:0:0:
419,355,73266,1,8,0:0:0:0:
433,236,73658,2,0,L|510:137,1,120,4|4,0:2|0:2,0:0:0:0:
397,92,74442,2,0,L|320:191,1,120,2|2,0:2|0:2,0:0:0:0:
249,279,75226,2,0,L|196:156,1,120,4|4,0:2|0:2,0:0:0:0:
83,192,76010,6,0,L|136:315,2,120,2|0|2,0:3|0:0|0:3,0:0:0:0:
89,71,77187,1,0,0:0:0:0:
144,47,77383,1,0,0:0:0:0:
198,22,77579,2,0,L|307:77,1,120,2|0,0:3|0:0,0:0:0:0:
358,103,78167,2,0,L|311:160,1,60,0|2,0:0|0:3,0:0:0:0:
237,236,78755,1,0,0:0:0:0:
119,210,79147,6,0,L|172:333,2,120,8|0|8,0:0|0:0|0:0,0:0:0:0:
125,89,80323,1,0,0:0:0:0:
180,65,80520,1,0,0:0:0:0:
234,40,80716,2,0,L|343:95,1,120,8|0,0:0|0:0,0:0:0:0:
394,121,81304,2,0,L|347:178,1,60,0|8,0:0|0:0,0:0:0:0:
273,254,81892,1,0,0:0:0:0:
155,228,82284,6,0,L|208:351,2,120,2|0|2,0:3|0:0|0:3,0:0:0:0:
161,107,83460,1,0,0:0:0:0:
216,83,83656,1,0,0:0:0:0:
270,58,83852,2,0,L|379:113,1,120,2|0,0:3|0:0,0:0:0:0:
430,139,84441,2,0,L|383:196,1,60,0|2,0:0|0:3,0:0:0:0:
309,272,85029,6,0,P|330:299|361:319,2,60,0|8|0,0:0|0:0|0:0,0:0:0:0:
251,289,85617,2,0,L|237:360,2,60,0|8|0,0:0|0:0|0:0,0:0:0:0:
198,260,86205,2,0,P|173:280|137:287,1,60,0|8,0:0|0:0,0:0:0:0:
94,258,86597,2,0,B|96:176|181:127|256:173|256:173|315:211|402:198|448:143|447:70,1,480,4|4,0:0|0:0,0:0:0:0:
326,69,88558,5,2,0:3:0:0:
270,47,88754,2,0,P|206:33|142:43,1,120,0|0,0:0|0:0,0:0:0:0:
97,63,89342,1,2,0:3:0:0:
66,179,89734,2,0,L|5:233,2,60,0|0|2,0:0|0:0|0:3,0:0:0:0:
125,186,90322,2,0,P|121:246|133:305,1,120,0|0,0:0|0:0,0:0:0:0:
191,315,90910,2,0,L|246:261,1,60,2|0,0:3|0:0,0:0:0:0:
276,230,91302,6,0,P|335:224|395:237,1,120,4|2,0:2|0:3,0:0:0:0:
445,268,91891,2,0,P|457:201|455:142,1,120,0|0,0:0|0:0,0:0:0:0:
422,99,92479,1,2,0:3:0:0:
321,33,92871,2,0,P|304:82|316:155,1,120,0|2,0:0|0:3,0:0:0:0:
336,203,93459,1,0,0:0:0:0:
351,261,93655,2,0,P|360:319|342:376,2,120,0|2|4,0:0|0:3|0:2,0:0:0:0:
242,311,94831,5,2,0:3:0:0:
183,325,95027,2,0,P|125:310|79:267,1,120,2|0,0:3|0:0,0:0:0:0:
64,212,95616,1,2,0:3:0:0:
166,149,96008,2,0,P|178:182|180:221,2,60,0|0|2,0:0|0:0|0:3,0:0:0:0:
125,104,96596,2,0,P|186:88|237:59,1,120,2|0,0:3|0:0,0:0:0:0:
290,82,97184,2,0,P|301:107|310:140,1,60,2|0,0:3|0:0,0:0:0:0:
329,195,97576,6,0,P|282:226|200:248,1,120,4|2,0:2|0:3,0:0:0:0:
182,290,98164,2,0,P|248:290|313:302,1,120,2|0,0:3|0:0,0:0:0:0:
343,341,98752,1,2,0:3:0:0:
463,339,99145,2,0,L|473:267,1,60,4|2,0:2|0:3,0:0:0:0:
443,226,99537,2,0,P|418:168|423:108,1,120,2|4,0:3|0:2,0:0:0:0:
462,68,100125,1,0,0:0:0:0:
422,22,100321,2,0,P|369:28|298:57,1,120,2|4,0:3|0:0,0:0:0:0:
314,171,101105,5,2,0:3:0:0:
255,159,101301,2,0,P|211:124|186:65,1,120,0|0,0:0|0:0,0:0:0:0:
226,21,101889,1,2,0:3:0:0:
106,31,102281,2,0,L|28:16,2,60,0|0|2,0:0|0:0|0:3,0:0:0:0:
106,91,102870,2,0,P|79:156|34:198,1,120,0|0,0:0|0:0,0:0:0:0:
27,248,103458,2,0,L|91:260,1,60,2|0,0:3|0:0,0:0:0:0:
129,300,103850,6,0,P|156:235|201:193,1,120,4|2,0:2|0:3,0:0:0:0:
232,243,104438,2,0,P|286:267|353:256,1,120,0|0,0:0|0:0,0:0:0:0:
384,214,105026,1,2,0:3:0:0:
442,109,105418,2,0,P|488:156|503:220,1,120,0|2,0:0|0:3,0:0:0:0:
477,261,106006,1,0,0:0:0:0:
446,313,106203,2,0,P|401:351|342:369,2,120,0|2|4,0:0|0:3|0:2,0:0:0:0:
384,214,107379,5,2,0:3:0:0:
332,184,107575,2,0,P|274:200|212:233,1,120,2|0,0:3|0:0,0:0:0:0:
174,264,108163,1,2,0:3:0:0:
81,340,108555,2,0,P|97:358|133:376,2,60,0|0|2,0:0|0:0|0:3,0:0:0:0:
52,286,109143,2,0,P|56:227|91:168,1,120,2|0,0:3|0:0,0:0:0:0:
131,136,109731,2,0,L|115:68,1,60,2|0,0:3|0:0,0:0:0:0:
171,51,110124,6,0,P|226:61|290:55,1,120,4|2,0:2|0:3,0:0:0:0:
348,69,110712,2,0,P|344:128|309:187,1,120,2|0,0:3|0:0,0:0:0:0:
256,192,111300,1,2,0:3:0:0:
256,192,111692,12,4,113260,0:0:0:0:
420,117,125808,6,0,P|360:91|306:93,1,120,4|0,0:0|1:0,0:0:0:0:
282,147,126396,2,0,P|228:156|168:125,1,120,2|0,0:0|0:0,0:0:0:0:
124,92,126984,2,0,L|59:108,1,60,0|0,1:0|0:0,0:0:0:0:
41,160,127376,2,0,P|36:216|46:289,1,120,2|0,0:0|1:0,0:0:0:0:
104,276,127964,2,0,P|163:276|223:291,1,120,2|0,0:0|0:0,0:0:0:0:
273,322,128553,2,0,L|341:305,1,60,0|0,1:0|0:0,0:0:0:0:
388,327,128945,6,0,P|393:271|383:198,1,120,2|0,0:0|1:0,0:0:0:0:
430,167,129533,1,0,0:0:0:0:
477,128,129729,2,0,P|418:117|357:92,1,120,2|0,0:0|1:0,0:0:0:0:
257,38,130513,2,0,P|252:94|262:167,1,120,2|0,0:0|1:0,0:0:0:0:
284,212,131101,1,0,0:0:0:0:
308,267,131297,2,0,P|242:281|190:302,1,120,2|0,0:0|1:0,0:0:0:0:
73,302,132082,6,0,P|40:246|29:186,1,120
28,132,132670,1,0,0:0:0:0:
46,75,132866,2,0,P|103:63|174:59,1,120
202,171,133650,2,0,L|266:157,2,60,0|8|0,0:0|0:0|0:0,0:0:0:0:
174,224,134238,1,0,0:0:0:0:
194,280,134434,2,0,L|250:302,1,60,8|0,0:0|0:0,0:0:0:0:
264,360,134826,2,0,L|335:369,1,60,0|8,0:0|0:0,0:0:0:0:
384,369,135218,6,0,P|397:314|402:246,1,120,4|0,0:0|1:0,0:0:0:0:
457,226,135807,2,0,P|448:164|450:100,1,120,2|0,0:0|0:0,0:0:0:0:
409,62,136395,2,0,L|349:72,1,60,0|0,1:0|0:0,0:0:0:0:
304,33,136787,2,0,P|246:50|182:57,1,120,2|0,0:0|1:0,0:0:0:0:
127,57,137375,1,2,0:0:0:0:
81,94,137571,2,0,P|81:145|98:222,1,120,0|0,0:0|1:0,0:0:0:0:
142,250,138159,1,0,0:0:0:0:
202,256,138355,6,0,P|209:196|206:136,1,120,2|0,0:0|1:0,0:0:0:0:
265,150,138943,2,0,P|320:156|386:151,1,120,2|0,0:0|0:0,0:0:0:0:
441,130,139532,2,0,L|450:195,1,60,0|0,1:0|0:0,0:0:0:0:
458,248,139924,2,0,P|403:242|337:247,1,120,2|0,0:0|1:0,0:0:0:0:
259,336,140708,2,0,P|314:342|380:337,1,120,2|0,0:0|0:0,0:0:0:0:
298,248,141492,5,0,0:0:0:0:
182,275,141884,1,8,0:0:0:0:
93,355,142276,1,8,0:0:0:0:
79,236,142668,2,0,P|39:177|2:137,1,120,4|4,0:2|0:2,0:0:0:0:
113,83,143453,2,0,P|146:121|189:179,1,120,2|2,0:2|0:2,0:0:0:0:
252,278,144237,2,0,P|295:225|322:167,1,120,4|4,0:2|0:2,0:0:0:0:
432,216,145021,6,0,P|411:266|371:327,2,120,2|0|2,0:3|0:0|0:3,0:0:0:0:
450,97,146197,1,0,0:0:0:0:
404,58,146393,1,0,0:0:0:0:
348,35,146590,2,0,P|287:29|225:34,1,120,2|0,0:3|0:0,0:0:0:0:
170,49,147178,2,0,P|178:78|194:109,1,60,0|2,0:0|0:3,0:0:0:0:
293,167,147766,1,0,0:0:0:0:
385,243,148158,6,0,P|364:293|324:354,2,120,8|0|8,0:0|0:0|0:0,0:0:0:0:
403,124,149334,1,0,0:0:0:0:
357,85,149530,1,0,0:0:0:0:
301,62,149727,2,0,P|240:56|178:61,1,120,8|0,0:0|0:0,0:0:0:0:
123,76,150315,2,0,P|131:105|147:136,1,60,0|8,0:0|0:0,0:0:0:0:
246,194,150903,1,0,0:0:0:0:
339,268,151295,6,0,P|318:318|278:379,2,120,2|0|2,0:3|0:0|0:3,0:0:0:0:
357,149,152471,1,0,0:0:0:0:
311,110,152667,1,0,0:0:0:0:
255,87,152864,2,0,P|194:81|132:86,1,120,2|0,0:3|0:0,0:0:0:0:
77,101,153452,2,0,P|85:130|101:161,1,60,0|2,0:0|0:3,0:0:0:0:
200,219,154040,6,0,L|181:291,2,60,0|8|0,0:0|0:0|0:0,0:0:0:0:
259,220,154628,2,0,L|273:290,2,60,0|8|0,0:0|0:0|0:0,0:0:0:0:
313,195,155216,2,0,L|354:244,2,60,0|8|0,0:0|0:0|0:0,0:0:0:0:
352,149,155804,2,0,B|409:176|409:176|478:156|476:80,1,180,0|0,0:0|0:0,0:0:0:0:
465,31,156588,2,0,B|408:4|408:4|339:24|341:100,1,180,0|4,0:0|0:0,0:0:0:0:
259,177,157569,5,2,0:3:0:0:
203,199,157765,2,0,P|139:213|75:203,1,120,0|0,0:0|0:0,0:0:0:0:
30,183,158353,1,2,0:3:0:0:
61,67,158745,2,0,L|0:13,2,60,0|0|2,0:0|0:0|0:3,0:0:0:0:
118,48,159333,2,0,P|182:34|246:44,1,120,0|0,0:0|0:0,0:0:0:0:
286,71,159921,2,0,L|274:142,1,60,2|0,0:3|0:0,0:0:0:0:
319,171,160313,6,0,P|378:177|438:164,1,120,4|2,0:2|0:3,0:0:0:0:
488,133,160902,2,0,P|500:200|498:259,1,120,0|0,0:0|0:0,0:0:0:0:
465,302,161490,1,2,0:3:0:0:
364,368,161882,2,0,P|347:319|359:246,1,120,0|2,0:0|0:3,0:0:0:0:
379,198,162470,1,0,0:0:0:0:
394,140,162666,2,0,P|403:82|385:25,2,120,0|2|4,0:0|0:3|0:2,0:0:0:0:
283,94,163842,5,2,0:3:0:0:
224,80,164038,2,0,P|166:95|120:138,1,120,2|0,0:3|0:0,0:0:0:0:
105,193,164627,1,2,0:3:0:0:
207,256,165019,2,0,P|219:223|221:184,2,60,0|0|2,0:0|0:0|0:3,0:0:0:0:
179,309,165607,2,0,P|248:327|311:317,1,120,2|0,0:3|0:0,0:0:0:0:
330,273,166195,2,0,P|342:240|344:201,1,60,2|0,0:3|0:0,0:0:0:0:
331,156,166587,6,0,P|271:160|214:143,1,120,4|2,0:2|0:3,0:0:0:0:
173,99,167175,2,0,P|243:87|295:60,1,120,2|0,0:3|0:0,0:0:0:0:
332,27,167763,1,2,0:3:0:0:
448,57,168155,2,0,L|461:129,1,60,4|2,0:2|0:3,0:0:0:0:
432,170,168548,2,0,P|407:228|412:288,1,120,2|4,0:3|0:2,0:0:0:0:
451,328,169136,1,0,0:0:0:0:
411,374,169332,2,0,P|358:368|287:339,1,120,2|4,0:3|0:0,0:0:0:0:
303,225,170116,5,2,0:3:0:0:
244,237,170312,2,0,P|200:272|175:331,1,120,0|0,0:0|0:0,0:0:0:0:
215,375,170900,1,2,0:3:0:0:
95,365,171292,2,0,L|17:380,2,60,0|0|2,0:0|0:0|0:3,0:0:0:0:
95,305,171881,2,0,P|68:240|23:198,1,120,0|0,0:0|0:0,0:0:0:0:
16,148,172469,2,0,L|80:136,1,60,2|0,0:3|0:0,0:0:0:0:
118,96,172861,6,0,P|145:161|190:203,1,120,4|2,0:2|0:3,0:0:0:0:
221,153,173449,2,0,P|275:129|342:140,1,120,0|0,0:0|0:0,0:0:0:0:
373,182,174037,1,2,0:3:0:0:
431,287,174429,2,0,P|477:240|492:176,1,120,0|2,0:0|0:3,0:0:0:0:
466,135,175017,1,0,0:0:0:0:
435,83,175214,2,0,P|390:45|331:27,2,120,0|2|4,0:0|0:3|0:2,0:0:0:0:
373,182,176390,5,2,0:3:0:0:
321,212,176586,2,0,P|263:196|201:163,1,120,2|0,0:3|0:0,0:0:0:0:
163,132,177174,1,2,0:3:0:0:
70,56,177566,2,0,P|86:38|122:20,2,60,0|0|2,0:0|0:0|0:3,0:0:0:0:
41,110,178154,2,0,P|45:169|80:228,1,120,2|0,0:3|0:0,0:0:0:0:
120,260,178742,2,0,L|104:328,1,60,2|0,0:3|0:0,0:0:0:0:
160,345,179135,6,0,P|215:335|279:341,1,120,4|2,0:2|0:3,0:0:0:0:
337,327,179723,2,0,P|333:268|298:209,1,120,2|0,0:3|0:0,0:0:0:0:
245,204,180311,1,2,0:3:0:0:
256,192,180703,12,4,182271,0:0:0:0:
58,108,194819,6,0,P|119:122|168:167,1,120,2|0,0:0|1:0,0:0:0:0:
153,217,195407,1,0,0:0:0:0:
150,276,195603,2,0,P|195:313|254:326,1,120,2|0,0:0|1:0,0:0:0:0:
313,321,196191,1,0,0:0:0:0:
370,302,196387,2,0,P|385:241|368:179,1,120,2|0,0:0|1:0,0:0:0:0:
313,171,196975,1,0,0:0:0:0:
254,159,197171,2,0,P|240:100|253:40,1,120,2|0,0:0|1:0,0:0:0:0:
359,98,197956,6,0,B|441:111|441:111|472:143,1,120,2|0,0:0|1:0,0:0:0:0:
449,195,198544,2,0,B|367:182|367:182|332:203,1,120,0|0,0:0|0:0,0:0:0:0:
337,260,199132,2,0,B|419:273|419:273|450:305,1,120,0|2,1:0|0:0,0:0:0:0:
344,365,199916,2,0,B|262:352|262:352|232:311,1,120,0|2,1:0|0:0,0:0:0:0:
234,202,200700,1,0,1:0:0:0:
228,82,201092,6,0,L|92:120,1,120,2|0,0:0|1:0,0:0:0:0:
71,158,201681,1,0,0:0:0:0:
29,201,201877,1,2,0:0:0:0:
87,305,202269,1,0,1:0:0:0:
129,262,202465,1,0,0:0:0:0:
171,219,202662,2,0,L|286:186,1,120,2|0,0:0|1:0,0:0:0:0:
317,237,203249,1,0,0:0:0:0:
346,289,203445,2,0,L|375:165,1,120,2|0,0:0|1:0,0:0:0:0:
457,86,204229,6,0,B|375:89|375:89|332:67,1,120,0|8,0:0|0:0,0:0:0:0:
287,45,204817,2,0,B|283:132|283:132|260:167,1,120,0|0,0:0|0:0,0:0:0:0:
229,208,205406,2,0,B|147:205|147:205|104:227,1,120,8|0,0:0|0:0,0:0:0:0:
63,331,206190,2,0,B|145:334|145:334|188:312,1,120,8|4,0:3|0:3,0:0:0:0:
297,336,206974,2,0,L|307:265,1,60,8|8,0:0|0:0,0:0:0:0:
358,249,207366,6,0,P|366:197|359:125,1,120,2|0,0:0|1:0,0:0:0:0:
327,79,207954,1,2,0:0:0:0:
270,57,208150,1,2,0:0:0:0:
165,115,208542,2,0,L|102:98,1,60,0|2,1:0|0:0,0:0:0:0:
57,133,208935,2,0,P|49:185|56:257,1,120,2|0,0:0|1:0,0:0:0:0:
97,294,209523,1,2,0:0:0:0:
153,272,209719,2,0,P|216:254|276:259,1,120,2|0,0:0|1:0,0:0:0:0:
327,272,210307,1,2,0:0:0:0:
381,296,210503,6,0,L|396:366,2,60,2|0|0,0:0|0:0|1:0,0:0:0:0:
413,245,211091,1,2,0:0:0:0:
441,191,211287,2,0,L|518:226,2,60,2|0|0,0:0|0:0|1:0,0:0:0:0:
387,164,211875,1,2,0:0:0:0:
377,104,212071,2,0,B|366:47|366:47|329:23,2,90,2|0|2,0:0|0:0|0:0,0:0:0:0:
319,120,212856,2,0,P|253:125|195:109,1,120,2|0,0:0|1:0,0:0:0:0:
100,47,213640,6,0,P|86:101|95:166,1,120,2|0,0:0|1:0,0:0:0:0:
135,207,214228,1,2,0:0:0:0:
191,227,214424,1,2,0:0:0:0:
310,237,214816,2,0,L|305:174,1,60,0|2,1:0|0:0,0:0:0:0:
319,119,215208,2,0,P|382:101|442:106,1,120,2|0,0:0|1:0,0:0:0:0:
477,147,215797,1,2,0:0:0:0:
482,206,215993,2,0,P|477:272|461:329,1,120,2|0,0:0|1:0,0:0:0:0:
405,339,216581,1,2,0:0:0:0:
351,311,216777,6,0,L|355:245,2,60,2|0|0,0:0|0:0|1:0,0:0:0:0:
296,336,217365,1,2,1:2:0:0:
242,308,217561,2,0,L|245:247,2,60,2|0|0,0:0|0:0|1:0,0:0:0:0:
188,334,218149,1,2,1:2:0:0:
135,305,218345,2,0,L|139:235,1,60,2|0,0:2|0:0,0:0:0:0:
78,242,218737,2,0,L|81:180,1,60,0|2,0:0|0:2,0:0:0:0:
69,122,219130,2,0,L|136:126,1,60,2|0,0:2|0:0,0:0:0:0:
150,69,219521,2,0,L|211:72,1,60,0|2,0:0|0:2,0:0:0:0:
279,44,219913,6,0,P|269:121|313:182,1,150,2|2,0:2|0:3,0:0:0:0:
383,179,220502,1,0,0:0:0:0:
455,159,220698,2,0,P|465:82|421:21,1,150,0|2,0:0|0:3,0:0:0:0:
279,44,221482,2,0,P|205:52|121:46,1,150,0|2,0:0|0:3,0:0:0:0:
56,31,222070,2,0,P|64:105|58:189,1,150,0|0,0:0|0:0,0:0:0:0:
47,254,222658,1,2,0:3:0:0:
177,327,223050,6,0,P|181:252|173:177,1,150,0|2,0:0|0:3,0:0:0:0:
248,184,223639,2,0,P|322:188|397:180,1,150,0|0,0:0|0:0,0:0:0:0:
470,163,224227,1,2,0:3:0:0:
449,311,224619,2,0,P|376:325|292:324,1,150,0|2,0:0|0:3,0:0:0:0:
248,184,225403,2,0,P|243:109|251:34,1,150,0|2,0:0|0:3,0:0:0:0:
141,136,226187,6,0,P|132:212|175:274,1,150,0|2,0:0|0:3,0:0:0:0:
244,284,226776,1,0,0:0:0:0:
317,273,226971,2,0,P|356:210|348:136,1,150,0|2,0:0|0:3,0:0:0:0:
447,24,227756,2,0,P|483:94|496:163,1,150,0|2,0:0|0:3,0:0:0:0:
492,238,228344,2,0,P|460:318|417:369,1,150,0|0,0:0|0:0,0:0:0:0:
347,344,228932,1,2,0:3:0:0:
248,230,229324,6,0,P|201:288|175:358,1,150,0|2,0:0|0:3,0:0:0:0:
100,352,229912,2,0,P|64:282|51:213,1,150,0|0,0:0|0:0,0:0:0:0:
62,138,230500,1,2,0:3:0:0:
163,27,230892,2,0,L|313:40,1,150,0|2,0:0|0:3,0:0:0:0:
417,147,231677,2,0,L|267:134,1,150,2|4,0:3|0:2,0:0:0:0:
175,210,232461,6,0,L|244:216,1,60,0|0,0:0|0:0,0:0:0:0:
278,326,233049,2,0,P|329:295|358:230,1,120,4|0,0:2|0:0,0:0:0:0:
353,182,233637,2,0,L|327:125,1,60,8|2,0:0|2:0,0:0:0:0:
217,80,234225,1,0,0:0:0:0:
158,93,234421,2,0,L|186:150,2,60,8|0|4,0:0|0:0|0:3,0:0:0:0:
99,106,235010,2,0,L|74:52,2,60,8|8|8,0:0|0:0|0:0,0:0:0:0:
77,154,235598,6,0,B|37:235|76:265|51:357|51:357|103:269|171:275|231:158|231:158|182:343|251:441|400:353|413:239|380:150,1,960,4|0,0:0|0:0,0:0:0:0:
202,153,246953,6,0,P|192:204|208:279,1,120,8|0,0:0|0:0,0:0:0:0:
309,329,247753,2,0,P|318:277|303:203,1,120,8|4,0:0|0:0,0:0:0:0:
264,73,248561,5,2,0:3:0:0:
196,40,248753,2,0,P|109:52|67:96,1,150,0|0,0:0|0:0,0:0:0:0:
57,167,249329,1,2,0:3:0:0:
36,315,249721,2,0,P|49:355|73:381,2,75,0|0|2,0:0|0:0|0:3,0:0:0:0:
97,273,250308,2,0,P|154:227|168:154,1,150,0|0,0:0|0:0,0:0:0:0:
139,85,250896,2,0,P|162:56|195:40,1,75,2|0,0:3|0:0,0:0:0:0:
263,73,251288,6,0,P|303:135|300:208,1,150,0|2,0:0|0:3,0:0:0:0:
266,276,251876,2,0,P|349:267|414:288,1,150,0|0,0:0|0:0,0:0:0:0:
464,340,252464,1,2,0:3:0:0:
490,192,252856,2,0,P|488:111|463:46,1,150,4|2,0:2|0:3,0:0:0:0:
389,35,253444,1,0,0:0:0:0:
315,22,253640,2,0,B|278:22|249:45|249:45|217:71|173:71,2,150,0|2|4,0:0|0:3|0:0,0:0:0:0:
328,171,254815,5,2,0:3:0:0:
264,210,255011,2,0,P|194:233|113:223,1,150,2|0,0:3|0:0,0:0:0:0:
54,186,255599,1,2,0:3:0:0:
106,45,255991,2,0,P|64:37|29:41,2,75,0|0|0,0:0|0:0|0:3,0:0:0:0:
177,71,256579,2,0,P|236:89|327:82,1,150,2|0,0:3|0:0,0:0:0:0:
394,58,257167,2,0,P|405:97|425:133,1,75,2|0,0:3|0:0,0:0:0:0:
484,167,257559,6,0,P|486:240|461:319,1,150,4|2,0:2|0:3,0:0:0:0:
396,345,258146,2,0,P|337:327|246:334,1,150,2|0,0:3|0:0,0:0:0:0:
179,361,258734,1,2,0:3:0:0:
31,330,259126,2,0,P|22:296|22:249,1,75,4|2,0:2|0:3,0:0:0:0:
96,251,259518,2,0,P|117:179|116:104,1,150,2|4,0:3|0:2,0:0:0:0:
82,37,260106,1,2,0:3:0:0:
157,25,260302,2,0,B|195:29|224:52|224:52|252:74|297:70,1,150,4|4,0:2|0:0,0:0:0:0:
441,28,261086,5,2,0:3:0:0:
429,102,261282,2,0,P|386:175|326:201,1,150,0|0,0:0|0:0,0:0:0:0:
256,179,261869,1,2,0:3:0:0:
109,145,262261,2,0,P|76:145|33:156,2,75,0|0|2,0:0|0:0|0:3,0:0:0:0:
150,207,262849,2,0,B|129:259|73:275|73:275|109:303,1,150,0|0,0:0|0:0,0:0:0:0:
179,324,263437,2,0,P|220:319|257:307,1,75,2|0,0:3|0:0,0:0:0:0:
318,345,263829,6,0,B|373:326|391:265|391:265|409:296,1,150,4|2,0:2|0:3,0:0:0:0:
483,281,264417,2,0,B|499:255|499:255|460:202|474:135,1,150,0|0,0:0|0:0,0:0:0:0:
492,69,265005,1,2,0:3:0:0:
348,25,265397,2,0,B|329:84|362:142|362:142|312:143,1,150,4|2,0:2|0:3,0:0:0:0:
267,178,265984,1,0,0:0:0:0:
200,213,266180,2,0,B|171:213|171:213|204:271|185:330,2,150,0|2|4,0:0|0:3|0:0,0:0:0:0:
69,287,267356,5,2,0:3:0:0:
41,217,267552,2,0,P|77:131|132:100,1,150,2|0,0:3|0:0,0:0:0:0:
198,108,268140,1,2,0:3:0:0:
343,145,268532,2,0,P|348:104|341:65,2,75,0|0|2,0:0|0:0|0:3,0:0:0:0:
300,207,269120,2,0,B|264:235|264:235|252:295|306:335,1,150,2|0,0:3|0:0,0:0:0:0:
368,352,269707,2,0,P|404:331|429:303,1,75,2|0,0:3|0:0,0:0:0:0:
455,237,270099,6,0,B|448:216|431:194|431:194|449:149|443:91,1,150,4|2,0:2|0:3,0:0:0:0:
368,104,270687,2,0,B|314:109|269:91|269:91|247:108|226:115,1,150,2|0,0:3|0:0,0:0:0:0:
150,118,271275,1,2,0:3:0:0:
56,235,271667,2,0,P|109:260|202:255,1,150,4|2,0:2|0:3,0:0:0:0:
333,188,272451,1,4,0:2:0:0:
325,337,272843,1,4,0:2:0:0:
462,277,273235,6,0,P|486:207|478:140,1,132.00000402832,0|2,0:0|0:3,0:0:0:0:
446,78,273822,1,8,0:0:0:0:
369,99,274018,2,0,P|302:109|234:73,1,132.00000402832,0|2,0:0|0:3,0:0:0:0:
185,30,274606,1,8,0:0:0:0:
106,41,274802,2,0,P|82:111|83:179,1,132.00000402832,0|2,0:0|0:3,0:0:0:0:
111,242,275390,1,8,0:0:0:0:
184,211,275586,2,0,P|251:201|317:235,1,132.00000402832,0|2,0:0|0:3,0:0:0:0:
364,282,276174,1,8,0:0:0:0:
311,341,276370,6,0,P|282:352|232:360,2,66.0000020141602,2|2|2,0:2|0:2|0:2,0:0:0:0:
221,76,277545,2,0,P|161:49|94:50,1,120,2|4,0:2|0:2,0:0:0:0:
70,187,278329,2,0,P|130:214|188:215,1,120,2|4,0:2|0:2,0:0:0:0:
304,137,279113,1,4,0:2:0:0:
276,278,279505,5,4,0:0:0:0:
276,278,279701,1,4,0:0:0:0:
