osu file format v14

[General]
AudioFilename: Nightwish - She Is My Sin.mp3
AudioLeadIn: 2000
PreviewTime: 88460
Countdown: 0
SampleSet: Soft
StackLeniency: 0.7
Mode: 0
LetterboxInBreaks: 0
WidescreenStoryboard: 0

[Editor]
Bookmarks: 12752,37881,66110,75520,88077,125710,144531,194721,207268,219815,232363
DistanceSpacing: 1
BeatDivisor: 4
GridSize: 4
TimelineZoom: 1

[Metadata]
Title:She Is My Sin
TitleUnicode:She Is My Sin
Artist:Nightwish
ArtistUnicode:Nightwish
Creator:liangv587
Version:Insane
Source:
Tags:wishmaster tarja
BeatmapID:542640
BeatmapSetID:233875

[Difficulty]
HPDrainRate:6
CircleSize:4
OverallDifficulty:7
ApproachRate:8.6
SliderMultiplier:1.5
SliderTickRate:1

[Events]
//Background and Video events
0,0,"b1.jpg",0,0
//Break Periods
2,126008,134559
2,238928,246294
//Storyboard Layer 0 (Background)
//Storyboard Layer 1 (Fail)
//Storyboard Layer 2 (Pass)
//Storyboard Layer 3 (Foreground)
//Storyboard Sound Samples

[TimingPoints]
327,391.359432485323,4,1,1,70,1,0
12067,380.710659898477,4,1,2,70,1,0
12447,403.225806451613,4,1,2,80,1,0
12850,400,4,1,1,70,1,0
14450,392.106862745098,4,1,1,70,1,0
37976,-100,4,2,2,70,0,0
43563,-100,4,1,1,70,0,0
47288,-100,4,2,2,70,0,0
52974,-100,4,1,1,70,0,0
56699,-100,4,2,2,70,0,0
62385,-100,4,1,1,70,0,0
66110,-100,4,2,2,70,0,0
71795,-100,4,1,1,70,0,0
75520,-133.333333333333,4,1,1,70,0,0
84931,-100,4,1,1,70,0,0
86597,-200,4,2,0,70,0,0
86793,-200,4,2,1,40,0,0
87381,-200,4,2,0,50,0,0
87773,-200,4,1,0,60,0,0
88166,-133.333333333333,4,1,2,80,0,1
113260,-100,4,1,1,70,0,0
135120,-100,4,2,2,70,0,0
140806,-100,4,1,1,70,0,0
144923,-133.333333333333,4,1,1,70,0,0
153942,-100,4,1,1,70,0,0
157176,-133.333333333333,4,1,2,80,0,1
182271,-100,4,1,1,70,0,0
194819,-100,4,2,1,70,0,0
204131,-100,4,1,1,70,0,0
207268,-100,4,2,1,70,0,0
218345,-80,4,1,1,80,0,0
219913,-80,4,1,2,80,0,1
232461,-100,4,1,1,70,0,0
235598,391.26181936746,4,2,1,70,1,0
235598,-166.666666666667,4,2,1,70,0,0
237065,-166.666666666667,4,2,1,30,0,0
238043,-166.666666666667,4,2,1,10,0,0
246553,400,4,1,1,50,1,0
248153,408.163265306122,4,1,1,80,1,1
248153,-66.6666666666667,4,1,1,80,0,1
248561,384.15306122449,4,1,2,80,1,1
248561,-66.6666666666667,4,1,2,80,0,1
249329,392.003136025088,4,1,2,80,1,1
249329,-66.6666666666667,4,1,2,80,0,1
249721,391.900718484651,4,1,2,80,1,1
249721,-66.6666666666667,4,1,2,80,0,1
273235,-80,4,1,1,70,0,0

[Colours]
Combo1 : 231,152,152
Combo2 : 118,175,80
Combo3 : 234,223,172
Combo4 : 22,160,147

[HitObjects]
184,168,327,6,0,L|212:244,1,75,2|0,0:2|0:0,0:0:0:0:
240,316,718,1,2,0:2:0:0:
184,76,2870,5,2,0:2:0:0:
184,76,3262,1,2,0:2:0:0:
212,152,3457,6,0,L|242:235,1,75,2|0,0:2|0:0,0:0:0:0:
272,300,3849,1,2,0:2:0:0:
212,56,6001,5,2,0:2:0:0:
212,56,6393,1,2,0:2:0:0:
240,132,6588,6,0,L|272:212,1,75,2|0,0:2|0:0,0:0:0:0:
303,279,6980,2,0,P|247:364|128:344,1,225,0|2,0:0|2:0,0:0:0:0:
100,276,7762,5,4,0:2:0:0:
412,232,8154,1,4,0:2:0:0:
100,188,8545,1,2,0:2:0:0:
412,148,8936,1,2,0:2:0:0:
100,104,9328,1,4,0:2:0:0:
412,64,9719,1,4,0:2:0:0:
144,40,10110,5,0,0:0:0:0:
72,60,10306,1,0,0:0:0:0:
164,64,10502,1,0,0:0:0:0:
104,140,10698,1,0,0:0:0:0:
212,88,10893,1,0,0:0:0:0:
184,204,11089,1,0,0:0:0:0:
280,92,11285,1,0,0:0:0:0:
293,240,11480,1,0,0:0:0:0:
352,68,11676,6,0,L|360:152,1,75
412,251,12067,1,0,0:0:0:0:
412,251,12162,2,0,B|413:214|413:214|433:180,1,75
478,187,12447,2,0,B|492:220|492:220|486:260,1,75
308,336,12850,6,0,L|396:356,2,75,4|0|8,0:2|0:0|0:0,0:0:0:0:
216,320,13450,1,0,0:0:0:0:
116,232,13650,2,0,L|28:256,2,75,0|0|8,0:0|0:0|0:0,0:0:0:0:
224,204,14250,1,0,0:0:0:0:
288,40,14450,5,0,0:0:0:0:
156,128,14646,1,0,0:0:0:0:
184,124,14744,1,0,0:0:0:0:
212,120,14842,1,8,0:0:0:0:
240,116,14940,1,0,0:0:0:0:
268,112,15038,2,0,L|340:172,1,75,0|0,0:0|0:0,0:0:0:0:
332,188,15332,5,0,0:0:0:0:
340,216,15430,1,0,0:0:0:0:
348,244,15528,1,0,0:0:0:0:
356,272,15626,2,0,L|428:228,1,75,8|0,0:0|0:0,0:0:0:0:
448,240,15920,1,0,0:0:0:0:
476,248,16018,6,0,L|456:328,2,75,4|0|8,0:2|0:0|0:0,0:0:0:0:
504,160,16606,1,0,0:0:0:0:
360,128,16802,2,0,L|380:204,2,75,0|0|8,0:0|0:0|0:0,0:0:0:0:
324,20,17390,1,0,0:0:0:0:
176,32,17586,5,0,0:0:0:0:
196,52,17684,1,0,0:0:0:0:
216,72,17782,1,0,0:0:0:0:
236,92,17880,1,0,0:0:0:0:
256,112,17978,2,0,L|220:184,1,75,8|0,0:0|0:0,0:0:0:0:
192,184,18273,5,0,0:0:0:0:
164,188,18371,1,0,0:0:0:0:
136,192,18469,1,0,0:0:0:0:
108,196,18567,2,0,L|148:268,1,75,0|8,0:0|0:0,0:0:0:0:
132,288,18861,1,0,0:0:0:0:
116,316,18959,1,0,0:0:0:0:
100,344,19057,1,0,0:0:0:0:
84,372,19155,5,4,0:2:0:0:
304,252,19547,1,8,0:0:0:0:
88,88,19939,1,8,0:0:0:0:
244,320,20331,1,4,0:2:0:0:
328,348,20527,1,0,0:0:0:0:
416,332,20723,6,0,L|424:220,1,112.5,4|0,0:2|2:0,0:0:0:0:
384,244,21115,2,0,L|360:124,1,112.5,2|0,0:2|2:0,0:0:0:0:
328,192,21507,2,0,L|280:72,1,112.5,2|0,0:2|2:0,0:0:0:0:
260,156,21900,2,0,L|192:52,1,112.5,4|0,0:2|2:0,0:0:0:0:
152,60,22292,5,4,0:2:0:0:
92,128,22488,1,0,0:0:0:0:
172,168,22684,1,0,0:0:0:0:
156,80,22880,1,0,0:0:0:0:
80,204,23076,1,0,0:0:0:0:
220,224,23272,1,0,0:0:0:0:
160,116,23468,1,0,0:0:0:0:
96,284,23664,1,0,0:0:0:0:
292,248,23860,5,0,0:0:0:0:
312,256,23958,1,0,0:0:0:0:
332,264,24056,1,0,0:0:0:0:
352,272,24154,1,0,0:0:0:0:
376,252,24252,5,0,0:0:0:0:
400,244,24350,1,0,0:0:0:0:
424,236,24448,1,0,0:0:0:0:
448,228,24546,1,0,0:0:0:0:
440,192,24644,5,0,0:0:0:0:
440,164,24742,1,0,0:0:0:0:
440,136,24840,1,0,0:0:0:0:
440,108,24938,1,0,0:0:0:0:
400,104,25036,5,0,0:0:0:0:
376,80,25134,1,0,0:0:0:0:
352,56,25232,1,0,0:0:0:0:
328,32,25330,1,0,0:0:0:0:
296,56,25428,6,0,L|220:48,1,75,4|0,0:2|0:0,0:0:0:0:
192,44,25723,1,0,0:0:0:0:
164,40,25821,1,8,0:0:0:0:
52,24,26017,1,0,0:0:0:0:
8,156,26213,2,0,L|84:148,1,75
112,144,26507,1,0,0:0:0:0:
140,140,26605,1,8,0:0:0:0:
252,124,26801,1,0,0:0:0:0:
308,252,26997,6,0,L|232:244,1,75
204,240,27291,1,0,0:0:0:0:
176,236,27389,2,0,L|92:228,2,75,8|0|0,0:0|0:0|0:0,0:0:0:0:
256,352,27977,1,0,0:0:0:0:
228,356,28075,1,0,0:0:0:0:
200,360,28173,2,0,L|108:372,1,75,8|0,0:0|0:0,0:0:0:0:
32,304,28565,5,4,0:2:0:0:
104,228,28761,1,0,0:0:0:0:
104,228,28859,1,0,0:0:0:0:
104,228,28957,2,0,L|88:144,1,75,8|0,0:0|0:0,0:0:0:0:
148,32,29350,1,0,0:0:0:0:
252,52,29546,1,0,0:0:0:0:
252,52,29644,1,0,0:0:0:0:
252,52,29742,2,0,L|236:136,1,75,8|0,0:0|0:0,0:0:0:0:
272,256,30134,5,0,0:0:0:0:
372,220,30330,1,0,0:0:0:0:
372,220,30428,1,0,0:0:0:0:
372,220,30526,2,0,L|356:144,2,75,8|0|0,0:0|0:0|0:0,0:0:0:0:
484,104,31114,1,0,0:0:0:0:
484,104,31212,1,0,0:0:0:0:
484,104,31310,2,0,L|468:188,1,75,8|0,0:0|0:0,0:0:0:0:
408,76,31702,6,0,L|392:0,1,75,4|0,0:2|0:0,0:0:0:0:
288,28,32094,1,8,0:0:0:0:
308,132,32290,1,0,0:0:0:0:
308,132,32388,1,0,0:0:0:0:
308,132,32486,2,0,L|224:160,1,75,8|0,0:0|0:0,0:0:0:0:
144,296,32879,1,4,0:2:0:0:
240,252,33075,1,0,0:0:0:0:
152,184,33271,6,0,P|128:128|136:72,1,112.5,4|0,0:2|2:0,0:0:0:0:
168,40,33663,2,0,L|52:84,1,112.5,2|0,0:2|2:0,0:0:0:0:
52,160,34055,2,0,L|164:116,1,112.5,2|0,0:2|2:0,0:0:0:0:
224,148,34447,2,0,P|248:200|236:260,1,112.5,4|0,0:2|2:0,0:0:0:0:
200,288,34839,5,4,0:2:0:0:
408,320,35231,1,0,0:0:0:0:
340,260,35427,1,0,0:0:0:0:
448,232,35623,1,0,0:0:0:0:
352,188,35819,1,0,0:0:0:0:
460,131,36015,1,0,0:0:0:0:
336,116,36211,1,0,0:0:0:0:
435,23,36407,5,0,0:0:0:0:
405,18,36505,1,0,0:0:0:0:
375,19,36603,1,0,0:0:0:0:
345,24,36701,1,0,0:0:0:0:
317,34,36799,1,0,0:0:0:0:
292,50,36897,1,0,0:0:0:0:
270,70,36995,1,0,0:0:0:0:
253,95,37093,1,0,0:0:0:0:
241,122,37191,5,0,0:0:0:0:
235,152,37289,1,0,0:0:0:0:
232,182,37387,1,0,0:0:0:0:
232,212,37485,1,0,0:0:0:0:
229,241,37583,1,0,0:0:0:0:
221,270,37681,1,0,0:0:0:0:
207,297,37779,1,0,0:0:0:0:
187,319,37877,1,0,0:0:0:0:
160,332,37976,6,0,P|96:336|48:320,1,112.5,4|0,0:0|0:0,0:0:0:0:
36,296,38368,2,0,L|52:216,1,75,0|0,1:0|0:0,0:0:0:0:
176,72,38760,1,2,0:0:0:0:
364,248,39054,1,0,0:0:0:0:
388,268,39152,2,0,L|472:252,1,75,0|0,1:0|0:0,0:0:0:0:
256,180,39544,6,0,P|268:232|264:296,1,112.5,2|0,0:0|0:0,0:0:0:0:
252,316,39936,2,0,L|176:332,1,75,0|0,1:0|0:0,0:0:0:0:
340,356,40329,1,2,0:0:0:0:
464,252,40623,1,0,0:0:0:0:
480,228,40721,2,0,L|472:140,1,75,0|0,1:0|0:0,0:0:0:0:
364,32,41113,6,0,L|376:148,1,112.5,2|0,0:0|0:0,0:0:0:0:
356,168,41505,2,0,P|316:176|280:172,1,75,0|0,1:0|0:0,0:0:0:0:
240,72,41897,1,2,0:0:0:0:
76,176,42191,1,0,0:0:0:0:
100,160,42289,2,0,P|140:152|176:156,1,75,0|0,1:0|0:0,0:0:0:0:
204,360,42681,6,0,L|216:244,1,112.5,2|0,0:0|0:0,0:0:0:0:
244,240,43073,2,0,P|284:240|320:252,2,75,0|0|2,1:0|0:0|0:0,0:0:0:0:
63,287,43661,1,0,0:0:0:0:
63,287,43759,1,0,0:0:0:0:
63,287,43858,2,0,P|99:299|139:299,1,75,0|0,0:0|0:0,0:0:0:0:
352,220,44250,5,0,0:0:0:0:
352,220,44446,1,0,0:0:0:0:
476,164,44642,2,0,L|504:80,1,75,8|0,0:0|0:0,0:0:0:0:
160,164,45034,1,0,0:0:0:0:
160,164,45230,1,0,0:0:0:0:
36,220,45426,2,8,L|8:304,1,75,8|0,0:0|0:0,0:0:0:0:
256,192,45818,5,0,0:0:0:0:
256,192,46014,1,8,0:0:0:0:
312,316,46210,2,0,L|396:344,1,75,0|0,0:0|0:0,0:0:0:0:
256,192,46602,1,8,0:0:0:0:
200,68,46798,1,0,0:0:0:0:
200,68,46896,1,0,0:0:0:0:
200,68,46994,2,0,L|116:40,1,75,0|8,0:0|0:0,0:0:0:0:
36,132,47386,6,0,P|96:144|148:136,1,112.5,4|0,0:0|0:0,0:0:0:0:
152,168,47779,2,0,P|188:180|228:204,2,75,0|0|2,1:0|0:0|0:0,0:0:0:0:
204,276,48465,1,0,0:0:0:0:
216,304,48563,2,0,P|248:324|284:336,1,75,0|0,1:0|0:0,0:0:0:0:
460,264,48955,6,0,L|340:268,1,112.5,2|0,0:0|0:0,0:0:0:0:
324,248,49347,2,0,P|316:212|320:164,2,75,0|0|2,1:0|0:0|0:0,0:0:0:0:
416,112,50033,1,0,0:0:0:0:
444,104,50131,2,0,P|452:68|448:20,1,75,0|0,1:0|0:0,0:0:0:0:
216,44,50523,6,0,L|336:48,1,112.5,2|0,0:0|0:0,0:0:0:0:
344,72,50915,2,0,P|348:108|340:148,2,75,0|0|2,1:0|0:0|0:0,0:0:0:0:
196,172,51602,1,0,0:0:0:0:
192,200,51700,2,0,L|256:248,1,75,0|0,1:0|0:0,0:0:0:0:
400,332,52092,6,0,P|336:320|284:328,1,112.5,2|0,0:0|0:0,0:0:0:0:
264,340,52484,2,0,P|224:348|180:344,2,75,0|0|2,1:0|0:0|0:0,0:0:0:0:
72,208,53072,1,0,0:0:0:0:
88,200,53170,1,0,0:0:0:0:
104,192,53268,2,0,P|128:216|148:256,1,75
356,140,53660,5,0,0:0:0:0:
284,104,53856,1,0,0:0:0:0:
256,32,54052,1,8,0:0:0:0:
92,324,54444,1,0,0:0:0:0:
196,304,54640,1,0,0:0:0:0:
296,276,54837,1,8,0:0:0:0:
400,140,55229,5,0,0:0:0:0:
284,104,55425,1,8,0:0:0:0:
208,12,55621,2,0,L|128:25,1,75
48,228,56013,1,8,0:0:0:0:
180,208,56209,1,0,0:0:0:0:
296,276,56405,1,0,0:0:0:0:
432,300,56601,1,8,0:0:0:0:
492,180,56797,6,0,P|436:196|376:200,1,112.5,4|0,0:0|0:0,0:0:0:0:
352,196,57189,2,0,L|284:160,1,75,0|0,1:0|0:0,0:0:0:0:
256,164,57483,1,0,0:0:0:0:
228,168,57581,2,0,P|280:128|316:84,1,112.5,2|0,0:0|0:0,0:0:0:0:
324,64,57973,2,0,P|284:72|240:72,1,75,0|0,1:0|0:0,0:0:0:0:
44,160,58365,6,0,P|96:156|160:168,1,112.5,2|0,0:0|0:0,0:0:0:0:
164,196,58758,2,0,P|132:220|104:252,1,75,0|0,1:0|0:0,0:0:0:0:
112,276,59052,1,0,0:0:0:0:
116,304,59150,2,0,P|172:312|236:304,1,112.5,2|0,0:0|0:0,0:0:0:0:
256,296,59542,2,0,L|232:376,1,75,0|0,1:0|0:0,0:0:0:0:
360,228,59934,6,0,L|376:344,1,112.5,2|0,0:0|0:0,0:0:0:0:
404,352,60326,2,0,P|432:336|464:296,1,75,0|0,1:0|0:0,0:0:0:0:
468,276,60620,1,0,0:0:0:0:
472,248,60718,2,0,L|456:132,1,112.5,2|0,0:0|0:0,0:0:0:0:
452,108,61110,2,0,P|428:136|392:156,1,75,0|0,1:0|0:0,0:0:0:0:
244,28,61502,6,0,L|368:48,1,112.5,2|0,0:0|0:0,0:0:0:0:
368,72,61894,2,0,P|344:104|312:120,1,75,0|0,1:0|0:0,0:0:0:0:
208,104,62287,1,2,0:0:0:0:
112,28,62483,1,0,0:0:0:0:
100,40,62581,1,0,0:0:0:0:
88,52,62679,2,0,L|104:128,1,75
112,336,63071,6,0,L|96:256,1,75
196,180,63463,1,8,0:0:0:0:
196,180,63659,1,0,0:0:0:0:
400,48,63855,6,0,L|416:128,1,75
316,204,64247,1,8,0:0:0:0:
316,204,64443,1,0,0:0:0:0:
184,32,64639,6,0,L|108:48,2,75,0|8|0,0:0|0:0|0:0,0:0:0:0:
268,132,65227,1,0,0:0:0:0:
328,352,65423,2,0,L|256:312,1,75,8|0,0:0|0:0,0:0:0:0:
252,284,65717,1,0,0:0:0:0:
244,252,65815,2,0,L|160:272,1,75,0|8,0:0|0:0,0:0:0:0:
56,160,66208,5,4,0:0:0:0:
184,104,66404,1,0,0:0:0:0:
204,112,66502,1,0,0:0:0:0:
224,120,66600,2,0,P|200:152|188:192,1,75,0|0,1:0|0:0,0:0:0:0:
400,156,66992,2,0,P|344:168|292:204,1,112.5,2|0,0:0|0:0,0:0:0:0:
288,236,67384,2,0,P|320:264|336:300,1,75,0|0,1:0|0:0,0:0:0:0:
212,344,67776,5,2,0:0:0:0:
60,268,67972,1,0,0:0:0:0:
60,268,68070,1,0,0:0:0:0:
60,268,68168,2,0,L|136:280,1,75,0|0,1:0|0:0,0:0:0:0:
84,148,68560,2,0,P|104:100|156:48,1,112.5,2|0,0:0|0:0,0:0:0:0:
180,72,68952,2,0,P|216:76|268:68,1,75,0|0,1:0|0:0,0:0:0:0:
352,16,69344,5,2,0:0:0:0:
255,148,69541,1,0,0:0:0:0:
248,163,69639,1,0,0:0:0:0:
241,178,69737,2,0,L|297:246,1,75,0|0,1:0|0:0,0:0:0:0:
152,340,70129,2,0,P|208:324|272:328,1,112.5,2|0,0:0|0:0,0:0:0:0:
283,356,70521,2,0,P|323:356|359:352,1,75,0|0,1:0|0:0,0:0:0:0:
476,312,70913,5,2,0:0:0:0:
380,236,71109,1,0,0:0:0:0:
392,224,71207,1,0,0:0:0:0:
404,212,71305,2,0,L|412:132,1,75,0|0,1:0|0:0,0:0:0:0:
328,48,71697,1,2,0:0:0:0:
216,96,71893,1,0,0:0:0:0:
228,108,71991,1,0,0:0:0:0:
240,120,72089,2,0,L|248:200,1,75
196,296,72481,5,0,0:0:0:0:
132,212,72677,1,0,0:0:0:0:
252,228,72873,1,8,0:0:0:0:
168,336,73069,1,0,0:0:0:0:
160,348,73168,1,0,0:0:0:0:
152,360,73266,1,8,0:0:0:0:
80,148,73658,1,4,0:2:0:0:
308,152,74050,5,4,0:2:0:0:
144,372,74442,1,2,0:2:0:0:
28,92,74834,1,2,0:2:0:0:
360,96,75226,1,4,0:2:0:0:
252,228,75618,5,4,0:2:0:0:
252,228,75814,1,0,0:0:0:0:
180,184,76010,2,0,P|164:128|184:80,1,112.500004291535,2|0,0:3|0:0,0:0:0:0:
248,134,76598,1,0,0:0:0:0:
313,80,76794,1,2,0:3:0:0:
313,80,76893,1,0,0:0:0:0:
380,224,77187,5,0,0:0:0:0:
380,144,77383,1,0,0:0:0:0:
456,268,77579,2,0,P|412:304|356:308,1,112.500004291535,2|0,0:3|0:0,0:0:0:0:
448,188,78167,1,0,0:0:0:0:
312,184,78363,2,0,L|296:212,1,28.1250010728836,2|0,0:3|0:0,0:0:0:0:
196,356,78755,5,0,0:0:0:0:
196,356,78951,1,0,0:0:0:0:
236,280,79147,2,0,P|232:224|192:180,1,112.500004291535,8|0,0:0|0:0,0:0:0:0:
155,256,79735,1,0,0:0:0:0:
73,234,79931,1,8,0:0:0:0:
73,234,80029,1,0,0:0:0:0:
204,96,80323,5,0,0:0:0:0:
200,12,80520,1,0,0:0:0:0:
132,136,80716,2,0,P|184:176|248:168,1,112.500004291535,8|0,0:0|0:0,0:0:0:0:
128,52,81304,1,0,0:0:0:0:
284,120,81500,2,0,L|272:84,1,28.1250010728836,8|0,0:0|0:0,0:0:0:0:
464,200,81892,5,0,0:0:0:0:
464,200,82088,1,0,0:0:0:0:
448,284,82284,2,0,P|404:320|344:316,1,112.500004291535,2|0,0:3|0:0,0:0:0:0:
376,238,82872,1,0,0:0:0:0:
305,191,83068,1,2,0:3:0:0:
305,191,83166,1,0,0:0:0:0:
172,280,83460,5,0,0:0:0:0:
92,300,83656,1,0,0:0:0:0:
236,224,83852,2,0,P|256:280|240:332,1,112.500004291535,2|0,0:3|0:0,0:0:0:0:
156,200,84441,1,0,0:0:0:0:
168,360,84637,2,0,L|128:380,1,28.1250010728836,2|0,0:3|0:0,0:0:0:0:
64,172,85029,5,0,0:0:0:0:
143,103,85225,2,0,L|83:27,1,75,8|0,0:0|0:0,0:0:0:0:
248,112,85617,1,0,0:0:0:0:
356,140,85813,2,0,L|348:52,1,75,8|0,0:0|0:0,0:0:0:0:
436,216,86205,1,0,0:0:0:0:
396,306,86401,1,8,0:0:0:0:
389,317,86499,1,0,0:0:0:0:
383,324,86597,6,0,P|263:315|333:222,1,281.25,4|0,0:0|2:0,0:0:0:0:
340,224,88166,1,4,0:0:0:0:
456,100,88558,5,2,0:3:0:0:
384,56,88754,2,0,P|328:52|280:88,1,112.500004291535
352,136,89342,1,2,0:3:0:0:
200,60,89538,1,0,0:0:0:0:
192,76,89636,1,0,0:0:0:0:
184,92,89734,6,0,L|196:152,1,56.2500021457673
52,252,90126,1,2,0:3:0:0:
120,304,90322,2,0,P|176:308|224:272,1,112.500004291535
152,224,90910,1,2,0:3:0:0:
300,300,91106,1,0,0:0:0:0:
308,316,91204,1,0,0:0:0:0:
316,332,91302,6,0,P|296:360|268:376,1,56.2500021457673,4|0,0:2|0:0,0:0:0:0:
236,204,91695,1,2,0:3:0:0:
420,164,91891,2,0,P|364:180|324:228,1,112.500004291535
416,316,92479,2,0,P|420:284|420:248,1,56.2500021457673,2|0,0:3|0:0,0:0:0:0:
416,56,92871,5,0,0:0:0:0:
288,140,93067,1,0,0:0:0:0:
288,140,93165,1,0,0:0:0:0:
288,140,93263,1,2,0:3:0:0:
424,212,93459,1,0,0:0:0:0:
424,212,93557,1,0,0:0:0:0:
424,212,93655,1,2,0:3:0:0:
416,56,93851,1,0,0:0:0:0:
416,56,93949,1,0,0:0:0:0:
416,56,94047,1,2,0:3:0:0:
220,276,94439,5,4,0:2:0:0:
220,276,94635,1,0,0:0:0:0:
192,112,94831,5,2,0:3:0:0:
24,104,95027,2,0,P|64:144|120:152,1,112.500004291535,2|0,0:3|0:0,0:0:0:0:
112,52,95616,1,2,0:3:0:0:
136,244,95812,1,0,0:0:0:0:
152,252,95910,1,0,0:0:0:0:
168,260,96008,6,0,L|216:228,1,56.2500021457673
312,124,96400,1,2,0:3:0:0:
416,240,96596,2,0,P|368:208|308:208,1,112.500004291535,2|0,0:3|0:0,0:0:0:0:
444,328,97184,1,2,0:3:0:0:
272,356,97380,1,0,0:0:0:0:
288,352,97478,1,0,0:0:0:0:
304,344,97576,6,0,P|328:324|344:292,1,56.2500021457673,4|0,0:2|0:0,0:0:0:0:
216,228,97968,1,2,0:3:0:0:
32,312,98164,2,0,P|88:328|152:340,1,112.500004291535,2|0,0:3|0:0,0:3:0:0:
216,228,98752,1,2,0:3:0:0:
120,128,98949,1,0,0:0:0:0:
108,144,99047,1,0,0:0:0:0:
96,160,99145,6,0,L|100:224,1,56.2500021457673,4|0,0:2|0:0,0:0:0:0:
216,228,99537,1,0,0:0:0:0:
228,240,99635,1,0,0:0:0:0:
240,252,99733,1,0,0:0:0:0:
252,264,99831,1,0,0:0:0:0:
264,276,99929,2,0,L|244:340,1,56.2500021457673,4|0,0:2|0:0,0:0:0:0:
376,292,100321,1,0,0:0:0:0:
396,284,100419,1,0,0:0:0:0:
412,276,100517,1,0,0:0:0:0:
432,268,100615,1,0,0:0:0:0:
452,260,100713,6,0,L|420:192,1,56.2500021457673,4|0,0:0|0:0,0:0:0:0:
448,80,101105,5,2,0:3:0:0:
388,140,101301,2,0,P|343:163|272:152,1,112.500004291535
320,60,101889,1,2,0:3:0:0:
224,232,102085,1,0,0:0:0:0:
204,244,102183,1,0,0:0:0:0:
184,252,102281,6,0,L|160:200,1,56.2500021457673
192,56,102674,1,2,0:3:0:0:
32,188,102870,2,0,P|20:248|16:300,1,112.500004291535
296,316,103458,1,2,0:3:0:0:
116,284,103654,1,0,0:0:0:0:
104,304,103752,1,0,0:0:0:0:
92,324,103850,6,0,L|124:372,1,56.2500021457673,4|0,0:2|0:0,0:0:0:0:
220,140,104242,1,2,0:3:0:0:
428,188,104438,2,0,P|372:196|308:212,1,112.500004291535
432,348,105026,2,0,P|420:320|408:284,1,56.2500021457673,2|0,0:3|0:0,0:0:0:0:
448,72,105418,5,0,0:0:0:0:
296,216,105614,1,0,0:0:0:0:
292,232,105712,1,0,0:0:0:0:
288,248,105810,1,2,0:3:0:0:
224,144,106006,1,0,0:0:0:0:
216,164,106104,1,0,0:0:0:0:
208,184,106203,1,2,0:3:0:0:
176,48,106399,1,0,0:0:0:0:
160,72,106497,1,0,0:0:0:0:
144,96,106595,1,2,0:3:0:0:
332,80,106987,5,4,0:2:0:0:
332,80,107183,1,0,0:0:0:0:
112,160,107379,1,2,0:3:0:0:
196,264,107575,2,0,P|248:276|316:264,1,112.500004291535,2|0,0:3|0:0,0:0:0:0:
256,152,108163,1,2,0:3:0:0:
416,328,108359,1,0,0:0:0:0:
424,344,108457,1,0,0:0:0:0:
432,360,108555,6,0,L|368:376,1,56.2500021457673
200,348,108947,1,2,0:3:0:0:
416,132,109143,2,0,P|408:196|396:248,1,112.500004291535,2|0,0:3|0:0,0:0:0:0:
379,256,109633,1,0,0:0:0:0:
360,269,109731,1,2,0:3:0:0:
333,98,109928,1,0,0:0:0:0:
339,73,110026,1,0,0:0:0:0:
344,48,110124,6,0,L|396:12,1,56.2500021457673,4|0,0:2|0:0,0:0:0:0:
344,280,110516,1,2,0:3:0:0:
108,344,110712,2,0,P|116:280|128:228,1,112.500004291535,2|0,0:3|0:0,0:0:0:0:
332,108,111300,2,0,L|304:160,1,56.2500021457673,2|0,0:3|0:0,0:0:0:0:
232,68,111692,5,4,0:2:0:0:
224,60,111790,1,0,0:0:0:0:
216,52,111888,2,0,L|188:24,1,28.1250010728836
152,112,112084,1,0,0:0:0:0:
136,112,112182,1,0,0:0:0:0:
120,112,112280,2,0,L|88:112,1,28.1250010728836
120,200,112476,1,4,0:2:0:0:
100,212,112574,1,0,0:0:0:0:
80,224,112672,2,0,L|44:244,1,28.1250010728836
116,296,112868,2,0,L|84:384,1,84.3750032186509,4|0,0:2|2:0,0:0:0:0:
132,368,113260,6,0,L|172:256,1,112.5,4|0,0:0|0:0,0:0:0:0:
192,240,113653,2,0,P|228:232|268:236,1,75,8|0,0:0|0:0,0:0:0:0:
492,368,114045,2,0,P|436:380|368:368,1,112.5,0|0,0:0|0:0,0:0:0:0:
368,344,114437,2,0,L|348:272,1,75,8|0,0:0|0:0,0:0:0:0:
464,128,114829,6,0,L|364:136,1,75,0|0,0:0|0:0,0:0:0:0:
360,128,115123,1,0,0:0:0:0:
332,112,115221,2,0,P|320:80|316:32,1,75,8|0,0:0|0:0,0:0:0:0:
460,40,115613,1,0,0:0:0:0:
340,196,115809,1,0,0:0:0:0:
312,204,115907,1,0,0:0:0:0:
284,212,116005,2,0,P|244:208|208:192,1,75,8|0,0:0|0:0,0:0:0:0:
88,24,116397,6,0,L|60:144,1,112.5
92,140,116789,2,0,P|100:176|124:224,1,75,8|0,0:0|0:0,0:0:0:0:
256,344,117181,2,0,P|204:328|136:328,1,112.5
116,332,117574,2,0,P|148:312|180:280,1,75,8|0,0:0|0:0,0:0:0:0:
336,280,117966,6,0,P|336:236|328:184,1,75,0|0,0:0|0:0,0:0:0:0:
320,176,118260,1,0,0:0:0:0:
304,152,118358,2,0,L|396:160,1,75,8|0,0:0|0:0,0:0:0:0:
220,72,118750,1,0,0:0:0:0:
84,196,118946,1,0,0:0:0:0:
108,212,119044,1,0,0:0:0:0:
136,224,119142,2,0,P|176:232|224:236,1,75,8|0,0:0|0:0,0:0:0:0:
220,72,119534,5,0,0:0:0:0:
240,236,119730,1,0,0:0:0:0:
380,160,119926,1,8,0:0:0:0:
220,72,120122,1,0,0:0:0:0:
219,90,120220,1,0,0:0:0:0:
218,108,120318,2,0,P|244:155|302:171,1,112.5,8|0,0:0|2:0,0:0:0:0:
335,168,120710,2,0,L|299:288,1,112.5,4|0,0:2|2:0,0:0:0:0:
349,268,121103,6,0,L|383:149,1,112.5,4|0,0:2|2:0,0:0:0:0:
398,258,121495,2,0,L|430:142,1,112.5,2|0,0:2|2:0,0:0:0:0:
497,74,121887,2,0,P|445:102|385:118,1,112.5,2|0,0:2|2:0,0:0:0:0:
448,43,122279,2,0,P|396:63|332:67,1,112.5,4|0,0:2|2:0,0:0:0:0:
256,45,122671,5,4,0:2:0:0:
324,316,123063,1,0,0:0:0:0:
188,232,123259,1,0,0:0:0:0:
272,372,123455,1,0,0:0:0:0:
260,208,123651,1,0,0:0:0:0:
192,360,123847,1,0,0:0:0:0:
320,244,124043,1,0,0:0:0:0:
156,296,124239,5,0,0:0:0:0:
130,280,124337,1,0,0:0:0:0:
116,254,124435,1,0,0:0:0:0:
113,224,124534,1,0,0:0:0:0:
120,195,124632,1,0,0:0:0:0:
138,171,124730,1,0,0:0:0:0:
163,155,124828,1,0,0:0:0:0:
190,143,124926,1,0,0:0:0:0:
213,123,125024,5,0,0:0:0:0:
224,96,125122,1,0,0:0:0:0:
221,66,125220,1,0,0:0:0:0:
205,41,125318,1,0,0:0:0:0:
179,26,125416,1,0,0:0:0:0:
149,24,125514,1,0,0:0:0:0:
122,35,125612,1,0,0:0:0:0:
104,56,125710,1,0,0:0:0:0:
98,84,125808,5,4,0:2:0:0:
188,232,135218,6,0,P|240:264|296:268,1,112.5,4|0,0:0|0:0,0:0:0:0:
324,260,135611,2,0,L|300:184,1,75,0|0,1:0|0:0,0:0:0:0:
424,284,136003,1,2,0:0:0:0:
488,208,136199,1,0,0:0:0:0:
476,180,136297,1,0,0:0:0:0:
464,152,136395,2,0,L|476:68,1,75,0|0,1:0|0:0,0:0:0:0:
296,168,136787,5,2,0:0:0:0:
168,300,136983,1,0,0:0:0:0:
140,308,137081,1,0,0:0:0:0:
112,316,137179,2,0,L|44:376,1,75,0|0,1:0|0:0,0:0:0:0:
48,132,137571,2,0,P|52:196|40:252,1,112.5,2|0,0:0|0:0,0:0:0:0:
96,200,137963,2,0,P|132:220|176:224,1,75,0|0,1:0|0:0,0:0:0:0:
240,32,138355,5,2,0:0:0:0:
120,24,138551,1,0,0:0:0:0:
116,52,138649,1,0,0:0:0:0:
112,80,138747,2,0,P|131:119|156:140,1,75,0|0,1:0|0:0,0:0:0:0:
372,124,139139,2,0,P|312:132|260:164,1,112.5,2|0,0:0|0:0,0:0:0:0:
232,200,139532,2,0,P|248:168|248:116,1,75,0|0,1:0|0:0,0:0:0:0:
356,264,139924,5,2,0:0:0:0:
164,224,140120,1,0,0:0:0:0:
160,252,140218,1,0,0:0:0:0:
156,280,140316,2,0,P|160:324|180:356,1,75,0|0,1:0|0:0,0:0:0:0:
312,204,140708,1,2,0:0:0:0:
240,56,140904,1,0,0:0:0:0:
212,64,141002,1,0,0:0:0:0:
184,72,141100,2,0,P|156:100|140:144,1,75
328,128,141492,5,0,0:0:0:0:
268,284,141688,1,0,0:0:0:0:
432,276,141884,1,8,0:0:0:0:
368,120,142080,1,0,0:0:0:0:
348,124,142178,1,0,0:0:0:0:
328,128,142276,1,8,0:0:0:0:
160,264,142668,2,0,P|216:264|276:244,1,112.5,4|0,0:2|2:0,0:0:0:0:
268,284,143061,6,0,P|324:296|376:324,1,112.5,4|0,0:2|2:0,0:0:0:0:
400,356,143453,2,0,P|404:300|384:248,1,112.5,2|0,0:2|2:0,0:0:0:0:
432,276,143845,2,0,P|432:216|464:168,1,112.5,2|0,0:2|2:0,0:0:0:0:
436,125,144237,2,0,P|378:113|313:139,1,112.5,4|0,0:2|2:0,0:0:0:0:
252,156,144629,5,4,0:2:0:0:
252,156,144825,1,0,0:0:0:0:
180,200,145021,2,0,P|164:256|184:304,1,112.500004291535,2|0,0:3|0:0,0:0:0:0:
248,249,145609,1,0,0:0:0:0:
315,299,145805,1,2,0:3:0:0:
315,299,145903,1,0,0:0:0:0:
380,160,146197,5,0,0:0:0:0:
380,240,146393,1,0,0:0:0:0:
456,116,146590,2,0,P|412:80|356:76,1,112.500004291535,2|0,0:3|0:0,0:0:0:0:
448,196,147178,1,0,0:0:0:0:
312,200,147374,1,2,0:3:0:0:
312,200,147472,1,0,0:0:0:0:
196,28,147766,5,0,0:0:0:0:
196,28,147962,1,0,0:0:0:0:
236,104,148158,2,0,P|232:160|192:204,1,112.500004291535,8|0,0:0|0:0,0:0:0:0:
154,127,148746,1,0,0:0:0:0:
72,149,148942,1,2,0:3:0:0:
72,149,149040,1,0,0:0:0:0:
204,288,149334,5,0,0:0:0:0:
200,372,149530,1,0,0:0:0:0:
132,248,149726,2,0,P|184:208|248:216,1,112.500004291535,8|0,0:0|0:0,0:0:0:0:
128,332,150315,1,0,0:0:0:0:
270,332,150511,1,8,0:0:0:0:
270,332,150609,1,0,0:0:0:0:
464,184,150903,5,0,0:0:0:0:
464,184,151099,1,0,0:0:0:0:
448,100,151295,2,0,P|404:64|344:68,1,112.500004291535,2|0,0:3|0:0,0:0:0:0:
377,145,151883,1,0,0:0:0:0:
302,184,152079,1,2,0:3:0:0:
302,184,152177,1,0,0:0:0:0:
172,104,152471,5,0,0:0:0:0:
92,84,152667,1,0,0:0:0:0:
236,160,152863,2,0,P|256:104|240:52,1,112.500004291535,2|0,0:3|0:0,0:0:0:0:
156,184,153451,1,0,0:0:0:0:
168,24,153647,1,2,0:3:0:0:
168,24,153745,1,0,0:0:0:0:
80,160,154040,5,0,0:0:0:0:
104,312,154236,1,8,0:0:0:0:
220,228,154432,1,0,0:0:0:0:
16,216,154628,2,0,L|20:312,1,75,0|8,0:0|0:0,0:0:0:0:
172,160,155020,1,0,0:0:0:0:
104,312,155216,1,0,0:0:0:0:
268,296,155412,1,8,0:0:0:0:
136,236,155608,1,0,0:0:0:0:
184,308,155804,5,0,0:0:0:0:
196,288,155902,1,0,0:0:0:0:
208,268,156000,1,0,0:0:0:0:
220,248,156098,1,0,0:0:0:0:
232,228,156196,1,0,0:0:0:0:
244,208,156294,1,0,0:0:0:0:
256,188,156392,6,0,L|236:104,1,75,0|4,0:0|0:3,0:0:0:0:
256,88,156686,1,4,0:3:0:0:
280,72,156784,1,8,0:3:0:0:
308,64,156882,1,8,0:3:0:0:
336,64,156980,1,12,0:3:0:0:
364,72,157078,1,0,0:3:0:0:
384,84,157176,5,4,0:0:0:0:
456,284,157569,1,2,0:3:0:0:
384,328,157765,2,0,P|328:332|280:296,1,112.500004291535
352,248,158353,1,2,0:3:0:0:
200,324,158549,1,0,0:0:0:0:
192,308,158647,1,0,0:0:0:0:
184,292,158745,6,0,P|188:264|208:236,1,56.2500021457673
52,132,159137,1,2,0:3:0:0:
120,80,159333,2,0,P|176:76|224:112,1,112.500004291535
152,160,159921,1,2,0:3:0:0:
300,84,160117,1,0,0:0:0:0:
308,68,160215,1,0,0:0:0:0:
316,52,160313,6,0,P|296:24|268:8,1,56.2500021457673,4|0,0:2|0:0,0:0:0:0:
236,180,160705,1,2,0:3:0:0:
420,220,160901,2,0,P|364:204|324:156,1,112.500004291535
416,68,161490,2,0,P|420:100|420:136,1,56.2500021457673,2|0,0:3|0:0,0:0:0:0:
416,328,161882,5,0,0:0:0:0:
288,244,162078,1,0,0:0:0:0:
288,244,162176,1,0,0:0:0:0:
288,244,162274,1,2,0:3:0:0:
424,172,162470,1,0,0:0:0:0:
424,172,162568,1,0,0:0:0:0:
424,172,162666,1,2,0:3:0:0:
416,328,162862,1,0,0:0:0:0:
416,328,162960,1,0,0:0:0:0:
416,328,163058,1,2,0:3:0:0:
220,108,163450,5,4,0:2:0:0:
220,108,163646,1,0,0:0:0:0:
192,272,163842,1,2,0:3:0:0:
24,280,164038,2,0,P|64:240|120:232,1,112.500004291535,2|0,0:3|0:0,0:0:0:0:
112,332,164626,1,2,0:3:0:0:
136,140,164822,1,0,0:0:0:0:
152,132,164921,1,0,0:0:0:0:
168,124,165019,6,0,P|196:136|216:156,1,56.2500021457673
312,260,165411,1,2,0:3:0:0:
416,144,165607,2,0,P|368:176|308:176,1,112.500004291535,2|0,0:3|0:0,0:0:0:0:
444,56,166195,1,2,0:3:0:0:
272,28,166391,1,0,0:0:0:0:
288,32,166489,1,0,0:0:0:0:
304,40,166587,6,0,P|328:60|344:92,1,56.2500021457673,4|0,0:2|0:0,0:0:0:0:
216,156,166979,1,2,0:3:0:0:
32,72,167175,2,0,P|84:56|148:52,1,112.500004291535,2|0,0:3|0:0,0:0:0:0:
216,156,167763,1,2,0:3:0:0:
120,256,167959,1,0,0:0:0:0:
108,240,168057,1,0,0:0:0:0:
96,224,168155,6,0,L|100:160,1,56.2500021457673,4|0,0:2|0:0,0:0:0:0:
216,156,168547,1,0,0:0:0:0:
228,144,168646,1,0,0:0:0:0:
240,132,168744,1,0,0:0:0:0:
252,120,168842,1,0,0:0:0:0:
264,108,168940,2,0,L|244:44,1,56.2500021457673,4|0,0:2|0:0,0:0:0:0:
376,92,169332,1,0,0:0:0:0:
396,100,169430,1,0,0:0:0:0:
412,108,169528,1,0,0:0:0:0:
432,116,169626,1,0,0:0:0:0:
452,124,169724,6,0,P|436:156|428:184,1,56.2500021457673,4|0,0:0|0:0,0:0:0:0:
448,304,170116,1,2,0:3:0:0:
388,244,170312,2,0,P|343:221|272:232,1,112.500004291535
320,324,170900,1,2,0:3:0:0:
224,152,171096,1,0,0:0:0:0:
204,140,171194,1,0,0:0:0:0:
184,132,171292,6,0,L|160:184,1,56.2500021457673
192,328,171684,1,2,0:3:0:0:
32,196,171880,2,0,P|20:144|16:84,1,112.500004291535
296,68,172469,1,2,0:3:0:0:
116,100,172665,1,0,0:0:0:0:
104,80,172763,1,0,0:0:0:0:
92,60,172861,6,0,P|105:32|124:12,1,56.2500021457673,4|0,0:2|0:0,0:0:0:0:
220,244,173253,1,2,0:3:0:0:
428,196,173449,2,0,P|368:188|308:172,1,112.500004291535
432,36,174037,2,0,P|420:64|408:100,1,56.2500021457673,2|0,0:3|0:0,0:0:0:0:
448,312,174429,5,0,0:0:0:0:
296,168,174625,1,0,0:0:0:0:
292,152,174723,1,0,0:0:0:0:
288,136,174821,1,2,0:3:0:0:
224,240,175017,1,0,0:0:0:0:
216,220,175115,1,0,0:0:0:0:
208,200,175213,1,2,0:3:0:0:
176,336,175409,1,0,0:0:0:0:
160,312,175507,1,0,0:0:0:0:
144,288,175605,1,2,0:3:0:0:
332,304,175998,5,4,0:2:0:0:
332,304,176194,1,0,0:0:0:0:
112,224,176390,1,2,0:3:0:0:
196,120,176586,2,0,P|248:108|316:120,1,112.500004291535,2|0,0:3|0:0,0:0:0:0:
256,232,177174,1,2,0:3:0:0:
416,56,177370,1,0,0:0:0:0:
424,40,177468,1,0,0:0:0:0:
432,24,177566,6,0,L|368:8,1,56.2500021457673
200,36,177958,1,2,0:3:0:0:
416,252,178154,2,0,P|408:192|396:136,1,112.500004291535,2|0,0:3|0:0,0:0:0:0:
372,124,178644,1,0,0:0:0:0:
348,108,178742,1,2,0:3:0:0:
336,296,178938,1,0,0:0:0:0:
340,316,179036,1,0,0:0:0:0:
344,336,179134,6,0,P|376:356|404:364,1,56.2500021457673,4|0,0:2|0:0,0:0:0:0:
324,92,179526,1,2,0:3:0:0:
108,40,179723,2,0,P|112:100|128:156,1,112.500004291535,2|0,0:3|0:0,0:0:0:0:
332,276,180311,2,0,P|316:252|304:224,1,56.2500021457673,2|0,0:3|0:0,0:0:0:0:
300,80,180703,5,4,0:2:0:0:
271,79,180801,1,0,0:0:0:0:
244,85,180899,1,0,0:0:0:0:
219,98,180997,1,0,0:0:0:0:
197,116,181095,1,0,0:0:0:0:
181,138,181193,1,0,0:0:0:0:
170,164,181291,1,0,0:0:0:0:
156,189,181389,1,0,0:0:0:0:
136,208,181487,5,4,0:2:0:0:
111,221,181585,1,0,0:0:0:0:
83,224,181683,1,0,0:0:0:0:
56,217,181781,1,0,0:0:0:0:
33,201,181879,2,0,P|48:244|52:296,1,84.3750032186509,4|0,0:2|0:0,0:0:0:0:
28,316,182271,6,0,L|36:364,2,37.5,0|0|8,0:0|0:0|0:0,0:0:0:0:
204,352,182859,2,0,P|208:296|224:236,1,112.5,4|0,0:2|0:0,0:0:0:0:
244,264,183252,2,0,P|280:280|328:280,1,75,0|8,0:0|0:0,0:0:0:0:
220,92,183644,1,0,0:0:0:0:
120,296,183840,5,0,0:0:0:0:
304,156,184036,1,0,0:0:0:0:
280,352,184232,1,0,0:0:0:0:
280,352,184330,1,0,0:0:0:0:
280,352,184428,1,8,0:0:0:0:
476,240,184624,2,0,L|392:260,1,75
360,60,185016,2,0,L|440:40,1,75,8|0,0:0|0:0,0:0:0:0:
232,168,185408,5,0,0:0:0:0:
232,168,185506,1,0,0:0:0:0:
232,168,185604,2,0,L|152:152,1,75,8|0,0:0|0:0,0:0:0:0:
254,259,185996,1,0,0:0:0:0:
280,352,186192,2,0,L|360:368,2,75,0|0|8,0:0|0:0|0:0,0:0:0:0:
64,252,186780,1,0,0:0:0:0:
64,252,186878,1,0,0:0:0:0:
64,252,186977,6,0,L|72:332,1,75,8|0,0:0|0:0,0:0:0:0:
200,360,187369,1,0,0:0:0:0:
296,252,187565,1,8,0:0:0:0:
104,96,187761,1,0,0:0:0:0:
104,96,187859,1,0,0:0:0:0:
104,96,187957,1,0,0:0:0:0:
256,60,188153,2,0,L|232:172,1,112.5,8|0,0:0|0:0,0:0:0:0:
204,176,188545,6,0,L|192:224,2,37.5,0|0|0,0:0|0:0|0:0,0:0:0:0:
444,344,189133,2,0,L|368:324,1,75
368,296,189427,1,0,0:0:0:0:
364,268,189525,2,0,L|352:180,1,75,0|8,0:0|0:0,0:0:0:0:
440,56,189917,2,0,L|496:68,1,37.5
404,128,190113,6,0,L|448:148,3,37.5,0|0|0|0,0:0|0:0|0:0|0:0,0:0:0:0:
280,216,190505,2,0,L|272:164,3,37.5,0|0|0|0,0:0|0:0|0:0|0:0,0:0:0:0:
160,280,190898,2,0,L|136:308,3,37.5,0|0|0|0,0:0|0:0|0:0|0:0,0:0:0:0:
88,192,191290,2,0,L|56:156,1,37.5
128,120,191486,2,0,L|100:80,1,37.5
200,72,191682,6,0,L|284:84,1,75,0|0,0:0|0:0,0:0:0:0:
308,128,191976,2,0,L|228:116,1,75,0|0,0:0|0:0,0:0:0:0:
200,152,192270,1,8,0:0:0:0:
137,338,192466,5,4,0:2:0:0:
256,196,192760,1,2,0:2:0:0:
375,338,193054,1,8,0:0:0:0:
480,160,193250,5,0,0:0:0:0:
452,156,193348,1,0,0:0:0:0:
424,152,193446,1,0,0:0:0:0:
396,148,193544,1,0,0:0:0:0:
376,120,193642,5,0,0:0:0:0:
344,120,193740,1,0,0:0:0:0:
312,120,193838,1,0,0:0:0:0:
280,120,193936,1,0,0:0:0:0:
236,96,194034,6,0,L|216:128,3,37.5,0|0|0|0,0:0|0:0|0:0|0:0,0:0:0:0:
84,40,194427,2,0,L|76:76,3,37.5,0|0|0|0,0:0|0:0|0:0|0:0,0:0:0:0:
52,252,194819,6,0,L|100:228,3,37.5,2|0|0|0,0:0|0:0|0:0|0:0,0:0:0:0:
116,304,195211,2,0,L|212:280,1,75,0|0,1:0|0:0,0:0:0:0:
428,320,195603,2,0,L|384:356,3,37.5,2|0|0|0,0:0|0:0|0:0|0:0,0:0:0:0:
368,276,195995,2,0,L|356:184,1,75,0|0,1:0|0:0,0:0:0:0:
324,204,196289,1,0,0:0:0:0:
292,204,196387,6,0,L|300:124,1,75,2|0,0:0|0:0,0:0:0:0:
266,126,196681,1,0,0:0:0:0:
232,120,196779,2,0,L|256:40,1,75,0|0,1:0|0:0,0:0:0:0:
222,35,197073,1,0,0:0:0:0:
190,23,197171,1,2,0:0:0:0:
71,118,197367,1,0,0:0:0:0:
77,135,197465,1,0,0:0:0:0:
83,152,197563,2,0,L|59:228,1,75,0|0,1:0|0:0,0:0:0:0:
116,343,197956,5,2,0:0:0:0:
196,252,198152,1,0,0:0:0:0:
204,260,198250,1,0,0:0:0:0:
212,268,198348,1,0,1:0:0:0:
318,194,198544,1,0,0:0:0:0:
326,214,198642,1,0,0:0:0:0:
334,234,198740,1,2,0:0:0:0:
468,168,198936,1,0,0:0:0:0:
464,200,199034,1,0,0:0:0:0:
460,232,199132,2,0,L|490:267,3,37.5,0|0|0|0,1:0|0:0|0:0|0:0,0:0:0:0:
321,175,199524,6,0,L|327:122,3,37.5,2|0|0|0,0:0|0:0|0:0|0:0,0:0:0:0:
238,224,199916,2,0,L|246:268,3,37.5,0|0|0|0,1:0|0:0|0:0|0:0,0:0:0:0:
144,219,200308,2,0,L|125:170,3,37.5,2|0|0|0,0:0|0:0|0:0|0:0,0:0:0:0:
64,272,200700,2,0,P|48:308|40:356,1,75,0|0,1:0|0:0,0:0:0:0:
208,100,201092,6,0,P|224:64|232:16,1,75,2|0,0:0|0:0,0:0:0:0:
176,100,201386,1,0,0:0:0:0:
144,100,201484,2,0,L|172:180,1,75,0|0,1:0|0:0,0:0:0:0:
392,224,201877,2,0,L|364:144,1,75,2|0,0:0|0:0,0:0:0:0:
364,240,202171,1,0,0:0:0:0:
336,256,202269,2,0,P|320:292|312:340,1,75,0|0,1:0|0:0,0:0:0:0:
204,264,202661,5,2,0:0:0:0:
412,324,202857,1,0,0:0:0:0:
412,324,202955,1,0,0:0:0:0:
412,324,203053,1,0,1:0:0:0:
376,104,203249,1,0,0:0:0:0:
376,104,203347,1,0,0:0:0:0:
376,104,203445,2,0,L|300:96,1,75,2|0,0:0|0:0,0:0:0:0:
412,68,203739,1,0,0:0:0:0:
448,32,203837,2,0,L|360:20,1,75,0|0,1:0|0:0,0:0:0:0:
128,76,204229,6,0,L|212:68,1,75,2|0,0:2|0:0,0:0:0:0:
112,108,204523,1,0,0:0:0:0:
96,140,204621,2,0,L|184:132,1,75,8|2,0:0|0:2,0:0:0:0:
180,164,204915,1,0,0:0:0:0:
188,196,205013,1,0,0:0:0:0:
376,196,205209,1,0,0:0:0:0:
372,224,205308,1,0,0:0:0:0:
368,252,205406,2,0,L|316:316,1,75,8|2,0:0|0:2,0:0:0:0:
188,196,205798,5,0,0:0:0:0:
163,208,205896,1,0,0:0:0:0:
138,221,205994,1,0,0:0:0:0:
113,234,206092,1,0,0:0:0:0:
88,247,206190,5,8,0:3:0:0:
95,275,206288,1,8,0:3:0:0:
102,302,206386,1,8,0:3:0:0:
109,329,206484,1,8,0:3:0:0:
116,356,206582,5,4,0:3:0:0:
144,356,206680,1,4,0:3:0:0:
172,356,206778,1,4,0:3:0:0:
201,356,206876,1,4,0:3:0:0:
229,356,206974,5,8,0:0:0:0:
368,356,207170,1,8,0:0:0:0:
504,260,207366,6,0,P|448:256|388:240,1,112.5,2|0,0:0|0:0,0:0:0:0:
320,256,207758,2,0,L|316:204,1,37.5,0|0,1:0|0:0,0:0:0:0:
240,280,207954,2,0,L|224:220,1,37.5,2|0,0:0|0:0,0:0:0:0:
144,248,208150,2,0,P|192:220|228:168,1,112.5,2|0,0:0|0:0,0:0:0:0:
176,96,208542,2,0,L|224:100,1,37.5,0|0,1:0|0:0,0:0:0:0:
244,16,208738,2,0,L|276:64,1,37.5,2|0,0:0|0:0,0:0:0:0:
348,56,208935,6,0,L|380:36,3,37.5,2|0|0|0,0:0|0:0|0:0|0:0,0:0:0:0:
372,132,209327,2,0,L|424:136,1,37.5,0|0,1:0|0:0,0:0:0:0:
312,192,209523,2,0,L|336:232,1,37.5,2|0,0:0|0:0,0:0:0:0:
308,332,209719,2,0,L|276:376,3,37.5,2|0|0|0,0:0|0:0|0:0|0:0,0:0:0:0:
196,296,210111,2,0,L|192:240,1,37.5,0|0,1:0|0:0,0:0:0:0:
96,332,210307,2,0,L|68:372,1,37.5,2|0,0:0|0:0,0:0:0:0:
32,260,210503,6,0,L|24:132,1,112.5,2|0,0:0|0:0,0:0:0:0:
96,56,210895,2,0,L|112:100,1,37.5,0|0,1:0|0:0,0:0:0:0:
184,160,211091,2,0,L|196:124,1,37.5,2|0,0:0|0:0,0:0:0:0:
276,44,211287,2,0,L|284:168,1,112.5,2|0,0:0|0:0,0:0:0:0:
385,112,211679,2,0,L|401:67,1,37.5,0|0,1:0|0:0,0:0:0:0:
495,155,211875,2,0,L|447:176,1,37.5,2|0,0:0|0:0,0:0:0:0:
366,237,212071,6,0,L|444:260,1,75,2|0,0:0|0:0,0:0:0:0:
436,344,212365,2,0,L|456:376,2,37.5,0|0|0,0:0|1:0|0:0,0:0:0:0:
356,344,212660,2,0,L|332:384,1,37.5,2|0,0:0|0:0,0:0:0:0:
288,296,212856,6,0,L|240:304,3,37.5,2|0|0|0,0:0|0:0|0:0|0:0,0:0:0:0:
256,208,213248,2,0,B|205:199|205:199|176:184,1,75,0|2,1:0|0:0,0:0:0:0:
32,64,213640,6,0,B|96:44|96:44|144:48,1,112.5,2|0,0:0|0:0,0:0:0:0:
148,80,214032,1,0,1:0:0:0:
140,112,214130,1,0,0:0:0:0:
124,140,214228,1,2,0:0:0:0:
96,156,214326,1,0,0:0:0:0:
64,164,214424,6,0,P|52:220|60:288,1,112.5,2|0,0:0|0:0,0:0:0:0:
68,308,214816,1,0,1:0:0:0:
92,332,214914,1,0,0:0:0:0:
120,348,215012,1,2,0:0:0:0:
152,356,215110,1,0,0:0:0:0:
184,356,215208,6,0,L|184:308,3,37.5,2|0|0|0,0:0|0:0|0:0|0:0,0:0:0:0:
265,307,215600,2,0,L|276:271,1,37.5,0|0,1:0|0:0,0:0:0:0:
361,267,215796,2,0,L|381:234,1,37.5,2|0,0:0|0:0,0:0:0:0:
462,282,215992,2,0,L|495:260,3,37.5,2|0|0|0,0:0|0:0|0:0|0:0,0:0:0:0:
448,148,216385,2,0,L|464:96,1,37.5,0|0,1:0|0:0,0:0:0:0:
369,82,216581,2,0,L|359:36,1,37.5,2|0,0:0|0:0,0:0:0:0:
264,40,216777,5,2,0:0:0:0:
232,44,216875,1,0,0:0:0:0:
200,56,216973,1,0,0:0:0:0:
172,76,217071,1,0,0:0:0:0:
152,104,217169,6,0,L|160:152,1,37.5,0|0,1:0|0:0,0:0:0:0:
88,176,217365,2,0,L|80:224,1,37.5,2|0,1:2|0:0,0:0:0:0:
68,300,217561,5,2,0:0:0:0:
100,284,217659,1,0,0:0:0:0:
132,280,217757,1,0,0:0:0:0:
164,280,217855,1,0,0:0:0:0:
196,292,217953,6,0,L|192:336,1,37.5,0|0,1:0|0:0,0:0:0:0:
280,336,218149,2,0,L|288:380,1,37.5,2|0,1:2|0:0,0:0:0:0:
416,352,218345,5,2,0:2:0:0:
396,316,218443,1,0,0:0:0:0:
388,276,218541,1,0,0:0:0:0:
388,232,218639,1,0,0:0:0:0:
396,192,218737,6,0,L|440:176,1,46.875,0|0,0:0|2:0,0:0:0:0:
416,100,218933,2,0,L|456:68,1,46.875,2|0,0:2|2:0,0:0:0:0:
304,56,219129,6,0,L|312:104,1,46.875,2|0,0:2|0:1,0:0:0:0:
228,88,219325,2,0,L|236:144,1,46.875,0|0,0:0|2:0,0:0:0:0:
264,232,219521,2,0,L|212:216,1,46.875,0|0,0:0|2:0,0:0:0:0:
232,304,219717,2,0,L|180:288,1,46.875,2|0,0:2|2:0,0:0:0:0:
96,356,219913,6,0,B|84:296|84:296|56:280,1,93.75,2|0,0:2|0:0,0:0:0:0:
24,148,220306,1,2,0:3:0:0:
40,156,220404,1,0,0:0:0:0:
56,164,220502,1,0,0:0:0:0:
212,168,220698,1,0,0:0:0:0:
228,20,220894,1,0,0:0:0:0:
220,40,220992,1,0,0:0:0:0:
212,60,221090,2,0,P|248:92|304:104,1,93.75,2|0,0:3|0:0,0:0:0:0:
452,44,221482,5,0,0:0:0:0:
420,76,221580,1,0,0:0:0:0:
400,120,221678,1,0,0:0:0:0:
392,168,221776,1,0,0:0:0:0:
396,216,221874,2,0,L|428:308,1,93.75,2|0,0:3|0:0,0:0:0:0:
264,360,222266,1,0,0:0:0:0:
268,312,222364,1,0,0:0:0:0:
272,264,222462,1,0,0:0:0:0:
276,216,222560,1,0,0:0:0:0:
280,168,222658,2,0,P|268:120|232:88,1,93.75,2|0,0:3|0:0,0:0:0:0:
8,160,223050,6,0,L|108:164,1,93.75
148,164,223344,1,0,0:0:0:0:
196,164,223442,1,2,0:3:0:0:
364,296,223639,1,0,0:0:0:0:
316,292,223737,1,0,0:0:0:0:
268,288,223835,1,0,0:0:0:0:
220,284,223933,1,0,0:0:0:0:
196,244,224031,1,0,0:0:0:0:
172,204,224129,1,0,0:0:0:0:
148,164,224227,2,0,L|172:72,1,93.75,2|0,0:3|0:0,0:0:0:0:
312,208,224619,5,0,0:0:0:0:
352,184,224717,1,0,0:0:0:0:
392,160,224815,1,0,0:0:0:0:
432,136,224913,1,0,0:0:0:0:
472,112,225011,2,0,L|452:8,1,93.75,2|0,0:3|0:0,0:0:0:0:
264,20,225403,1,0,0:0:0:0:
252,64,225501,1,0,0:0:0:0:
240,108,225599,1,0,0:0:0:0:
228,152,225697,1,0,0:0:0:0:
216,196,225795,2,0,L|232:288,1,93.75,2|0,0:3|0:0,0:0:0:0:
88,280,226187,5,0,0:0:0:0:
60,240,226285,1,0,0:0:0:0:
16,252,226383,1,0,0:0:0:0:
12,300,226481,1,0,0:0:0:0:
56,320,226579,2,0,L|148:276,1,93.75,2|0,0:3|0:0,0:0:0:0:
88,20,226971,2,0,L|52:112,1,93.75
80,144,227265,1,0,0:0:0:0:
128,136,227364,2,0,L|168:36,1,93.75,2|0,0:3|0:0,0:0:0:0:
308,96,227756,5,0,0:0:0:0:
336,136,227854,1,0,0:0:0:0:
379,123,227952,1,0,0:0:0:0:
384,76,228050,1,0,0:0:0:0:
340,56,228148,2,0,L|248:100,1,93.75,2|0,0:3|0:0,0:0:0:0:
284,352,228540,2,0,L|320:260,1,93.75
292,228,228834,1,0,0:0:0:0:
244,236,228933,2,0,L|204:336,1,93.75,2|0,0:3|0:0,0:0:0:0:
380,348,229324,5,0,0:0:0:0:
396,304,229422,1,0,0:0:0:0:
440,292,229520,1,0,0:0:0:0:
456,248,229618,1,0,0:0:0:0:
500,236,229716,2,0,L|472:144,1,93.75,2|0,0:3|0:0,0:0:0:0:
312,32,230108,1,0,0:0:0:0:
328,76,230206,1,0,0:0:0:0:
296,108,230304,1,0,0:0:0:0:
312,152,230402,1,0,0:0:0:0:
280,184,230500,2,0,L|184:152,1,93.75,2|0,0:3|0:0,0:0:0:0:
118,17,230892,5,0,0:0:0:0:
86,36,230990,1,0,0:0:0:0:
65,66,231088,1,0,0:0:0:0:
59,103,231186,1,0,0:0:0:0:
76,136,231285,5,0,0:0:0:0:
94,163,231383,1,0,0:0:0:0:
99,195,231481,1,0,0:0:0:0:
90,226,231579,1,0,0:0:0:0:
71,248,231677,5,0,0:0:0:0:
53,269,231775,1,0,0:0:0:0:
48,297,231873,1,0,0:0:0:0:
55,323,231971,1,0,0:0:0:0:
74,344,232069,5,4,0:2:0:0:
280,152,232461,5,0,0:0:0:0:
276,164,232559,1,0,0:0:0:0:
272,176,232657,1,0,0:0:0:0:
212,328,233049,1,4,0:2:0:0:
376,136,233441,1,0,0:0:0:0:
352,216,233637,2,0,L|320:308,1,75,8|2,0:0|2:0,0:0:0:0:
472,112,234225,5,0,0:0:0:0:
448,192,234421,2,0,L|424:272,1,75,8|0,0:0|0:0,0:0:0:0:
376,136,234814,1,4,0:3:0:0:
272,48,235010,1,8,0:0:0:0:
152,108,235206,1,8,0:0:0:0:
256,192,235402,1,8,0:0:0:0:
135,257,235598,6,0,B|105:296|118:340|168:370|214:344|244:287|256:192|256:192|294:262|300:344|300:344|318:269|336:228|357:208|404:181|404:181|369:187|338:178,1,719.999978027344,4|0,0:0|2:0,0:0:0:0:
256,192,246953,5,8,0:0:0:0:
256,208,247353,1,0,0:0:0:0:
256,228,247753,1,8,0:0:0:0:
256,252,248153,6,0,L|256:312,2,56.2500021457673,4|0|0,0:0|0:0|0:0,0:0:0:0:
256,96,248561,5,2,0:3:0:0:
448,44,248753,1,0,0:0:0:0:
464,64,248849,1,0,0:0:0:0:
480,84,248945,2,0,P|484:148|460:200,1,112.500004291535
328,340,249329,2,0,P|324:276|348:224,1,112.500004291535,2|0,0:3|0:0,0:0:0:0:
316,244,249623,1,0,0:0:0:0:
288,252,249721,2,0,L|172:228,1,112.500004291535
36,344,250112,5,2,0:3:0:0:
20,136,250308,1,0,0:0:0:0:
40,132,250406,1,0,0:0:0:0:
60,128,250504,2,0,L|176:152,1,112.500004291535
192,148,250798,1,0,0:0:0:0:
212,144,250896,1,2,0:3:0:0:
392,40,251092,1,0,0:0:0:0:
364,36,251190,1,0,0:0:0:0:
336,32,251288,6,0,P|312:72|312:144,1,112.500004291535
320,164,251582,1,0,0:0:0:0:
332,188,251680,1,2,0:3:0:0:
496,296,251876,1,0,0:0:0:0:
468,292,251974,1,0,0:0:0:0:
440,288,252072,2,0,L|328:328,1,112.500004291535
304,324,252366,1,0,0:0:0:0:
276,320,252464,2,0,P|224:288|196:240,1,112.500004291535,2|0,0:3|0:0,0:0:0:0:
216,72,252856,5,4,0:2:0:0:
84,220,253052,1,0,0:0:0:0:
60,208,253150,1,0,0:0:0:0:
36,196,253248,2,0,L|144:156,1,112.500004291535,2|0,0:3|0:0,0:0:0:0:
428,176,253640,1,0,0:0:0:0:
412,200,253737,1,0,0:0:0:0:
396,224,253835,1,0,0:0:0:0:
224,184,254031,1,2,0:3:0:0:
216,156,254129,1,0,0:0:0:0:
212,128,254227,1,0,0:0:0:0:
212,100,254325,1,0,0:0:0:0:
216,72,254423,6,0,L|280:52,2,56.2500021457673,4|0|0,0:0|0:0|0:0,0:0:0:0:
56,44,254815,5,2,0:3:0:0:
104,232,255011,1,2,0:3:0:0:
104,232,255109,1,0,0:0:0:0:
104,232,255207,2,0,P|108:288|96:348,1,112.500004291535
136,332,255501,1,0,0:0:0:0:
176,324,255599,2,0,P|236:328|292:352,1,112.500004291535,2|0,0:3|0:0,0:0:0:0:
238,220,255991,5,0,0:0:0:0:
312,104,256187,1,0,0:0:0:0:
332,124,256285,1,0,0:0:0:0:
348,144,256383,2,0,P|368:200|364:264,1,112.500004291535,2|2,0:3|0:3,0:0:0:0:
356,280,256677,1,0,0:0:0:0:
340,304,256775,2,0,L|436:232,1,112.500004291535
476,20,257167,2,0,L|484:84,1,56.2500021457673,2|0,0:3|0:0,0:0:0:0:
428,44,257363,2,0,L|404:108,1,56.2500021457673
376,52,257559,6,0,P|312:52|260:36,1,112.500004291535,4|0,0:2|0:0,0:0:0:0:
240,48,257852,1,0,0:0:0:0:
212,56,257950,1,2,0:3:0:0:
8,96,258146,2,0,P|72:96|124:112,1,112.500004291535,2|0,0:3|0:0,0:0:0:0:
144,120,258440,1,0,0:0:0:0:
168,136,258538,1,0,0:0:0:0:
270,211,258734,1,2,0:3:0:0:
300,203,258832,1,0,0:0:0:0:
333,201,258930,1,0,0:0:0:0:
371,207,259028,1,0,0:0:0:0:
400,216,259126,6,0,L|460:196,1,56.2500021457673,4|0,0:2|0:0,0:0:0:0:
440,280,259322,2,0,L|452:344,1,56.2500021457673,0|0,0:0|0:0,0:0:0:0:
376,328,259518,2,0,L|312:352,1,56.2500021457673
336,264,259714,2,0,L|324:200,1,56.2500021457673
264,296,259910,5,4,0:2:0:0:
233,281,260008,1,0,0:0:0:0:
200,276,260106,1,0,0:0:0:0:
166,280,260204,1,0,0:0:0:0:
134,311,260302,5,4,0:2:0:0:
79,315,260400,1,0,0:0:0:0:
33,284,260498,1,0,0:0:0:0:
22,229,260596,1,0,0:0:0:0:
44,176,260694,6,0,L|96:144,2,56.2500021457673,4|0|0,0:0|0:0|0:0,0:0:0:0:
208,200,261086,5,2,0:3:0:0:
328,24,261282,1,0,0:0:0:0:
356,28,261380,1,0,0:0:0:0:
384,32,261478,2,0,P|384:100|364:144,1,112.500004291535
280,312,261869,1,2,0:3:0:0:
308,308,261967,1,0,0:0:0:0:
336,304,262065,1,0,0:0:0:0:
364,300,262163,1,0,0:0:0:0:
392,296,262261,2,0,P|440:260|472:216,1,112.500004291535
264,64,262653,5,2,0:3:0:0:
48,72,262849,1,0,0:0:0:0:
68,92,262947,1,0,0:0:0:0:
88,112,263045,1,0,0:0:0:0:
108,132,263143,1,0,0:0:0:0:
128,152,263241,1,0,0:0:0:0:
256,316,263437,1,2,0:3:0:0:
248,288,263535,1,0,0:0:0:0:
240,260,263633,1,0,0:0:0:0:
232,232,263731,1,0,0:0:0:0:
224,204,263829,6,0,L|300:112,1,112.500004291535,4|0,0:2|0:0,0:0:0:0:
320,132,264123,1,0,0:0:0:0:
344,148,264221,1,2,0:3:0:0:
508,48,264417,1,0,0:0:0:0:
508,48,264515,1,0,0:0:0:0:
508,48,264613,2,0,P|444:64|388:56,1,112.500004291535
408,84,264907,1,0,0:0:0:0:
416,112,265005,2,0,P|424:160|420:232,1,112.500004291535,2|0,0:3|0:0,0:0:0:0:
348,348,265397,5,4,0:2:0:0:
132,320,265592,1,0,0:0:0:0:
132,320,265690,1,0,0:0:0:0:
132,320,265788,2,0,P|196:304|252:312,1,112.500004291535,2|0,0:3|0:0,0:0:0:0:
120,200,266180,1,0,0:0:0:0:
100,180,266278,1,0,0:0:0:0:
80,160,266376,1,0,0:0:0:0:
220,20,266572,1,2,0:3:0:0:
228,48,266670,1,0,0:0:0:0:
236,76,266768,1,0,0:0:0:0:
244,104,266866,1,0,0:0:0:0:
252,132,266964,6,0,L|320:160,2,56.2500021457673,4|0|0,0:0|0:0|0:0,0:0:0:0:
248,312,267356,5,2,0:3:0:0:
448,332,267552,1,2,0:3:0:0:
448,332,267650,1,0,0:0:0:0:
448,332,267748,2,0,P|476:276|480:216,1,112.500004291535,0|0,0:0|0:0,0:0:0:0:
448,208,268042,1,0,0:0:0:0:
416,188,268140,2,0,P|424:132|452:80,1,112.500004291535,2|0,0:3|0:0,0:0:0:0:
328,140,268532,5,0,0:0:0:0:
228,224,268728,1,0,0:0:0:0:
192,236,268826,1,0,0:0:0:0:
152,244,268924,2,0,P|92:244|28:228,1,112.500004291535,2|2,0:3|0:3,0:0:0:0:
16,200,269218,1,0,0:0:0:0:
12,160,269316,2,0,P|20:104|48:56,1,112.500004291535
84,44,269609,1,0,0:0:0:0:
128,56,269707,2,0,L|116:128,1,56.2500021457673,2|0,0:3|0:0,0:0:0:0:
192,92,269903,2,0,L|196:160,1,56.2500021457673
264,120,270099,6,0,P|280:168|308:232,1,112.500004291535,4|0,0:2|0:0,0:0:0:0:
328,244,270393,1,0,0:0:0:0:
348,264,270491,1,2,0:3:0:0:
476,60,270687,2,0,P|416:60|356:68,1,112.500004291535,2|0,0:3|0:0,0:0:0:0:
360,108,270981,1,0,0:0:0:0:
356,148,271079,1,0,0:0:0:0:
484,240,271275,1,2,0:3:0:0:
468,276,271373,1,0,0:0:0:0:
452,312,271471,1,0,0:0:0:0:
256,332,271667,5,4,0:2:0:0:
241,301,271765,1,0,0:0:0:0:
236,268,271863,1,0,0:0:0:0:
240,234,271961,1,0,0:0:0:0:
271,202,272059,5,2,0:2:0:0:
276,144,272157,1,0,0:0:0:0:
244,96,272255,1,0,0:0:0:0:
188,92,272353,1,0,0:0:0:0:
128,116,272451,6,0,L|108:56,1,56.2500021457673,4|0,0:2|0:0,0:0:0:0:
60,144,272647,2,0,L|8:164,1,56.2500021457673
88,212,272843,2,0,L|108:268,1,56.2500021457673,4|0,0:2|0:0,0:0:0:0:
156,184,273039,2,0,L|212:164,1,56.2500021457673
400,240,273235,6,0,L|308:272,1,93.75,0|0,0:0|0:0,0:0:0:0:
276,284,273528,1,0,0:0:0:0:
240,296,273626,1,2,0:3:0:0:
96,340,273822,1,8,0:0:0:0:
28,164,274018,2,0,L|144:176,1,93.75,0|0,0:0|0:0,0:0:0:0:
148,176,274312,1,0,0:0:0:0:
176,178,274410,1,2,0:3:0:0:
296,192,274606,1,8,0:0:0:0:
416,40,274802,5,0,0:0:0:0:
272,24,274998,1,0,0:0:0:0:
244,20,275096,1,0,0:0:0:0:
216,16,275194,2,0,L|260:112,1,93.75,2|8,0:3|0:0,0:0:0:0:
156,260,275586,1,0,0:0:0:0:
300,244,275782,1,0,0:0:0:0:
328,240,275880,1,0,0:0:0:0:
356,236,275978,2,0,L|316:328,1,93.75,2|8,0:3|0:0,0:0:0:0:
256,102,276370,5,2,0:2:0:0:
156,260,276566,1,2,0:2:0:0:
319,322,276762,1,2,0:2:0:0:
152,340,277545,5,2,0:2:0:0:
424,144,277937,1,4,0:2:0:0:
88,144,278329,1,2,0:2:0:0:
360,340,278721,1,4,0:2:0:0:
256,24,279113,1,4,0:2:0:0:
256,192,279505,5,4,0:0:0:0:
256,192,279701,1,4,0:0:0:0:
