osu file format v14

[General]
AudioFilename: Nightwish - She Is My Sin.mp3
AudioLeadIn: 2000
PreviewTime: 88460
Countdown: 0
SampleSet: Soft
StackLeniency: 0.7
Mode: 0
LetterboxInBreaks: 0
WidescreenStoryboard: 0

[Editor]
Bookmarks: 12752,37881,66110,75520,88077,125710,144531,194721,207268,219815,232363
DistanceSpacing: 1
BeatDivisor: 4
GridSize: 4
TimelineZoom: 1

[Metadata]
Title:She Is My Sin
TitleUnicode:She Is My Sin
Artist:Nightwish
ArtistUnicode:Nightwish
Creator:liangv587
Version:Hard
Source:
Tags:wishmaster tarja
BeatmapID:566373
BeatmapSetID:233875

[Difficulty]
HPDrainRate:5
CircleSize:3.8
OverallDifficulty:6
ApproachRate:7
SliderMultiplier:1.5
SliderTickRate:1

[Events]
//Background and Video events
0,0,"b1.jpg",0,0
//Break Periods
2,126008,134318
2,238928,246053
//Storyboard Layer 0 (Background)
//Storyboard Layer 1 (Fail)
//Storyboard Layer 2 (Pass)
//Storyboard Layer 3 (Foreground)
//Storyboard Sound Samples

[TimingPoints]
327,391.359432485323,4,1,1,70,1,0
12067,380.710659898477,4,1,1,70,1,0
12447,403.225806451613,4,1,2,70,1,0
12850,400,4,1,1,70,1,0
14450,392.106862745098,4,1,1,70,1,0
37976,-100,4,2,2,70,0,0
43661,-100,4,1,1,70,0,0
47288,-100,4,2,2,70,0,0
53072,-100,4,1,1,70,0,0
56699,-100,4,2,2,70,0,0
62483,-100,4,1,1,70,0,0
66110,-100,4,2,2,70,0,0
71893,-100,4,1,1,70,0,0
75520,-133.333333333333,4,1,1,70,0,0
84931,-100,4,1,1,70,0,0
86597,-133.333333333333,4,2,0,70,0,0
86793,-133.333333333333,4,2,1,40,0,0
87381,-133.333333333333,4,2,0,50,0,0
87773,-100,4,1,1,60,0,0
88166,-133.333333333333,4,1,2,80,0,1
113260,-100,4,1,1,70,0,0
135120,-100,4,2,2,70,0,0
140904,-100,4,1,1,70,0,0
144923,-133.333333333333,4,1,1,70,0,0
153942,-100,4,1,1,70,0,0
157176,-133.333333333333,4,1,2,80,0,1
182271,-100,4,1,1,70,0,0
194819,-100,4,2,1,70,0,0
204131,-100,4,1,1,70,0,0
207268,-100,4,2,1,70,0,0
218247,-80,4,1,1,80,0,0
219913,-80,4,1,2,80,0,1
232461,-100,4,1,1,70,0,0
235598,391.26181936746,4,2,1,70,1,0
235598,-133.333333333333,4,2,1,70,0,0
237065,-133.333333333333,4,2,1,30,0,0
238043,-133.333333333333,4,2,1,10,0,0
246553,400,4,1,1,50,1,0
248153,408.163265306122,4,1,2,80,1,1
248153,-80,4,1,2,80,0,1
248561,384.15306122449,4,1,2,80,1,1
248561,-80,4,1,2,80,0,1
249329,392.003136025088,4,1,2,80,1,1
249329,-80,4,1,2,80,0,1
249721,391.900718484651,4,1,2,80,1,1
249721,-80,4,1,2,80,0,1
273235,-90.9090909090909,4,1,1,80,0,0
277447,-100,4,1,1,70,0,0

[Colours]
Combo1 : 231,152,152
Combo2 : 118,175,80
Combo3 : 234,223,172
Combo4 : 22,160,147

[HitObjects]
256,244,327,6,0,L|196:296,2,75,2|0|2,0:2|0:0|0:2,0:0:0:0:
256,160,2870,5,2,0:2:0:0:
256,160,3262,1,2,0:2:0:0:
200,208,3457,2,0,L|136:264,2,75,2|0|2,0:2|0:0|0:2,0:0:0:0:
256,72,6001,5,2,0:2:0:0:
256,72,6393,1,2,0:2:0:0:
191,117,6588,2,0,L|115:173,2,75,2|0|2,0:2|0:0|0:2,0:0:0:0:
360,56,7762,5,4,0:2:0:0:
428,192,8154,1,4,0:2:0:0:
360,328,8545,1,2,0:2:0:0:
152,328,8936,1,2,0:2:0:0:
84,192,9328,1,4,0:2:0:0:
152,56,9719,1,4,0:2:0:0:
256,192,10110,12,4,12447,0:0:0:0:
176,260,12850,6,0,P|244:288|320:292,1,150,4|8,0:2|0:0,0:0:0:0:
396,256,13450,1,0,0:0:0:0:
324,212,13650,2,0,P|299:136|334:74,1,150,0|8,0:0|0:0,0:0:0:0:
411,66,14250,1,0,0:0:0:0:
392,148,14450,2,0,B|464:172|464:172|492:248,1,150,0|8,0:0|0:0,0:0:0:0:
461,319,15038,1,0,0:0:0:0:
378,319,15234,2,0,L|298:355,1,75,0|0,0:0|0:0,0:0:0:0:
241,303,15626,2,0,L|325:263,1,75,8|0,0:0|0:0,0:0:0:0:
308,192,16018,6,0,B|240:224|240:224|164:224,1,150,4|8,0:2|0:0,0:0:0:0:
104,168,16606,1,0,0:0:0:0:
168,116,16802,2,0,B|220:116|220:116|292:80|292:80|312:80,1,150,0|8,0:0|0:0,0:0:0:0:
368,136,17390,1,0,0:0:0:0:
308,192,17586,2,0,P|292:264|332:328,1,150,0|8,0:0|0:0,0:0:0:0:
412,340,18175,1,0,0:0:0:0:
476,292,18371,2,0,P|448:264|412:240,1,75,0|0,0:0|0:0,0:0:0:0:
368,136,18763,2,0,P|408:152|444:172,1,75,8|0,0:0|0:0,0:0:0:0:
436,56,19155,6,0,P|357:54|280:68,1,150,4|8,0:2|0:0,0:0:0:0:
140,160,19939,2,0,P|217:158|292:144,1,150,8|4,0:0|0:2,0:0:0:0:
456,200,20723,1,4,0:2:0:0:
308,220,21115,1,2,0:2:0:0:
332,368,21507,1,2,0:2:0:0:
480,348,21900,1,4,0:2:0:0:
456,200,22292,6,0,L|376:212,1,75,4|0,0:2|0:0,0:0:0:0:
368,292,22684,2,0,L|280:272,1,75,0|0,0:0|0:0,0:0:0:0:
228,324,23076,2,0,L|188:252,1,75,0|0,0:0|0:0,0:0:0:0:
112,272,23468,2,0,L|120:188,1,75,0|0,0:0|0:0,0:0:0:0:
64,136,23860,6,0,L|96:104,3,37.5
92,68,24252,2,0,L|132:68,3,37.5,0|0|0|0,0:0|0:0|0:0|0:0,0:0:0:0:
156,36,24644,2,0,L|196:56,3,37.5,0|0|0|0,0:0|0:0|0:0|0:0,0:0:0:0:
224,32,25036,2,0,L|216:116,1,75,0|0,0:0|0:0,0:0:0:0:
292,144,25428,6,0,P|340:120|400:108,1,112.5,4|0,0:2|0:0,0:0:0:0:
397,108,25821,2,0,L|389:188,1,75,8|0,0:0|0:0,0:0:0:0:
424,256,26213,2,0,P|364:268|312:296,1,112.5,0|0,0:0|0:0,0:0:0:0:
318,291,26605,2,0,L|310:371,1,75,8|0,0:0|0:0,0:0:0:0:
232,336,26997,2,0,B|192:324|192:324|108:328,1,112.5
121,327,27389,2,0,B|128:300|128:300|120:248,1,75,8|0,0:0|0:0,0:0:0:0:
84,180,27781,1,0,0:0:0:0:
104,100,27977,1,0,0:0:0:0:
104,100,28075,1,0,0:0:0:0:
104,100,28173,2,0,B|112:72|112:72|148:32,1,75,8|0,0:0|0:0,0:0:0:0:
296,104,28565,6,0,L|184:108,1,112.5,4|0,0:2|0:0,0:0:0:0:
172,136,28957,2,0,P|192:164|244:192,1,75,8|0,0:0|0:0,0:0:0:0:
180,268,29350,2,0,P|236:276|288:252,1,112.5,0|0,0:0|0:0,0:0:0:0:
312,268,29742,2,0,L|308:192,1,75,8|0,0:0|0:0,0:0:0:0:
404,240,30134,2,0,L|396:128,1,112.5
392,96,30526,2,0,P|380:56|344:24,1,75,8|0,0:0|0:0,0:0:0:0:
276,28,30918,1,0,0:0:0:0:
228,92,31114,1,0,0:0:0:0:
228,92,31212,1,0,0:0:0:0:
228,92,31310,2,0,P|240:132|276:164,1,75,8|0,0:0|0:0,0:0:0:0:
340,180,31702,5,4,0:2:0:0:
296,252,31898,1,0,0:0:0:0:
372,280,32094,1,8,0:0:0:0:
328,352,32290,2,0,L|368:376,2,37.5,0|0|8,0:0|0:0|0:0,0:0:0:0:
164,340,32879,2,0,L|80:356,1,75,4|0,0:2|2:0,0:0:0:0:
128,268,33271,2,0,L|44:284,1,75,4|0,0:2|2:0,0:0:0:0:
92,196,33663,2,0,L|108:116,1,75,2|0,0:2|2:0,0:0:0:0:
173,185,34055,2,0,L|188:112,1,75,2|0,0:2|2:0,0:0:0:0:
256,176,34447,2,0,L|270:102,1,75,4|0,0:2|2:0,0:0:0:0:
352,96,34839,5,4,0:2:0:0:
428,240,35231,2,0,L|428:320,2,75
328,240,35819,2,0,L|304:320,2,75,0|0|0,0:0|0:0|0:0,0:0:0:0:
256,176,36407,6,0,L|216:200,3,37.5
184,180,36800,2,0,L|168:216,3,37.5,0|0|0|0,0:0|0:0|0:0|0:0,0:0:0:0:
128,228,37192,2,0,L|128:268,3,37.5,0|0|0|0,0:0|0:0|0:0|0:0,0:0:0:0:
100,296,37584,2,0,L|124:328,3,37.5,0|0|0|0,0:0|0:0|0:0|0:0,0:0:0:0:
128,368,37976,6,0,P|200:344|232:272,1,150,4|0,0:0|1:0,0:0:0:0:
236,192,38564,2,0,B|288:224|288:224|380:216,1,150,2|0,0:0|0:0,0:0:0:0:
441,153,39152,1,0,1:0:0:0:
324,16,39544,2,0,P|252:40|220:112,1,150,2|0,0:0|1:0,0:0:0:0:
236,192,40132,2,0,B|194:227|194:227|86:221,1,150,2|0,0:0|0:0,0:0:0:0:
19,178,40721,1,0,1:0:0:0:
11,88,40917,1,0,0:0:0:0:
90,49,41113,6,0,P|164:56|221:103,1,150,2|0,0:0|1:0,0:0:0:0:
232,280,41897,1,2,0:0:0:0:
332,128,42289,1,0,1:0:0:0:
168,188,42681,1,2,0:0:0:0:
344,240,43073,1,0,1:0:0:0:
222,105,43465,2,0,L|334:129,1,112.5,2|0,0:0|0:0,0:0:0:0:
348,132,43858,2,0,L|388:64,1,75,0|0,0:0|0:0,0:0:0:0:
444,136,44250,6,0,L|492:60,2,75,0|0|8,0:0|0:0|0:0,0:0:0:0:
388,208,44838,1,0,0:0:0:0:
402,296,45034,2,0,L|486:294,2,75,0|0|8,0:0|0:0|0:0,0:0:0:0:
312,301,45622,1,0,0:0:0:0:
234,255,45818,2,0,L|277:185,2,75,0|8|0,0:0|0:0|0:0,0:0:0:0:
187,332,46406,1,0,0:0:0:0:
110,284,46602,2,0,L|29:286,1,75,8|0,0:0|0:0,0:0:0:0:
12,199,46994,2,0,L|93:197,1,75,0|8,0:0|0:0,0:0:0:0:
161,146,47386,6,0,P|192:81|160:12,1,150,4|0,0:0|1:0,0:0:0:0:
272,94,47975,2,0,P|337:125|406:93,1,150,2|0,0:0|0:0,0:0:0:0:
492,111,48563,2,0,L|488:199,1,75,0|0,1:0|0:0,0:0:0:0:
407,224,48955,2,0,P|376:289|408:358,1,150,2|0,0:0|1:0,0:0:0:0:
296,276,49543,2,0,P|231:245|162:277,1,150,2|0,0:0|0:0,0:0:0:0:
229,336,50131,1,0,1:0:0:0:
325,184,50523,6,0,P|327:109|285:44,1,150,2|0,0:0|1:0,0:0:0:0:
201,68,51111,2,0,P|199:143|241:208,1,150,2|0,0:0|0:0,0:0:0:0:
324,184,51700,1,0,1:0:0:0:
156,248,52092,1,2,0:0:0:0:
304,352,52484,1,0,1:0:0:0:
472,288,52876,2,0,P|416:280|356:280,1,112.5,2|0,0:0|0:0,0:0:0:0:
333,258,53268,2,0,L|324:184,1,75
348,96,53660,5,0,0:0:0:0:
436,72,53856,1,0,0:0:0:0:
412,160,54052,1,8,0:0:0:0:
240,100,54444,1,0,0:0:0:0:
176,36,54640,1,0,0:0:0:0:
264,12,54837,1,8,0:0:0:0:
124,124,55229,2,0,L|32:104,1,75,0|8,0:0|0:0,0:0:0:0:
4,188,55621,2,0,L|84:204,1,75,0|0,0:0|0:0,0:0:0:0:
97,290,56013,1,8,0:0:0:0:
186,300,56209,1,0,0:0:0:0:
222,218,56405,1,0,0:0:0:0:
156,157,56601,1,8,0:0:0:0:
186,300,56797,6,0,P|270:294|338:262,1,150,4|0,0:0|1:0,0:0:0:0:
412,303,57385,2,0,P|401:222|416:150,1,150,2|0,0:0|0:0,0:0:0:0:
455,75,57973,1,0,1:0:0:0:
455,75,58365,2,0,P|371:81|303:113,1,150,2|0,0:0|1:0,0:0:0:0:
229,72,58954,2,0,P|240:153|225:225,1,150,2|0,0:0|0:0,0:0:0:0:
186,300,59542,2,0,L|103:319,1,75,0|0,1:0|0:0,0:0:0:0:
6,263,59934,6,0,L|155:228,1,150,2|0,0:0|1:0,0:0:0:0:
230,134,60522,2,0,L|77:169,1,150,2|0,0:0|0:0,0:0:0:0:
11,114,61110,1,0,1:0:0:0:
152,229,61502,2,0,L|300:195,1,150,2|0,0:0|1:0,0:0:0:0:
330,111,62090,1,0,0:0:0:0:
271,43,62287,2,0,L|151:71,1,112.5,2|0,0:0|0:0,0:0:0:0:
133,79,62679,2,0,P|113:114|115:154,1,75
152,229,63071,6,0,L|120:303,2,75,0|0|8,0:0|0:0|0:0,0:0:0:0:
239,209,63659,1,0,0:0:0:0:
282,287,63855,2,0,L|276:367,2,75,0|0|8,0:0|0:0|0:0,0:0:0:0:
350,228,64443,1,0,0:0:0:0:
435,257,64639,2,0,L|459:338,2,75,0|8|0,0:0|0:0|0:0,0:0:0:0:
470,174,65227,1,0,0:0:0:0:
429,93,65423,2,0,L|492:44,1,75,8|0,0:0|0:0,0:0:0:0:
403,15,65815,2,0,L|340:65,1,75,0|8,0:0|0:0,0:0:0:0:
214,147,66208,6,0,P|287:135|365:139,1,150,4|0,0:0|1:0,0:0:0:0:
350,228,66796,2,0,P|277:240|199:236,1,150,2|0,0:0|0:0,0:0:0:0:
130,181,67384,1,0,1:0:0:0:
48,15,67776,2,0,P|49:84|23:170,1,150,2|0,0:0|1:0,0:0:0:0:
111,231,68364,2,0,P|110:162|136:76,1,150,2|0,0:0|0:0,0:0:0:0:
214,48,68952,1,0,1:0:0:0:
214,48,69148,1,0,0:0:0:0:
282,106,69344,6,0,P|283:175|257:261,1,150,2|0,0:0|1:0,0:0:0:0:
345,322,69933,2,0,P|344:253|370:167,1,150,2|0,0:0|0:0,0:0:0:0:
427,110,70521,1,0,1:0:0:0:
447,315,70913,1,2,0:0:0:0:
269,283,71305,1,0,1:0:0:0:
99,342,71697,2,0,P|122:292|127:235,1,112.5,2|0,0:0|0:0,0:0:0:0:
121,210,72089,2,0,L|192:243,1,75,0|0,0:0|0:0,0:0:0:0:
263,191,72481,5,0,0:0:0:0:
275,101,72677,1,0,0:0:0:0:
216,32,72873,1,8,0:0:0:0:
37,57,73266,1,8,0:0:0:0:
60,144,73462,1,0,0:0:0:0:
121,210,73658,2,0,P|154:192|180:156,1,75,4|0,0:2|2:0,0:0:0:0:
274,118,74050,2,0,P|273:157|255:206,1,75,4|0,0:2|2:0,0:0:0:0:
349,166,74442,2,0,P|340:207|323:241,1,75,2|0,0:2|2:0,0:0:0:0:
414,223,74834,2,0,P|400:258|380:291,1,75,2|0,0:2|2:0,0:0:0:0:
471,287,75226,2,0,P|453:319|427:350,1,75,4|0,0:2|2:0,0:0:0:0:
312,348,75618,5,4,0:2:0:0:
312,348,75814,1,0,0:0:0:0:
239,356,76010,2,0,P|179:356|121:338,1,112.500004291535,2|0,0:3|0:0,0:0:0:0:
63,308,76598,2,0,L|32:363,1,56.2500021457673,0|2,0:0|0:3,0:0:0:0:
169,259,77187,1,0,0:0:0:0:
169,259,77383,1,0,0:0:0:0:
242,259,77579,2,0,P|298:250|352:224,1,112.500004291535,2|0,0:3|0:0,0:0:0:0:
404,179,78167,1,0,0:0:0:0:
404,179,78363,2,0,L|423:205,1,28.1250010728836,2|0,0:3|0:0,0:0:0:0:
412,83,78755,5,0,0:0:0:0:
412,83,78951,1,0,0:0:0:0:
339,71,79147,2,0,P|283:80|229:106,1,112.500004291535,8|0,0:0|0:0,0:0:0:0:
206,171,79735,2,0,L|244:221,1,56.2500021457673,0|8,0:0|0:0,0:0:0:0:
145,328,80323,1,0,0:0:0:0:
145,328,80520,1,0,0:0:0:0:
212,300,80716,2,0,P|265:293|328:306,1,112.500004291535,8|0,0:0|0:0,0:0:0:0:
383,344,81304,1,0,0:0:0:0:
383,344,81500,2,0,L|391:377,1,28.1250010728836,8|0,0:0|0:0,0:0:0:0:
449,279,81892,5,0,0:0:0:0:
449,279,82088,1,0,0:0:0:0:
398,226,82284,2,0,P|386:167|388:102,1,112.500004291535,2|0,0:3|0:0,0:0:0:0:
406,44,82872,2,0,L|344:38,1,56.2500021457673,0|2,0:0|0:3,0:0:0:0:
227,119,83460,1,0,0:0:0:0:
227,119,83656,1,0,0:0:0:0:
264,181,83852,2,0,P|276:240|274:305,1,112.500004291535,2|0,0:3|0:0,0:0:0:0:
255,362,84441,1,0,0:0:0:0:
255,362,84637,2,0,L|216:372,1,28.1250010728836,2|0,0:3|0:0,0:0:0:0:
104,292,85029,5,0,0:0:0:0:
68,208,85225,2,0,P|65:170|78:127,1,75,8|0,0:0|0:0,0:0:0:0:
152,180,85617,1,0,0:0:0:0:
188,264,85813,2,0,P|192:302|176:348,1,75,8|0,0:0|0:0,0:0:0:0:
104,292,86205,1,0,0:0:0:0:
68,208,86401,1,8,0:0:0:0:
152,180,86597,6,0,P|305:312|182:337,1,450.000017166138,4|4,0:0|0:0,0:0:0:0:
372,356,88558,5,2,0:3:0:0:
431,312,88754,2,0,P|439:250|428:200,1,112.500004291535,0|0,0:0|0:0,0:0:0:0:
384,143,89342,1,2,0:3:0:0:
262,61,89734,2,0,L|326:65,1,56.2500021457673
390,70,90126,1,2,0:3:0:0:
384,143,90322,2,0,P|363:195|311:239,1,112.500004291535,0|0,0:0|0:0,0:0:0:0:
250,242,90910,1,2,0:3:0:0:
183,210,91106,1,0,0:0:0:0:
207,141,91302,6,0,L|264:136,1,56.2500021457673,4|0,0:2|0:0,0:0:0:0:
263,62,91695,1,2,0:3:0:0:
190,56,91891,2,0,P|141:83|120:141,1,112.500004291535,0|0,0:0|0:0,0:0:0:0:
112,206,92479,1,2,0:3:0:0:
250,242,92871,1,0,0:0:0:0:
288,303,93067,2,0,L|274:348,2,28.1250010728836,0|0|2,0:0|0:0|0:3,0:0:0:0:
358,322,93459,2,0,L|346:366,2,28.1250010728836,0|0|2,0:0|0:0|0:3,0:0:0:0:
430,338,93851,2,0,L|417:384,2,28.1250010728836,0|0|2,0:0|0:0|0:3,0:0:0:0:
460,200,94439,5,4,0:2:0:0:
386,197,94635,1,0,0:0:0:0:
325,238,94831,1,2,0:3:0:0:
289,303,95027,2,0,P|236:320|166:319,1,112.500004291535,2|0,0:3|0:0,0:0:0:0:
116,283,95616,1,2,0:3:0:0:
40,158,96008,1,0,0:0:0:0:
95,110,96204,1,0,0:0:0:0:
166,97,96400,1,2,0:3:0:0:
233,124,96596,2,0,P|290:123|345:104,1,112.500004291535,2|0,0:3|0:0,0:0:0:0:
410,80,97184,2,0,L|427:145,1,56.2500021457673,2|0,0:3|0:0,0:0:0:0:
449,203,97576,6,0,L|512:213,2,56.2500021457673,4|0|2,0:2|0:0|0:3,0:0:0:0:
376,192,98164,2,0,P|363:251|360:303,1,112.500004291535,2|0,0:3|0:0,0:0:0:0:
378,373,98752,1,2,0:3:0:0:
244,313,99145,1,4,0:2:0:0:
171,321,99341,1,0,0:0:0:0:
100,300,99537,2,0,L|94:265,3,28.1250010728836,0|0|0|0,0:0|0:0|0:0|0:0,0:0:0:0:
63,254,99929,2,0,L|65:169,1,84.3750032186509,4|0,0:2|2:0,0:0:0:0:
47,138,100321,2,0,L|39:100,3,28.1250010728836
18,81,100713,5,4,0:0:0:0:
152,139,101105,5,2,0:3:0:0:
211,181,101301,2,0,L|231:292,1,112.500004291535,0|0,0:0|0:0,0:0:0:0:
294,327,101889,1,2,0:3:0:0:
431,276,102281,2,0,L|359:288,1,56.2500021457673
312,250,102674,1,2,0:3:0:0:
366,201,102870,2,0,L|371:86,1,112.500004291535,0|0,0:0|0:0,0:0:0:0:
317,38,103458,1,2,0:3:0:0:
248,62,103654,1,0,0:0:0:0:
177,43,103850,6,0,L|174:104,1,56.2500021457673,4|0,0:2|0:0,0:0:0:0:
104,120,104242,1,2,0:3:0:0:
156,171,104438,2,0,P|143:234|104:273,1,112.500004291535,0|0,0:0|0:0,0:0:0:0:
49,307,105026,1,2,0:3:0:0:
195,305,105418,1,0,0:0:0:0:
267,314,105614,2,0,L|286:345,2,28.1250010728836,0|0|2,0:0|0:0|0:3,0:0:0:0:
323,267,106006,2,0,L|343:297,2,28.1250010728836,0|0|2,0:0|0:0|0:3,0:0:0:0:
375,215,106399,2,0,L|396:243,2,28.1250010728836,0|0|2,0:0|0:0|0:3,0:0:0:0:
270,117,106987,5,4,0:2:0:0:
228,177,107183,1,0,0:0:0:0:
231,250,107379,1,2,0:3:0:0:
268,314,107575,2,0,L|380:330,1,112.500004291535,2|0,0:3|0:0,0:0:0:0:
425,272,108163,1,2,0:3:0:0:
337,122,108555,1,0,0:0:0:0:
277,80,108751,1,0,0:0:0:0:
204,83,108947,1,2,0:3:0:0:
140,120,109143,2,0,L|124:232,1,112.500004291535,2|0,0:3|0:0,0:0:0:0:
167,290,109731,2,0,P|193:294|225:291,1,56.2500021457673,2|0,0:3|0:0,0:0:0:0:
294,279,110124,6,0,L|302:351,2,56.2500021457673,4|0|2,0:2|0:0|0:3,0:0:0:0:
369,286,110712,2,0,L|386:175,1,112.500004291535,2|0,0:3|0:0,0:0:0:0:
457,159,111300,1,2,0:3:0:0:
383,32,111692,2,0,L|415:42,2,28.1250010728836,4|0|0,0:2|0:0|0:0,0:0:0:0:
347,96,112084,2,0,L|379:106,2,28.1250010728836,0|0|0,0:0|0:0|0:0,0:0:0:0:
313,161,112476,2,0,L|353:175,2,28.1250010728836,4|0|0,0:2|0:0|0:0,0:0:0:0:
283,227,112868,1,4,0:2:0:0:
185,139,113260,6,0,P|137:115|77:103,1,112.5,4|0,0:0|0:0,0:0:0:0:
80,103,113653,2,0,L|88:183,1,75,8|0,0:0|0:0,0:0:0:0:
53,251,114045,2,0,P|113:263|165:291,1,112.5,0|0,0:0|0:0,0:0:0:0:
159,286,114437,2,0,L|167:366,1,75,8|0,0:0|0:0,0:0:0:0:
245,331,114829,2,0,B|285:319|285:319|369:323,1,112.5
356,322,115221,2,0,B|349:295|349:295|357:243,1,75,8|0,0:0|0:0,0:0:0:0:
393,175,115613,1,0,0:0:0:0:
373,95,115809,1,0,0:0:0:0:
373,95,115907,1,0,0:0:0:0:
373,95,116005,2,0,B|365:67|365:67|329:27,1,75,8|0,0:0|0:0,0:0:0:0:
181,99,116397,6,0,P|239:97|293:103,1,112.5,0|0,0:0|0:0,0:0:0:0:
305,131,116789,2,0,P|285:159|233:187,1,75,8|0,0:0|0:0,0:0:0:0:
297,263,117181,2,0,P|241:271|189:247,1,112.5,0|0,0:0|0:0,0:0:0:0:
165,263,117574,2,0,P|171:232|175:187,1,75,8|0,0:0|0:0,0:0:0:0:
73,235,117966,2,0,P|80:188|81:123,1,112.5
85,91,118358,2,0,P|97:51|133:19,1,75,8|0,0:0|0:0,0:0:0:0:
201,23,118750,1,0,0:0:0:0:
249,87,118946,1,0,0:0:0:0:
249,87,119044,1,0,0:0:0:0:
249,87,119142,2,0,P|237:127|201:159,1,75,8|0,0:0|0:0,0:0:0:0:
137,175,119534,5,0,0:0:0:0:
181,247,119730,1,0,0:0:0:0:
105,275,119926,1,8,0:0:0:0:
149,347,120122,2,0,L|109:371,2,37.5,0|0|8,0:0|0:0|0:0,0:0:0:0:
313,335,120710,2,0,L|397:351,1,75,4|0,0:2|2:0,0:0:0:0:
422,277,121103,2,0,L|349:263,1,75,4|0,0:2|2:0,0:0:0:0:
385,191,121495,2,0,L|369:111,1,75,2|0,0:2|2:0,0:0:0:0:
289,107,121887,2,0,L|305:187,1,75,2|0,0:2|2:0,0:0:0:0:
221,171,122279,2,0,L|205:91,1,75,4|0,0:2|2:0,0:0:0:0:
125,91,122671,5,4,0:2:0:0:
256,192,123063,12,4,125808,0:0:0:0:
330,108,135218,6,0,P|417:105|478:88,1,150,4|0,0:0|1:0,0:0:0:0:
415,22,135807,2,0,P|327:24|267:42,1,150,2|0,0:0|0:0,0:0:0:0:
242,127,136395,1,0,1:0:0:0:
72,229,136787,2,0,P|74:141|92:81,1,150,2|0,0:0|1:0,0:0:0:0:
158,144,137375,2,0,P|155:231|138:292,1,150,2|0,0:0|0:0,0:0:0:0:
51,311,137963,2,0,P|69:347|103:371,1,75,0|0,1:0|0:0,0:0:0:0:
179,374,138355,6,0,P|214:307|229:230,1,150,2|0,0:0|1:0,0:0:0:0:
311,187,138943,2,0,P|311:274|294:335,1,150,2|0,0:0|0:0,0:0:0:0:
384,339,139532,1,0,1:0:0:0:
459,174,139924,2,0,P|385:189|307:186,1,150,2|0,0:0|1:0,0:0:0:0:
242,127,140512,1,0,0:0:0:0:
327,98,140708,2,0,P|385:98|446:79,1,112.5,2|0,0:0|0:0,0:0:0:0:
437,83,141100,2,0,L|398:17,1,75,0|0,0:0|0:0,0:0:0:0:
308,20,141492,5,0,0:0:0:0:
220,40,141688,1,0,0:0:0:0:
242,127,141884,1,8,0:0:0:0:
77,52,142276,1,8,0:0:0:0:
66,142,142472,1,0,0:0:0:0:
102,224,142668,2,0,P|141:209|172:183,1,75,4|0,0:2|2:0,0:0:0:0:
251,216,143061,2,0,P|230:252|200:278,1,75,0|0,0:2|2:0,0:0:0:0:
225,362,143453,2,0,P|256:344|288:311,1,75,2|0,0:2|2:0,0:0:0:0:
337,244,143845,2,0,P|356:283|382:315,1,75,2|0,0:2|2:0,0:0:0:0:
434,240,144237,2,0,P|416:210|406:170,1,75,4|0,0:2|2:0,0:0:0:0:
430,97,144629,5,4,0:2:0:0:
430,97,144825,1,0,0:0:0:0:
358,114,145021,2,0,P|304:117|242:106,1,112.500004291535,2|0,0:3|0:0,0:0:0:0:
178,81,145609,2,0,L|170:142,1,56.2500021457673,0|2,0:0|0:3,0:0:0:0:
24,158,146197,1,0,0:0:0:0:
88,192,146393,1,0,0:0:0:0:
157,213,146590,2,0,P|212:222|268:219,1,112.500004291535,2|0,0:3|0:0,0:0:0:0:
339,203,147178,1,0,0:0:0:0:
339,203,147374,2,0,L|347:250,1,28.1250010728836,2|0,0:3|0:0,0:0:0:0:
413,315,147766,5,0,0:0:0:0:
413,315,147962,1,0,0:0:0:0:
458,257,148158,2,0,P|471:202|467:143,1,112.500004291535,8|0,0:0|0:0,0:0:0:0:
438,79,148746,2,0,L|380:92,1,56.2500021457673,0|8,0:0|0:0,0:0:0:0:
233,38,149334,1,0,0:0:0:0:
255,107,149530,1,0,0:0:0:0:
260,179,149726,2,0,P|253:235|227:286,1,112.500004291535,8|0,0:0|0:0,0:0:0:0:
187,345,150315,1,0,0:0:0:0:
187,345,150511,2,0,L|151:325,1,28.1250010728836,8|0,0:0|0:0,0:0:0:0:
38,329,150903,5,0,0:0:0:0:
38,329,151099,1,0,0:0:0:0:
31,256,151295,2,0,P|38:200|64:149,1,112.500004291535,2|0,0:3|0:0,0:0:0:0:
119,104,151883,2,0,L|173:138,1,56.2500021457673,0|2,0:0|0:3,0:0:0:0:
306,52,152471,1,0,0:0:0:0:
302,125,152667,1,0,0:0:0:0:
312,197,152863,2,0,P|323:258|350:305,1,112.500004291535,2|0,0:3|0:0,0:0:0:0:
409,339,153451,1,0,0:0:0:0:
409,339,153647,2,0,L|441:331,1,28.1250010728836,2|0,0:3|0:0,0:0:0:0:
455,161,154040,5,0,0:0:0:0:
431,74,154236,2,0,P|399:53|354:51,1,75,8|0,0:0|0:0,0:0:0:0:
373,138,154628,1,0,0:0:0:0:
393,225,154824,2,0,P|374:263|342:282,1,75,8|0,0:0|0:0,0:0:0:0:
312,197,155216,1,0,0:0:0:0:
287,110,155412,1,8,0:0:0:0:
223,174,155608,5,0,0:0:0:0:
250,259,155804,2,0,L|205:260,6,37.5
278,344,156588,2,0,L|319:344,6,37.5,4|4|8|8|12|12|4,0:3|0:3|0:3|0:3|0:3|0:3|0:0,0:0:0:0:
143,359,157569,5,2,0:3:0:0:
84,315,157765,2,0,P|76:253|87:203,1,112.500004291535,0|0,0:0|0:0,0:0:0:0:
131,146,158353,1,2,0:3:0:0:
253,64,158745,2,0,L|189:68,1,56.2500021457673
125,73,159137,1,2,0:3:0:0:
131,146,159333,2,0,P|152:198|204:242,1,112.500004291535,0|0,0:0|0:0,0:0:0:0:
265,245,159921,1,2,0:3:0:0:
332,213,160117,1,0,0:0:0:0:
308,144,160313,6,0,L|251:139,1,56.2500021457673,4|0,0:2|0:0,0:0:0:0:
252,65,160705,1,2,0:3:0:0:
325,59,160901,2,0,P|374:86|395:144,1,112.500004291535,0|0,0:0|0:0,0:0:0:0:
403,209,161490,1,2,0:3:0:0:
265,245,161882,1,0,0:0:0:0:
227,306,162078,2,0,L|241:351,2,28.1250010728836,0|0|2,0:0|0:0|0:3,0:0:0:0:
158,327,162470,2,0,L|170:371,2,28.1250010728836,0|0|2,0:0|0:0|0:3,0:0:0:0:
87,344,162862,2,0,L|100:390,2,28.1250010728836,0|0|2,0:0|0:0|0:3,0:0:0:0:
55,203,163450,5,4,0:2:0:0:
129,200,163646,1,0,0:0:0:0:
190,241,163842,1,2,0:3:0:0:
226,306,164038,2,0,P|279:323|349:322,1,112.500004291535,2|0,0:3|0:0,0:0:0:0:
399,286,164626,1,2,0:3:0:0:
475,161,165019,1,0,0:0:0:0:
420,113,165215,1,0,0:0:0:0:
349,100,165411,1,2,0:3:0:0:
282,127,165607,2,0,P|225:126|170:107,1,112.500004291535,2|0,0:3|0:0,0:0:0:0:
105,83,166195,2,0,L|88:148,1,56.2500021457673,2|0,0:3|0:0,0:0:0:0:
66,206,166587,6,0,L|3:216,2,56.2500021457673,4|0|2,0:2|0:0|0:3,0:0:0:0:
139,195,167175,2,0,P|152:254|155:306,1,112.500004291535,2|0,0:3|0:0,0:0:0:0:
137,376,167763,1,2,0:3:0:0:
271,316,168155,1,4,0:2:0:0:
344,324,168351,1,0,0:0:0:0:
415,303,168547,2,0,L|421:268,3,28.1250010728836,0|0|0|0,0:0|0:0|0:0|0:0,0:0:0:0:
452,257,168940,2,0,L|450:172,1,84.3750032186509,4|0,0:2|2:0,0:0:0:0:
468,141,169332,2,0,L|476:103,3,28.1250010728836,0|0|0|0,0:0|0:0|0:0|0:0,0:0:0:0:
497,84,169724,5,4,0:0:0:0:
363,142,170116,5,2,0:3:0:0:
304,184,170312,2,0,P|289:233|284:295,1,112.500004291535
221,330,170900,1,2,0:3:0:0:
84,279,171292,2,0,L|156:291,1,56.2500021457673
203,253,171684,1,2,0:3:0:0:
149,204,171880,2,0,P|142:155|146:90,1,112.500004291535,0|0,0:0|0:0,0:0:0:0:
198,41,172469,1,2,0:3:0:0:
267,65,172665,1,0,0:0:0:0:
338,46,172861,6,0,L|341:107,1,56.2500021457673,4|0,0:2|0:0,0:0:0:0:
411,123,173253,1,2,0:3:0:0:
359,174,173449,2,0,P|372:237|411:276,1,112.500004291535,0|0,0:0|0:0,0:0:0:0:
466,310,174037,1,2,0:3:0:0:
320,308,174429,1,0,0:0:0:0:
248,317,174625,2,0,L|229:348,2,28.1250010728836,0|0|2,0:0|0:0|0:3,0:0:0:0:
193,268,175017,2,0,L|173:298,2,28.1250010728836,0|0|2,0:0|0:0|0:3,0:0:0:0:
139,219,175409,2,0,L|118:247,2,28.1250010728836,0|0|2,0:0|0:0|0:3,0:0:0:0:
245,120,175998,5,4,0:2:0:0:
287,180,176194,1,0,0:0:0:0:
284,253,176390,1,2,0:3:0:0:
247,317,176586,2,0,P|192:328|135:333,1,112.500004291535,2|0,0:3|0:0,0:0:0:0:
90,275,177174,1,2,0:3:0:0:
178,125,177566,1,0,0:0:0:0:
238,83,177762,1,0,0:0:0:0:
311,86,177958,1,2,0:3:0:0:
375,123,178154,2,0,P|387:180|391:235,1,112.500004291535,2|0,0:3|0:0,0:0:0:0:
348,293,178742,2,0,P|322:297|290:294,1,56.2500021457673,2|0,0:3|0:0,0:0:0:0:
221,282,179134,6,0,L|213:354,2,56.2500021457673,4|0|2,0:2|0:0|0:3,0:0:0:0:
146,289,179723,2,0,P|134:234|129:178,1,112.500004291535,2|0,0:3|0:0,0:0:0:0:
58,162,180311,1,2,0:3:0:0:
132,35,180703,2,0,L|163:46,3,28.1250010728836,4|0|0|0,0:2|0:0|0:0|0:0,0:0:0:0:
162,77,181095,2,0,L|204:95,3,28.1250010728836,0|0|0|0,0:0|0:0|0:0|0:0,0:0:0:0:
189,121,181487,2,0,L|228:136,3,28.1250010728836,4|0|0|0,0:2|0:0|0:0|0:0,0:0:0:0:
224,163,181879,2,0,P|265:164|317:154,1,84.3750032186509,4|0,0:2|0:0,0:0:0:0:
343,129,182271,6,0,L|363:185,2,37.5,0|0|8,0:0|0:0|0:0,0:0:0:0:
490,26,182859,1,4,0:2:0:0:
448,201,183252,2,0,L|480:292,2,75,0|8|0,0:0|0:0|0:0,0:0:0:0:
466,112,183840,2,0,P|434:88|390:73,1,75
312,60,184232,2,0,L|313:21,2,37.5,0|0|8,0:0|0:0|0:0,0:0:0:0:
240,114,184624,1,0,0:0:0:0:
164,65,184820,1,0,0:0:0:0:
94,121,185016,2,0,P|84:178|93:236,1,112.5,8|0,0:0|2:0,0:0:0:0:
105,274,185408,6,0,L|72:294,2,37.5,0|0|8,0:0|0:0|0:0,0:0:0:0:
178,326,185800,2,0,P|214:337|262:336,1,75,0|0,0:0|0:0,0:0:0:0:
304,265,186192,2,0,P|268:254|220:255,1,75,0|0,0:0|0:0,0:0:0:0:
224,163,186584,2,0,P|260:174|308:173,1,75,8|0,0:0|0:0,0:0:0:0:
274,87,186977,1,8,0:0:0:0:
274,87,187369,1,0,0:0:0:0:
363,97,187565,1,8,0:0:0:0:
434,151,187761,2,0,L|473:139,2,37.5,0|0|0,0:0|0:0|0:0,0:0:0:0:
387,227,188153,2,0,P|397:284|388:342,1,112.5,8|0,0:0|0:0,0:0:0:0:
355,367,188545,6,0,L|311:375,2,37.5,0|0|0,0:0|0:0|0:0,0:0:0:0:
145,277,189133,1,0,0:0:0:0:
145,277,189231,1,0,0:0:0:0:
145,277,189329,2,0,B|194:268|194:268|301:289,1,150,0|8,0:0|0:0,0:0:0:0:
350,218,189917,1,0,0:0:0:0:
350,218,190015,1,0,0:0:0:0:
350,218,190113,2,0,L|396:229,2,37.5
293,147,190505,1,0,0:0:0:0:
204,163,190702,2,0,B|155:172|155:172|48:151,1,150,0|0,0:0|0:0,0:0:0:0:
40,64,191290,2,0,L|127:81,1,75,0|0,0:0|0:0,0:0:0:0:
182,20,191682,6,0,P|199:51|200:99,1,75,0|0,0:0|0:0,0:0:0:0:
204,134,191976,2,0,P|237:118|282:117,1,75,8|0,0:0|0:0,0:0:0:0:
319,123,192270,1,8,0:0:0:0:
401,158,192466,2,0,B|379:233|379:233|400:278,2,112.5,4|2|8,0:2|0:2|0:0,0:0:0:0:
468,217,193250,2,0,P|467:312|420:346,1,150
339,335,193838,1,0,0:0:0:0:
263,286,194034,2,0,P|323:245|394:264,1,150,0|0,0:0|0:0,0:0:0:0:
202,350,194819,6,0,B|165:315|165:315|151:209,1,150,2|0,0:0|1:0,0:0:0:0:
84,157,195407,1,0,0:0:0:0:
92,67,195603,2,0,B|127:30|127:30|233:16,1,150,2|0,0:0|1:0,0:0:0:0:
292,76,196191,1,0,0:0:0:0:
286,167,196387,2,0,B|384:154|384:154|419:117,1,150,2|0,0:0|1:0,0:0:0:0:
499,158,196975,1,0,0:0:0:0:
480,246,197171,2,0,B|437:293|437:293|348:305,1,150,2|0,0:0|1:0,0:0:0:0:
192,219,197956,6,0,P|210:302|193:371,1,150,2|0,0:0|1:0,0:0:0:0:
112,329,198544,2,0,P|94:246|111:177,1,150,0|0,0:0|0:0,0:0:0:0:
184,131,199132,2,0,L|302:152,1,112.5,0|0,1:0|0:0,0:0:0:0:
316,111,199524,2,0,L|356:223,1,112.5,2|0,0:0|0:0,0:0:0:0:
398,221,199916,2,0,L|320:312,1,112.5,0|0,1:0|0:0,0:0:0:0:
337,350,200308,2,0,L|219:329,1,112.5,2|0,0:0|0:0,0:0:0:0:
197,364,200700,2,0,L|170:291,1,75,0|0,1:0|0:0,0:0:0:0:
82,311,201092,6,0,P|144:274|182:206,1,150,2|0,0:0|1:0,0:0:0:0:
169,118,201681,1,0,0:0:0:0:
115,45,201877,2,0,L|262:106,1,150,2|0,0:0|1:0,0:0:0:0:
322,44,202465,1,0,0:0:0:0:
392,99,202661,2,0,P|378:172|324:233,1,150,2|0,0:0|1:0,0:0:0:0:
254,276,203249,1,0,0:0:0:0:
164,285,203445,2,0,L|322:348,1,150,2|0,0:0|1:0,0:0:0:0:
256,192,204229,12,4,206582,0:3:0:0:
256,192,206974,5,8,0:0:0:0:
256,192,207170,1,8,0:0:0:0:
165,198,207366,6,0,P|147:121|152:40,1,150,2|0,0:0|1:0,0:0:0:0:
239,43,207954,1,2,0:0:0:0:
295,113,208150,2,0,P|377:103|413:50,1,150,2|0,0:0|1:0,0:0:0:0:
326,27,208738,1,2,0:0:0:0:
239,43,208935,2,0,L|256:194,1,150,2|0,0:0|1:0,0:0:0:0:
213,271,209523,1,2,0:0:0:0:
127,297,209719,2,0,P|48:278|16:216,1,150,2|0,0:0|1:0,0:0:0:0:
105,209,210307,1,2,0:0:0:0:
191,233,210503,6,0,L|175:315,1,75,2|0,0:0|0:0,0:0:0:0:
261,331,210895,1,0,1:0:0:0:
261,331,211091,1,2,0:0:0:0:
350,324,211287,2,0,L|366:248,1,75,2|0,0:0|0:0,0:0:0:0:
280,220,211679,1,0,1:0:0:0:
280,220,211875,1,2,0:0:0:0:
191,233,212071,2,0,P|199:180|246:136,1,112.5,2|0,0:0|0:0,0:0:0:0:
264,123,212463,2,0,L|177:109,1,75,0|2,1:0|0:0,0:0:0:0:
155,27,212856,2,0,B|251:42|251:42|303:24,1,150,2|0,0:0|1:0,0:0:0:0:
475,69,213640,6,0,B|419:59|419:59|324:96,1,150,2|0,0:0|1:0,0:0:0:0:
331,182,214228,1,2,0:0:0:0:
335,271,214424,2,0,L|409:284,1,75,2|0,0:0|0:0,0:0:0:0:
412,373,214816,2,0,L|335:358,1,75,0|2,1:0|0:0,0:0:0:0:
249,361,215208,2,0,B|153:376|153:376|101:358,1,150,2|0,0:0|1:0,0:0:0:0:
87,270,215796,1,2,0:0:0:0:
137,195,215992,2,0,L|211:220,1,75,2|0,0:0|0:0,0:0:0:0:
257,143,216385,2,0,L|186:119,1,75,0|2,1:0|0:0,0:0:0:0:
136,43,216777,6,0,L|224:33,1,75,2|0,0:0|0:0,0:0:0:0:
298,51,217169,1,0,1:0:0:0:
298,51,217365,1,2,1:2:0:0:
332,134,217561,2,0,L|248:144,1,75,2|0,0:0|0:0,0:0:0:0:
217,223,217953,1,0,1:0:0:0:
217,223,218149,1,2,1:2:0:0:
268,302,218345,6,0,L|374:323,1,93.75,2|0,0:2|0:0,0:0:0:0:
445,262,218737,1,0,0:0:0:0:
433,159,218933,1,2,0:2:0:0:
332,134,219129,2,0,L|235:154,1,93.75,2|0,0:2|0:0,0:0:0:0:
139,129,219521,1,0,0:0:0:0:
145,26,219717,1,2,0:2:0:0:
232,80,219913,6,0,P|228:183|160:232,1,187.5,2|2,0:2|0:3,0:0:0:0:
69,270,220502,2,0,P|137:330|227:313,1,187.5,0|0,0:0|0:0,0:0:0:0:
308,250,221090,1,2,0:3:0:0:
354,342,221286,1,0,0:0:0:0:
411,256,221482,2,0,B|425:194|401:138|401:138|387:103|405:62,1,187.5,0|2,0:0|0:3,0:0:0:0:
298,66,222070,2,0,B|284:128|308:184|308:184|322:219|304:260,1,187.5,0|0,0:0|0:0,0:0:0:0:
227,315,222658,2,0,P|204:272|206:224,1,93.75,2|0,0:3|0:0,0:0:0:0:
212,125,223050,6,0,P|125:162|45:111,1,187.5,0|2,0:0|0:3,0:0:0:0:
135,57,223639,2,0,P|221:23|299:67,1,187.5,0|0,0:0|0:0,0:0:0:0:
303,169,224227,1,2,0:3:0:0:
390,113,224423,1,0,0:0:0:0:
394,215,224619,2,0,P|324:271|236:246,1,187.5,0|2,0:0|0:3,0:0:0:0:
31,221,225403,2,0,P|101:165|189:190,1,187.5,0|2,0:0|0:3,0:0:0:0:
261,350,226187,6,0,B|245:291|272:251|272:251|301:208|289:165,1,187.5,0|2,0:0|0:3,0:0:0:0:
189,189,226775,2,0,B|178:151|207:108|207:108|234:68|218:9,1,187.5,0|0,0:0|0:0,0:0:0:0:
122,50,227364,1,2,0:3:0:0:
86,146,227560,1,0,0:0:0:0:
102,247,227756,2,0,P|189:293|266:262,1,187.5,0|2,0:0|0:3,0:0:0:0:
189,189,228344,2,0,P|274:157|353:203,1,187.5,0|0,0:0|0:0,0:0:0:0:
266,262,228932,2,0,P|305:296|350:307,1,93.75,2|0,0:3|0:0,0:0:0:0:
438,263,229324,6,0,P|454:180|386:105,1,187.5,0|2,0:0|0:3,0:0:0:0:
353,203,229912,2,0,P|291:136|305:46,1,187.5,0|0,0:0|0:0,0:0:0:0:
400,6,230500,1,2,0:3:0:0:
391,107,230696,1,0,0:0:0:0:
353,203,230892,2,0,L|350:250,3,46.875
307,249,231285,2,0,L|291:295,3,46.875,0|0|0|0,0:0|0:0|0:0|0:0,0:0:0:0:
250,283,231677,2,0,L|223:322,3,46.875,0|0|0|0,0:0|0:0|0:0|0:0,0:0:0:0:
182,311,232069,1,4,0:2:0:0:
61,198,232461,6,0,L|17:210,2,37.5,0|0|0,0:0|0:0|0:0,0:0:0:0:
205,158,233049,1,4,0:2:0:0:
353,180,233441,1,0,0:0:0:0:
396,250,233637,2,0,L|479:269,1,75,8|2,0:0|2:0,0:0:0:0:
459,96,234225,1,0,0:0:0:0:
379,74,234421,2,0,L|306:111,1,75,8|0,0:0|0:0,0:0:0:0:
247,56,234814,1,4,0:3:0:0:
174,94,235010,1,8,0:0:0:0:
95,69,235206,1,8,0:0:0:0:
34,125,235402,1,8,0:0:0:0:
34,209,235598,6,0,B|84:209|113:157|113:157|68:257|76:349|164:389|241:348|270:220|270:220|296:347|368:386|463:349|474:257|424:152,1,900.000034332277,4|0,0:0|2:0,0:0:0:0:
212,72,246953,6,0,P|187:148|181:223,1,150,8|0,0:0|0:0,0:0:0:0:
328,217,247753,2,0,P|320:142|296:71,1,150,8|4,0:0|0:0,0:0:0:0:
250,285,248561,5,2,0:3:0:0:
339,311,248753,2,0,P|413:256|405:161,1,187.5,0|0,0:0|0:0,0:0:0:0:
368,93,249329,1,2,0:3:0:0:
268,194,249721,2,0,P|266:239|245:293,1,93.75,0|0,0:0|0:3,0:0:0:0:
192,359,250112,1,2,0:3:0:0:
163,270,250308,2,0,B|101:241|38:272|38:272|52:242|52:213,1,187.5
29,124,250896,1,2,0:3:0:0:
116,157,251092,1,0,0:0:0:0:
204,126,251288,6,0,P|221:82|212:30,1,93.75,0|0,0:0|0:0,0:0:0:0:
127,72,251680,1,2,0:3:0:0:
116,157,251876,2,0,P|192:220|274:188,1,187.5,0|0,0:0|0:0,0:0:0:0:
353,234,252464,2,0,P|362:189|348:142,1,93.75,2|0,0:3|0:0,0:0:0:0:
301,62,252856,2,0,P|397:65|442:144,1,187.5,4|2,0:2|0:3,0:0:0:0:
447,230,253444,1,0,0:0:0:0:
353,234,253640,2,0,L|334:334,1,93.75
242,335,254031,1,2,0:3:0:0:
157,294,254227,2,0,L|175:201,1,93.75,0|4,0:0|0:0,0:0:0:0:
301,62,254815,5,2,0:3:0:0:
239,132,255011,2,0,P|148:113|118:26,1,187.5,2|0,0:3|0:0,0:0:0:0:
210,43,255599,1,2,0:3:0:0:
301,62,255795,1,0,0:0:0:0:
329,151,255991,2,0,P|306:197|265:221,1,93.75
177,206,256383,1,2,0:3:0:0:
91,166,256579,2,0,P|99:259|176:302,1,187.5,2|0,0:3|0:0,0:0:0:0:
268,308,257167,1,2,0:3:0:0:
351,265,257363,1,0,0:0:0:0:
443,281,257559,6,0,B|450:214|393:181|393:181|439:181|460:153,1,187.5,4|2,0:2|0:3,0:0:0:0:
397,88,258146,2,0,B|330:81|297:138|297:138|297:92|269:64,1,187.5,2|0,0:3|0:0,0:0:0:0:
189,41,258734,2,0,P|186:88|206:131,1,93.75,2|0,0:3|0:0,0:0:0:0:
255,209,259126,2,0,P|272:319|212:368,1,187.5,4|0,0:2|0:0,0:0:0:0:
188,276,259714,1,0,0:0:0:0:
163,185,259910,2,0,P|190:140|236:117,1,93.75,4|0,0:2|0:0,0:0:0:0:
255,209,260302,1,4,0:2:0:0:
188,276,260498,2,0,P|135:275|92:246,1,93.75,0|4,0:0|0:0,0:0:0:0:
256,116,261086,5,2,0:3:0:0:
339,73,261282,2,0,P|413:128|423:224,1,187.5
405,309,261869,1,2,0:3:0:0:
248,209,262261,2,0,P|256:162|255:115,1,93.75,0|0,0:0|0:3,0:0:0:0:
210,33,262653,1,2,0:3:0:0:
163,114,262849,2,0,B|101:143|38:112|38:112|52:142|52:171,1,187.5,0|0,0:0|0:0,0:0:0:0:
29,260,263437,1,2,0:3:0:0:
116,227,263633,1,0,0:0:0:0:
204,258,263829,6,0,P|221:302|212:354,1,93.75,4|0,0:2|0:0,0:0:0:0:
127,312,264221,1,2,0:3:0:0:
116,227,264417,2,0,P|192:164|274:196,1,187.5,0|0,0:0|0:0,0:0:0:0:
353,150,265005,2,0,P|362:195|348:242,1,93.75,2|0,0:3|0:0,0:0:0:0:
301,322,265397,2,0,P|397:319|442:240,1,187.5,4|2,0:2|0:3,0:0:0:0:
447,154,265984,1,0,0:0:0:0:
353,150,266180,2,0,L|334:50,1,93.75,0|0,0:0|0:0,0:0:0:0:
242,49,266572,1,2,0:3:0:0:
157,90,266768,2,0,L|175:183,1,93.75,0|4,0:0|0:0,0:0:0:0:
301,322,267356,5,2,0:3:0:0:
239,252,267552,2,0,P|148:271|118:358,1,187.5,2|0,0:3|0:0,0:0:0:0:
210,341,268140,1,2,0:3:0:0:
301,322,268336,1,0,0:0:0:0:
329,233,268532,2,0,P|306:187|265:163,1,93.75
177,178,268924,1,2,0:3:0:0:
91,218,269120,2,0,P|99:125|176:82,1,187.5,2|0,0:3|0:0,0:0:0:0:
268,76,269707,1,2,0:3:0:0:
351,119,269903,1,0,0:0:0:0:
443,103,270099,6,0,B|450:170|393:203|393:203|439:203|460:231,1,187.5,4|2,0:2|0:3,0:0:0:0:
397,296,270687,2,0,B|330:303|297:246|297:246|297:292|269:320,1,187.5,2|0,0:3|0:0,0:0:0:0:
189,343,271275,2,0,P|186:296|206:253,1,93.75,2|0,0:3|0:0,0:0:0:0:
255,175,271667,2,0,P|272:65|212:16,1,187.5,4|2,0:2|0:2,0:0:0:0:
188,108,272255,1,0,0:0:0:0:
142,190,272451,2,0,L|35:178,1,93.75,4|0,0:2|0:0,0:0:0:0:
4,262,272843,2,0,L|103:273,1,93.75,4|0,0:2|0:0,0:0:0:0:
138,352,273235,6,0,L|263:366,1,123.75000377655,4|0,0:0|0:0,0:0:0:0:
272,334,273626,2,0,P|280:296|270:248,1,82.5000025177003,2|8,0:3|0:0,0:0:0:0:
345,186,274018,2,0,P|355:249|393:294,1,123.75000377655
424,305,274410,2,0,L|513:278,1,82.5000025177003,2|8,0:3|0:0,0:0:0:0:
482,185,274802,6,0,L|442:107,1,82.5000025177003
411,104,275096,1,0,0:0:0:0:
378,96,275194,2,0,L|341:19,1,82.5000025177003,2|8,0:3|0:0,0:0:0:0:
292,116,275586,2,0,L|216:151,1,82.5000025177003
186,138,275880,1,0,0:0:0:0:
154,128,275978,2,0,L|80:164,1,82.5000025177003,2|8,0:3|0:0,0:0:0:0:
66,262,276370,5,2,0:2:0:0:
125,341,276566,1,2,0:2:0:0:
223,336,276762,1,2,0:2:0:0:
276,47,277545,6,0,P|327:45|345:102,1,112.5,2|0,0:2|2:0,0:0:0:0:
352,134,277937,2,0,P|369:182|320:216,1,112.5,4|0,0:2|2:0,0:0:0:0:
297,239,278329,2,0,P|255:269|209:233,1,112.5,2|0,0:2|2:0,0:0:0:0:
179,216,278721,2,0,P|136:186|155:130,1,112.5,4|0,0:2|2:0,0:0:0:0:
169,99,279113,2,0,P|183:49|243:49,1,112.5,4|0,0:2|2:0,0:0:0:0:
255,81,279505,5,4,0:0:0:0:
255,81,279701,1,4,0:0:0:0:
