osu file format v12

[General]
AudioFilename: Nightwish - 01 - She Is My Sin.mp3
AudioLeadIn: 0
PreviewTime: 88620
Countdown: 0
SampleSet: Normal
StackLeniency: 0.7
Mode: 0
LetterboxInBreaks: 1
WidescreenStoryboard: 0

[Editor]
Bookmarks: 25483,38040,44306,46364,47443,63130,63924,72541,94502,100776,113325,125874,132149,141560,175482,182345,194894,235678
DistanceSpacing: 1
BeatDivisor: 4
GridSize: 16

[Metadata]
Title:She Is My Sin
TitleUnicode:She Is My Sin
Artist:Nightwish
ArtistUnicode:Nightwish
Creator:Shiro
Version:Insane
Source:
Tags:Odaril wishmaster
BeatmapID:250277
BeatmapSetID:92347

[Difficulty]
HPDrainRate:6
CircleSize:4
OverallDifficulty:7
ApproachRate:8
SliderMultiplier:1.79
SliderTickRate:2

[Events]
//Background and Video events
0,0,"background.jpg",0,0
//Break Periods
2,113515,125111
2,182521,194140
2,235860,247465
//Storyboard Layer 0 (Background)
//Storyboard Layer 1 (Fail)
//Storyboard Layer 2 (Pass)
//Storyboard Layer 3 (Foreground)
//Storyboard Sound Samples
//Background Colour Transformations
3,100,163,162,255

[TimingPoints]
396,392.079984316801,4,1,1,70,1,0
37982,-100,4,2,1,70,0,0
44257,-100,4,1,2,78,0,0
44355,-100,4,1,1,78,0,0
44845,-100,4,1,2,78,0,0
45139,-100,4,1,1,78,0,0
45630,-100,4,1,2,78,0,0
45924,-100,4,1,1,78,0,0
46414,-100,4,1,2,78,0,0
46708,-100,4,1,1,78,0,0
47002,-100,4,1,2,78,0,0
47100,-100,4,1,1,78,0,0
47394,-100,4,2,1,78,0,0
53669,-100,4,1,2,78,0,0
53963,-100,4,1,1,78,0,0
54453,-100,4,1,2,78,0,0
54747,-100,4,1,1,78,0,0
55237,-100,4,1,2,78,0,0
55532,-100,4,1,1,78,0,0
56022,-100,4,1,2,78,0,0
56316,-100,4,1,1,78,0,0
56560,-100,4,2,1,48,0,0
56806,-100,4,1,2,78,0,0
56904,-100,4,2,1,78,0,0
63081,-100,4,1,2,78,0,0
63179,-100,4,1,1,78,0,0
63669,-100,4,1,2,78,0,0
63963,-100,4,1,1,78,0,0
64453,-100,4,1,2,78,0,0
64747,-100,4,1,1,78,0,0
65237,-100,4,1,2,78,0,0
65532,-100,4,1,1,78,0,0
65826,-100,4,1,2,78,0,0
65924,-100,4,1,1,78,0,0
66218,-100,4,2,1,78,0,0
72492,-100,4,1,1,78,0,0
72786,-100,4,1,2,78,0,0
73081,-100,4,1,2,78,0,0
73277,-100,4,2,1,78,0,0
73669,-100,4,1,1,78,0,0
75629,-100,4,1,2,78,0,0
75923,-100,4,1,1,78,0,0
76413,-100,4,1,2,78,0,0
76707,-100,4,1,1,78,0,0
76904,-100,4,1,2,78,0,0
77002,-100,4,1,1,78,0,0
77198,-100,4,1,2,78,0,0
77492,-100,4,1,1,78,0,0
77982,-100,4,1,2,78,0,0
78276,-100,4,1,1,78,0,0
78472,-100,4,1,2,78,0,0
78570,-100,4,1,1,78,0,0
78766,-100,4,1,2,78,0,0
79060,-100,4,1,1,78,0,0
79551,-100,4,1,2,78,0,0
79845,-100,4,1,1,78,0,0
80335,-100,4,1,2,78,0,0
80629,-100,4,1,1,78,0,0
81119,-100,4,1,2,78,0,0
81413,-100,4,1,1,78,0,0
81904,-100,4,1,2,78,0,0
82198,-100,4,1,1,78,0,0
82688,-100,4,1,2,78,0,0
82982,-100,4,1,1,78,0,0
83472,-100,4,1,2,78,0,0
83766,-100,4,1,1,78,0,0
84257,-100,4,1,2,78,0,0
84551,-100,4,1,1,78,0,0
86806,-100,4,1,1,5,0,0
88178,-100,4,1,2,90,0,0
88276,-100,4,1,1,90,0,0
88570,-100,4,1,2,90,0,0
88864,-100,4,1,1,90,0,0
89355,-100,4,1,2,90,0,0
89453,-100,4,1,1,90,0,0
89747,-100,4,1,2,90,0,0
89845,-100,4,1,1,90,0,0
90139,-100,4,1,2,90,0,0
90433,-100,4,1,1,90,0,0
90923,-100,4,1,2,90,0,0
91021,-100,4,1,1,90,0,0
91315,-100,4,1,2,90,0,0
91413,-100,4,1,1,90,0,0
91707,-100,4,1,2,90,0,0
92002,-100,4,1,1,90,0,0
92492,-100,4,1,2,90,0,0
92590,-100,4,1,1,90,0,0
92884,-100,4,1,2,90,0,0
93276,-100,4,1,1,90,0,0
93472,-100,4,1,2,90,0,0
93766,-100,4,1,1,90,0,0
93864,-100,4,1,2,90,0,0
94060,-100,4,1,1,90,0,0
94257,-100,4,1,2,90,0,0
94551,-100,4,1,1,90,0,0
94845,-100,4,1,2,90,0,0
95139,-100,4,1,1,90,0,0
95629,-100,4,1,2,90,0,0
95727,-100,4,1,1,90,0,0
96021,-100,4,1,2,90,0,0
96119,-100,4,1,1,90,0,0
96413,-100,4,1,2,90,0,0
96707,-100,4,1,1,90,0,0
97198,-100,4,1,2,90,0,0
97296,-100,4,1,1,90,0,0
97590,-100,4,1,2,90,0,0
97688,-100,4,1,1,90,0,0
97982,-100,4,1,2,90,0,0
98276,-100,4,1,1,90,0,0
98766,-100,4,1,2,90,0,0
98864,-100,4,1,1,90,0,0
100335,-100,4,1,2,90,0,0
100825,-100,4,1,1,90,0,0
101144,-100,4,1,2,90,0,0
101389,-100,4,1,1,90,0,0
101928,-100,4,1,2,90,0,0
101977,-100,4,1,1,90,0,0
102296,-100,4,1,2,90,0,0
102394,-100,4,1,1,90,0,0
102688,-100,4,1,2,90,0,0
102982,-100,4,1,1,90,0,0
103472,-100,4,1,2,90,0,0
103570,-100,4,1,1,90,0,0
103864,-100,4,1,2,90,0,0
103962,-100,4,1,1,90,0,0
104257,-100,4,1,2,90,0,0
104551,-100,4,1,1,90,0,0
105041,-100,4,1,2,90,0,0
105139,-100,4,1,1,90,0,0
105433,-100,4,1,2,90,0,0
105825,-100,4,1,1,90,0,0
106021,-100,4,1,2,90,0,0
106609,-100,4,1,1,90,0,0
106806,-100,4,1,2,90,0,0
107100,-100,4,1,1,90,0,0
107394,-100,4,1,2,90,0,0
107688,-100,4,1,1,90,0,0
108178,-100,4,1,2,90,0,0
108276,-100,4,1,1,90,0,0
108570,-100,4,1,2,90,0,0
108668,-100,4,1,1,90,0,0
108962,-100,4,1,2,90,0,0
109257,-100,4,1,1,90,0,0
109747,-100,4,1,2,90,0,0
109845,-100,4,1,1,90,0,0
110139,-100,4,1,2,90,0,0
110237,-100,4,1,1,90,0,0
110531,-100,4,1,2,90,0,0
110825,-100,4,1,1,90,0,0
111315,-100,4,1,2,90,0,0
111413,-100,4,1,1,90,0,0
111806,-100,4,1,2,90,0,0
112100,-100,4,1,1,90,0,0
112198,-100,4,1,2,90,0,0
112492,-100,4,1,1,90,0,0
112590,-100,4,1,2,90,0,0
112884,-100,4,1,1,90,0,0
112982,-100,4,1,2,90,0,0
113276,-100,4,1,1,90,0,0
125479,-100,4,2,1,78,0,0
132048,-100,4,1,2,78,0,0
132440,-100,4,1,1,78,0,0
132832,-100,4,1,2,78,0,0
133224,-100,4,1,1,78,0,0
133616,-100,4,1,2,78,0,0
134008,-100,4,1,1,78,0,0
134401,-100,4,1,2,78,0,0
134793,-100,4,1,1,78,0,0
134989,-100,4,1,2,78,0,0
135185,-100,4,2,1,78,0,0
141459,-100,4,1,2,78,0,0
141852,-100,4,1,1,78,0,0
142048,-100,4,1,2,78,0,0
142293,-100,4,1,1,78,0,0
142685,-100,4,1,2,78,0,0
144989,-100,4,1,1,78,0,0
145626,-100,4,1,2,78,0,0
145724,-100,4,1,1,78,0,0
145920,-100,4,1,2,78,0,0
146018,-100,4,1,1,78,0,0
146214,-100,4,1,2,78,0,0
146508,-100,4,1,1,78,0,0
147195,-100,4,1,2,78,0,0
147293,-100,4,1,1,78,0,0
147489,-100,4,1,2,78,0,0
147587,-100,4,1,1,78,0,0
147783,-100,4,1,2,78,0,0
148077,-100,4,1,1,78,0,0
148763,-100,4,1,2,78,0,0
148861,-100,4,1,1,78,0,0
149057,-100,4,1,2,78,0,0
149155,-100,4,1,1,78,0,0
149352,-100,4,1,2,78,0,0
149646,-100,4,1,1,78,0,0
150332,-100,4,1,2,78,0,0
150430,-100,4,1,1,78,0,0
150920,-100,4,1,2,78,0,0
151214,-100,4,1,1,78,0,0
151901,-100,4,1,2,78,0,0
151999,-100,4,1,1,78,0,0
152489,-100,4,1,2,78,0,0
152783,-100,4,1,1,78,0,0
153469,-100,4,1,2,78,0,0
153567,-100,4,1,1,78,0,0
154057,-100,4,1,2,78,0,0
154155,-100,4,1,1,78,0,0
154646,-100,4,1,2,78,0,0
154744,-100,4,1,1,78,0,0
155234,-100,4,1,2,78,0,0
155332,-100,4,1,1,78,0,0
155626,-100,4,1,2,78,0,0
155724,-100,4,1,1,78,0,0
156410,-100,4,1,2,78,0,0
156508,-100,4,1,1,78,0,0
157195,-100,4,1,2,90,0,0
157481,-100,4,1,1,90,0,0
157775,-100,4,1,2,90,0,0
157873,-100,4,1,1,90,0,0
158167,-100,4,1,2,90,0,0
158265,-100,4,1,1,90,0,0
158755,-100,4,1,2,90,0,0
159049,-100,4,1,1,90,0,0
159344,-100,4,1,2,90,0,0
159442,-100,4,1,1,90,0,0
159736,-100,4,1,2,90,0,0
159834,-100,4,1,1,90,0,0
160324,-100,4,1,2,90,0,0
160618,-100,4,1,1,90,0,0
160912,-100,4,1,2,90,0,0
161010,-100,4,1,1,90,0,0
161304,-100,4,1,2,90,0,0
161402,-100,4,1,1,90,0,0
161893,-100,4,1,2,90,0,0
162285,-100,4,1,1,90,0,0
162383,-100,4,1,2,90,0,0
163069,-100,4,1,1,90,0,0
163461,-100,4,1,2,90,0,0
163755,-100,4,1,1,90,0,0
164049,-100,4,1,2,90,0,0
164147,-100,4,1,1,90,0,0
164442,-100,4,1,2,90,0,0
164540,-100,4,1,1,90,0,0
165030,-100,4,1,2,90,0,0
165324,-100,4,1,1,90,0,0
165618,-100,4,1,2,90,0,0
165716,-100,4,1,1,90,0,0
166010,-100,4,1,2,90,0,0
166108,-100,4,1,1,90,0,0
166598,-100,4,1,2,90,0,0
166893,-100,4,1,1,90,0,0
167187,-100,4,1,2,90,0,0
167285,-100,4,1,1,90,0,0
167579,-100,4,1,2,90,0,0
167677,-100,4,1,1,90,0,0
169340,-100,4,1,2,90,0,0
170026,-100,4,1,1,90,0,0
170320,-100,4,1,2,90,0,0
170418,-100,4,1,1,90,0,0
170712,-100,4,1,2,90,0,0
170810,-100,4,1,1,90,0,0
171300,-100,4,1,2,90,0,0
171594,-100,4,1,1,90,0,0
171889,-100,4,1,2,90,0,0
171987,-100,4,1,1,90,0,0
172281,-100,4,1,2,90,0,0
172379,-100,4,1,1,90,0,0
172869,-100,4,1,2,90,0,0
173163,-100,4,1,1,90,0,0
173457,-100,4,1,2,90,0,0
173555,-100,4,1,1,90,0,0
173849,-100,4,1,2,90,0,0
173947,-100,4,1,1,90,0,0
174438,-100,4,1,2,90,0,0
174536,-100,4,1,1,90,0,0
174634,-100,4,1,2,90,0,0
174830,-100,4,1,1,90,0,0
175026,-100,4,1,2,90,0,0
175124,-100,4,1,1,90,0,0
175222,-100,4,1,2,90,0,0
175320,-100,4,1,1,90,0,0
175418,-100,4,1,2,90,0,0
175614,-100,4,1,1,90,0,0
175810,-100,4,1,2,90,0,0
175908,-100,4,1,1,90,0,0
176006,-100,4,1,2,90,0,0
176300,-100,4,1,1,90,0,0
176594,-100,4,1,2,90,0,0
176692,-100,4,1,1,90,0,0
176987,-100,4,1,2,90,0,0
177085,-100,4,1,1,90,0,0
177575,-100,4,1,2,90,0,0
177869,-100,4,1,1,90,0,0
178163,-100,4,1,2,90,0,0
178261,-100,4,1,1,90,0,0
178555,-100,4,1,2,90,0,0
178653,-100,4,1,1,90,0,0
179143,-100,4,1,2,90,0,0
179438,-100,4,1,1,90,0,0
179732,-100,4,1,2,90,0,0
179830,-100,4,1,1,90,0,0
180124,-100,4,1,2,90,0,0
180222,-100,4,1,1,90,0,0
180810,-100,4,1,2,90,0,0
181104,-100,4,1,1,90,0,0
181202,-100,4,1,2,90,0,0
181496,-100,4,1,1,90,0,0
181594,-100,4,1,2,90,0,0
181889,-100,4,1,1,90,0,0
194890,392.02874877491,4,1,1,90,1,1
195029,-100,4,1,2,90,0,1
195225,-100,4,1,1,90,0,1
195421,-100,4,1,2,90,0,1
195617,-100,4,1,1,90,0,1
195813,-100,4,1,2,90,0,1
196009,-100,4,1,1,90,0,1
196205,-100,4,1,2,90,0,1
196401,-100,4,1,1,90,0,1
196597,-100,4,1,2,90,0,1
196793,-100,4,1,1,90,0,1
196989,-100,4,1,2,90,0,1
197185,-100,4,1,1,90,0,1
197382,-100,4,1,2,90,0,1
197578,-100,4,1,1,90,0,1
197774,-100,4,1,2,90,0,1
197970,-100,4,1,1,90,0,1
198166,-100,4,1,2,90,0,1
198460,-100,4,1,1,90,0,1
198754,-100,4,1,2,90,0,1
199048,-100,4,1,1,90,0,1
199342,-100,4,1,2,90,0,1
199440,-100,4,1,1,90,0,1
199734,-100,4,1,2,90,0,1
199832,-100,4,1,1,90,0,1
200127,-100,4,1,2,90,0,1
200225,-100,4,1,1,90,0,1
200421,-100,4,1,2,90,0,1
200715,-100,4,1,1,90,0,1
200813,-100,4,1,2,90,0,1
201107,-100,4,1,1,90,0,1
201303,-100,4,1,2,90,0,1
201499,-100,4,1,1,90,0,1
201695,-100,4,1,2,90,0,1
201891,-100,4,1,1,90,0,1
202087,-100,4,1,2,90,0,1
202283,-100,4,1,1,90,0,1
202480,-100,4,1,2,90,0,1
202676,-100,4,1,1,90,0,1
202872,-100,4,1,2,90,0,1
203068,-100,4,1,1,90,0,1
203264,-100,4,1,2,90,0,1
203460,-100,4,1,1,90,0,1
203656,-100,4,1,2,90,0,1
203852,-100,4,1,1,90,0,1
204048,-100,4,1,2,90,0,1
204244,-100,4,1,1,90,0,1
204440,-100,4,1,2,90,0,1
204734,-100,4,1,1,90,0,1
205029,-100,4,1,2,90,0,1
205323,-100,4,1,1,90,0,1
205617,-100,4,1,2,90,0,1
205715,-100,4,1,1,90,0,1
206009,-100,4,1,2,90,0,1
206205,-100,4,1,1,90,0,1
206303,-100,4,1,2,90,0,1
206597,-100,4,1,1,90,0,1
206695,-100,4,1,2,90,0,1
206989,-100,4,1,1,90,0,1
207087,-100,4,1,2,90,0,1
207185,-100,4,1,1,90,0,1
207283,-100,4,1,2,90,0,1
207382,-83.3333333333333,4,1,1,90,0,1
207578,-83.3333333333333,4,1,2,90,0,1
207774,-83.3333333333333,4,1,1,90,0,1
207970,-83.3333333333333,4,1,2,90,0,1
208166,-83.3333333333333,4,1,1,90,0,1
208362,-83.3333333333333,4,1,2,90,0,1
208558,-83.3333333333333,4,1,1,90,0,1
208754,-83.3333333333333,4,1,2,90,0,1
208950,-83.3333333333333,4,1,1,90,0,1
209146,-83.3333333333333,4,1,2,90,0,1
209342,-83.3333333333333,4,1,1,90,0,1
209538,-83.3333333333333,4,1,2,90,0,1
209734,-83.3333333333333,4,1,1,90,0,1
209931,-83.3333333333333,4,1,2,90,0,1
210127,-83.3333333333333,4,1,1,90,0,1
210323,-83.3333333333333,4,1,2,90,0,1
210519,-83.3333333333333,4,1,1,90,0,1
210617,-83.3333333333333,4,1,2,90,0,1
210813,-83.3333333333333,4,1,1,90,0,1
211009,-83.3333333333333,4,1,2,90,0,1
211205,-83.3333333333333,4,1,1,90,0,1
211401,-83.3333333333333,4,1,2,90,0,1
211597,-83.3333333333333,4,1,1,90,0,1
211793,-83.3333333333333,4,1,2,90,0,1
211989,-83.3333333333333,4,1,1,90,0,1
212185,-83.3333333333333,4,1,2,90,0,1
212480,-83.3333333333333,4,1,1,90,0,1
212578,-83.3333333333333,4,1,2,90,0,1
212872,-83.3333333333333,4,1,1,90,0,1
212970,-83.3333333333333,4,1,2,90,0,1
213264,-83.3333333333333,4,1,1,90,0,1
213362,-83.3333333333333,4,1,2,90,0,1
213656,-83.3333333333333,4,1,1,90,0,1
213852,-83.3333333333333,4,1,2,90,0,1
214048,-83.3333333333333,4,1,1,90,0,1
214244,-83.3333333333333,4,1,2,90,0,1
214440,-83.3333333333333,4,1,1,90,0,1
214636,-83.3333333333333,4,1,2,90,0,1
214832,-83.3333333333333,4,1,1,90,0,1
215029,-83.3333333333333,4,1,2,90,0,1
215225,-83.3333333333333,4,1,1,90,0,1
215421,-83.3333333333333,4,1,2,90,0,1
215617,-83.3333333333333,4,1,1,90,0,1
215813,-83.3333333333333,4,1,2,90,0,1
216009,-83.3333333333333,4,1,1,90,0,1
216205,-83.3333333333333,4,1,2,90,0,1
216401,-83.3333333333333,4,1,1,90,0,1
216597,-83.3333333333333,4,1,2,90,0,1
216793,-83.3333333333333,4,1,1,90,0,1
216989,-83.3333333333333,4,1,2,90,0,1
217185,-83.3333333333333,4,1,1,90,0,1
217283,-83.3333333333333,4,1,2,90,0,1
217480,-83.3333333333333,4,1,1,90,0,1
217774,-83.3333333333333,4,1,2,90,0,1
217970,-83.3333333333333,4,1,1,90,0,1
218068,-83.3333333333333,4,1,2,90,0,1
218264,-83.3333333333333,4,1,1,90,0,1
218558,-83.3333333333333,4,1,2,90,0,1
218656,-83.3333333333333,4,1,1,90,0,1
220127,-83.3333333333333,4,1,2,90,0,1
220323,-83.3333333333333,4,1,1,90,0,1
220519,-83.3333333333333,4,1,2,90,0,1
220715,-83.3333333333333,4,1,1,90,0,1
220911,-83.3333333333333,4,1,2,90,0,1
221107,-83.3333333333333,4,1,1,90,0,1
221303,-83.3333333333333,4,1,2,90,0,1
221499,-83.3333333333333,4,1,1,90,0,1
221695,-83.3333333333333,4,1,2,90,0,1
221891,-83.3333333333333,4,1,1,90,0,1
222087,-83.3333333333333,4,1,2,90,0,1
222283,-83.3333333333333,4,1,1,90,0,1
222480,-83.3333333333333,4,1,2,90,0,1
222676,-83.3333333333333,4,1,1,90,0,1
222872,-83.3333333333333,4,1,2,90,0,1
223068,-83.3333333333333,4,1,1,90,0,1
223264,-83.3333333333333,4,1,2,90,0,1
223460,-83.3333333333333,4,1,1,90,0,1
223656,-83.3333333333333,4,1,2,90,0,1
223852,-83.3333333333333,4,1,1,90,0,1
224048,-83.3333333333333,4,1,2,90,0,1
224244,-83.3333333333333,4,1,1,90,0,1
224440,-83.3333333333333,4,1,2,90,0,1
224636,-83.3333333333333,4,1,1,90,0,1
224832,-83.3333333333333,4,1,2,90,0,1
225029,-83.3333333333333,4,1,1,90,0,1
225225,-83.3333333333333,4,1,2,90,0,1
225421,-83.3333333333333,4,1,1,90,0,1
225617,-83.3333333333333,4,1,2,90,0,1
225813,-83.3333333333333,4,1,1,90,0,1
226009,-83.3333333333333,4,1,2,90,0,1
226205,-83.3333333333333,4,1,1,90,0,1
226401,-83.3333333333333,4,1,2,90,0,1
226597,-83.3333333333333,4,1,1,90,0,1
226793,-83.3333333333333,4,1,2,90,0,1
226989,-83.3333333333333,4,1,1,90,0,1
227185,-83.3333333333333,4,1,2,90,0,1
227382,-83.3333333333333,4,1,1,90,0,1
227578,-83.3333333333333,4,1,2,90,0,1
227774,-83.3333333333333,4,1,1,90,0,1
227970,-83.3333333333333,4,1,2,90,0,1
228166,-83.3333333333333,4,1,1,90,0,1
228362,-83.3333333333333,4,1,2,90,0,1
228558,-83.3333333333333,4,1,1,90,0,1
228754,-83.3333333333333,4,1,2,90,0,1
228950,-83.3333333333333,4,1,1,90,0,1
229146,-83.3333333333333,4,1,2,90,0,1
229342,-83.3333333333333,4,1,1,90,0,1
229538,-83.3333333333333,4,1,2,90,0,1
229734,-83.3333333333333,4,1,1,90,0,1
229931,-83.3333333333333,4,1,2,90,0,1
230127,-83.3333333333333,4,1,1,90,0,1
230323,-83.3333333333333,4,1,2,90,0,1
230519,-83.3333333333333,4,1,1,90,0,1
230715,-83.3333333333333,4,1,2,90,0,1
230911,-83.3333333333333,4,1,1,90,0,1
231009,-83.3333333333333,4,1,2,90,0,1
231303,-83.3333333333333,4,1,1,90,0,1
231401,-83.3333333333333,4,1,2,90,0,1
231695,-83.3333333333333,4,1,1,90,0,1
231793,-83.3333333333333,4,1,2,90,0,1
232087,-83.3333333333333,4,1,1,90,0,1
232185,-83.3333333333333,4,1,2,90,0,1
232524,-83.3333333333333,4,1,1,90,0,0
233022,-83.3333333333333,4,1,2,90,0,0
233218,-83.3333333333333,4,1,1,90,0,0
233415,-83.3333333333333,4,1,2,90,0,0
233807,-83.3333333333333,4,1,1,90,0,0
234199,-83.3333333333333,4,1,2,90,0,0
234787,-83.3333333333333,4,1,1,90,0,0
234983,-83.3333333333333,4,1,2,90,0,0
246648,391.77277179236,4,1,2,90,1,0
247042,-83.3333333333333,4,1,1,90,0,0
248215,-83.3333333333333,4,1,1,90,0,1
248260,-83.3333333333333,4,1,2,90,0,1
248554,-83.3333333333333,4,1,1,90,0,1
248652,-83.3333333333333,4,1,2,90,0,1
248946,-83.3333333333333,4,1,1,90,0,1
249044,-83.3333333333333,4,1,2,90,0,1
249339,-83.3333333333333,4,1,1,90,0,1
249437,-83.3333333333333,4,1,2,90,0,1
249731,-83.3333333333333,4,1,1,90,0,1
249829,-83.3333333333333,4,1,2,90,0,1
250123,-83.3333333333333,4,1,1,90,0,1
250221,-83.3333333333333,4,1,2,90,0,1
250515,-83.3333333333333,4,1,1,90,0,1
250613,-83.3333333333333,4,1,2,90,0,1
250907,-83.3333333333333,4,1,1,90,0,1
251005,-83.3333333333333,4,1,2,90,0,1
251299,-83.3333333333333,4,1,1,90,0,1
251397,-83.3333333333333,4,1,2,90,0,1
251692,-83.3333333333333,4,1,1,90,0,1
251790,-83.3333333333333,4,1,2,90,0,1
252084,-83.3333333333333,4,1,1,90,0,1
252182,-83.3333333333333,4,1,2,90,0,1
252476,-83.3333333333333,4,1,1,90,0,1
252574,-83.3333333333333,4,1,2,90,0,1
252868,-83.3333333333333,4,1,1,90,0,1
252966,-83.3333333333333,4,1,2,90,0,1
253260,-83.3333333333333,4,1,1,90,0,1
253358,-83.3333333333333,4,1,2,90,0,1
253652,-83.3333333333333,4,1,1,90,0,1
253750,-83.3333333333333,4,1,2,90,0,1
254044,-83.3333333333333,4,1,1,90,0,1
254143,-83.3333333333333,4,1,2,90,0,1
254437,-83.3333333333333,4,1,1,90,0,1
254535,-83.3333333333333,4,1,2,90,0,1
254829,-83.3333333333333,4,1,1,90,0,1
254927,-83.3333333333333,4,1,2,90,0,1
255221,-83.3333333333333,4,1,1,90,0,1
255319,-83.3333333333333,4,1,2,90,0,1
255613,-83.3333333333333,4,1,1,90,0,1
255711,-83.3333333333333,4,1,2,90,0,1
256005,-83.3333333333333,4,1,1,90,0,1
256103,-83.3333333333333,4,1,2,90,0,1
256397,-83.3333333333333,4,1,1,90,0,1
256495,-83.3333333333333,4,1,2,90,0,1
256790,-83.3333333333333,4,1,1,90,0,1
256888,-83.3333333333333,4,1,2,90,0,1
257182,-83.3333333333333,4,1,1,90,0,1
257280,-83.3333333333333,4,1,2,90,0,1
257574,-83.3333333333333,4,1,1,90,0,1
257672,-83.3333333333333,4,1,2,90,0,1
257966,-83.3333333333333,4,1,1,90,0,1
258064,-83.3333333333333,4,1,2,90,0,1
258358,-83.3333333333333,4,1,1,90,0,1
258456,-83.3333333333333,4,1,2,90,0,1
258750,-83.3333333333333,4,1,1,90,0,1
258848,-83.3333333333333,4,1,2,90,0,1
259143,-83.3333333333333,4,1,1,90,0,1
259241,-83.3333333333333,4,1,2,90,0,1
259535,-83.3333333333333,4,1,1,90,0,1
259633,-83.3333333333333,4,1,2,90,0,1
259927,-83.3333333333333,4,1,1,90,0,1
260025,-83.3333333333333,4,1,2,90,0,1
260319,-83.3333333333333,4,1,1,90,0,1
260417,-83.3333333333333,4,1,2,90,0,1
260711,-83.3333333333333,4,1,1,90,0,1
260809,-83.3333333333333,4,1,2,90,0,1
261103,-83.3333333333333,4,1,1,90,0,1
261201,-83.3333333333333,4,1,2,90,0,1
261495,-83.3333333333333,4,1,1,90,0,1
261593,-83.3333333333333,4,1,2,90,0,1
261888,-83.3333333333333,4,1,1,90,0,1
261986,-83.3333333333333,4,1,2,90,0,1
262280,-83.3333333333333,4,1,1,90,0,1
262378,-83.3333333333333,4,1,2,90,0,1
262672,-83.3333333333333,4,1,1,90,0,1
262770,-83.3333333333333,4,1,2,90,0,1
263064,-83.3333333333333,4,1,1,90,0,1
263162,-83.3333333333333,4,1,2,90,0,1
263456,-83.3333333333333,4,1,1,90,0,1
263554,-83.3333333333333,4,1,2,90,0,1
263848,-83.3333333333333,4,1,1,90,0,1
263946,-83.3333333333333,4,1,2,90,0,1
264241,-83.3333333333333,4,1,1,90,0,1
264339,-83.3333333333333,4,1,2,90,0,1
264633,-83.3333333333333,4,1,1,90,0,1
264731,-83.3333333333333,4,1,2,90,0,1
265025,-83.3333333333333,4,1,1,90,0,1
265123,-83.3333333333333,4,1,2,90,0,1
265417,-83.3333333333333,4,1,1,90,0,1
265515,-83.3333333333333,4,1,2,90,0,1
265809,-83.3333333333333,4,1,1,90,0,1
265907,-83.3333333333333,4,1,2,90,0,1
266201,-83.3333333333333,4,1,1,90,0,1
266299,-83.3333333333333,4,1,2,90,0,1
266593,-83.3333333333333,4,1,1,90,0,1
266692,-83.3333333333333,4,1,2,90,0,1
266986,-83.3333333333333,4,1,1,90,0,1
267084,-83.3333333333333,4,1,2,90,0,1
267378,-83.3333333333333,4,1,1,90,0,1
267476,-83.3333333333333,4,1,2,90,0,1
267770,-83.3333333333333,4,1,1,90,0,1
267868,-83.3333333333333,4,1,2,90,0,1
268162,-83.3333333333333,4,1,1,90,0,1
268260,-83.3333333333333,4,1,2,90,0,1
268554,-83.3333333333333,4,1,1,90,0,1
268652,-83.3333333333333,4,1,2,90,0,1
268946,-83.3333333333333,4,1,1,90,0,1
269044,-83.3333333333333,4,1,2,90,0,1
269339,-83.3333333333333,4,1,1,90,0,1
269437,-83.3333333333333,4,1,2,90,0,1
269731,-83.3333333333333,4,1,1,90,0,1
269829,-83.3333333333333,4,1,2,90,0,1
270123,-83.3333333333333,4,1,1,90,0,1
270221,-83.3333333333333,4,1,2,90,0,1
270515,-83.3333333333333,4,1,1,90,0,1
270613,-83.3333333333333,4,1,2,90,0,1
270907,-83.3333333333333,4,1,1,90,0,1
271005,-83.3333333333333,4,1,2,90,0,1
271299,-83.3333333333333,4,1,2,90,0,1
271397,-83.3333333333333,4,1,1,90,0,1
271692,-83.3333333333333,4,1,1,90,0,1
271790,-83.3333333333333,4,1,2,90,0,1
272084,-83.3333333333333,4,1,1,90,0,1
272182,-83.3333333333333,4,1,2,90,0,1
272476,-83.3333333333333,4,1,1,90,0,1
272574,-83.3333333333333,4,1,2,90,0,1
272868,-83.3333333333333,4,1,1,90,0,1
272966,-83.3333333333333,4,1,2,90,0,1
273260,-83.3333333333333,4,1,1,90,0,1
273309,-83.3333333333333,4,1,1,90,0,1
276397,-83.3333333333333,4,1,2,90,0,1
279752,-83.3333333333333,4,1,1,90,0,0

[Colours]
Combo1 : 128,175,255
Combo2 : 128,255,255
Combo3 : 128,128,255

[HitObjects]
67,113,38035,2,0,P|124:88|200:83,1,134.25,4|0,0:0|0:0,0:0:0:0:
239,88,38427,2,0,P|291:95|327:106,1,89.5,8|2,0:0|0:0,0:0:0:0:
409,137,38819,2,0,P|409:216|380:267,1,134.25
349,292,39211,2,0,P|299:313|261:316,1,89.5,10|0,0:0|0:0,0:0:0:0:
175,312,39603,6,0,P|110:277|82:197,1,134.25,2|0,0:0|0:0,0:0:0:0:
76,180,39996,2,0,P|79:134|104:93,1,89.5,8|0,0:0|0:0,0:0:0:0:
183,132,40388,2,0,P|231:140|315:113,1,134.25,2|0,0:0|0:0,0:0:0:0:
352,95,40780,1,10,0:0:0:0:
228,43,40976,1,2,0:0:0:0:
130,136,41172,5,0,0:0:0:0:
191,201,41368,1,0,0:0:0:0:
191,201,41466,1,0,0:0:0:0:
191,201,41564,1,8,0:0:0:0:
172,290,41760,1,0,0:0:0:0:
83,293,41956,2,0,P|69:249|66:200,1,89.5,2|0,0:0|0:0,0:0:0:0:
70,116,42348,2,0,P|111:132|149:156,1,89.5,10|0,0:0|0:0,0:0:0:0:
227,200,42740,5,2,0:0:0:0:
295,142,42936,1,0,0:0:0:0:
382,159,43132,2,0,P|403:201|398:249,1,89.5,10|0,0:0|0:0,0:0:0:0:
348,315,43524,1,2,0:0:0:0:
264,282,43720,1,0,0:0:0:0:
264,282,43818,1,0,0:0:0:0:
264,282,43916,1,14,0:0:0:0:
227,200,44112,1,0,0:0:0:0:
268,67,44308,6,0,L|363:67,1,89.5,6|0,0:0|0:0,0:0:0:0:
446,67,44701,1,8,0:0:0:0:
402,144,44897,1,2,0:0:0:0:
217,131,45093,6,0,L|122:131,1,89.5,2|0,0:0|0:0,0:0:0:0:
44,131,45485,1,8,0:0:0:0:
83,209,45681,1,2,0:0:0:0:
272,188,45877,6,0,L|367:188,1,89.5,2|0,0:0|0:0,0:0:0:0:
444,188,46269,1,8,0:0:0:0:
406,265,46465,5,2,0:0:0:0:
272,188,46661,1,2,0:0:0:0:
444,188,46857,1,0,0:0:0:0:
310,110,47053,1,10,0:0:0:0:
406,265,47249,1,0,0:0:0:0:
223,272,47445,6,0,P|138:253|95:210,1,134.25,6|0,0:0|0:0,0:0:0:0:
78,187,47837,1,8,0:0:0:0:
156,144,48033,2,0,B|200:140|246:156,2,89.5,2|0|0,0:0|0:0|0:0,0:0:0:0:
70,119,48621,1,10,0:0:0:0:
135,56,48817,1,0,0:0:0:0:
206,212,49013,6,0,B|284:205|290:124,1,134.25,2|0,0:0|0:0,0:0:0:0:
289,79,49405,2,0,P|351:81|383:105,1,89.5,8|2,0:0|0:0,0:0:0:0:
378,184,49798,1,0,0:0:0:0:
317,249,49994,1,0,0:0:0:0:
236,289,50190,2,0,P|188:299|153:277,1,89.5,10|0,0:0|0:0,0:0:0:0:
72,169,50582,6,0,P|151:128|240:118,1,179,2|8,0:0|0:0,0:0:0:0:
440,215,51170,2,0,P|361:256|272:266,1,179,2|0,0:0|0:0,0:0:0:0:
137,288,51758,1,10,0:0:0:0:
73,170,51954,1,0,0:0:0:0:
178,235,52150,6,0,P|244:202|304:112,1,179,2|8,0:0|0:0,0:0:0:0:
256,40,52738,1,0,0:0:0:0:
209,117,52934,2,0,P|268:202|293:219,1,134.25,2|0,0:0|0:0,0:0:0:0:
332,238,53326,2,0,P|381:255|423:255,1,89.5,10|0,0:0|0:0,0:0:0:0:
368,324,53718,5,4,0:0:0:0:
278,332,53914,1,0,0:0:0:0:
188,315,54110,2,0,P|112:253|94:206,1,134.25,8|0,0:0|0:0,0:0:0:0:
91,176,54503,1,0,0:0:0:0:
152,111,54699,1,0,0:0:0:0:
229,156,54895,2,0,P|312:192|361:190,1,134.25,8|0,0:0|0:0,0:0:0:0:
398,186,55287,5,0,0:0:0:0:
412,97,55483,1,0,0:0:0:0:
335,50,55679,2,0,P|289:50|249:72,1,89.5,8|0,0:0|0:0,0:0:0:0:
229,156,56071,1,0,0:0:0:0:
283,228,56267,1,0,0:0:0:0:
332,132,56463,1,8,0:0:0:0:
180,252,56659,1,4,0:0:0:0:
339,300,56855,6,0,P|409:246|420:203,1,134.25,6|0,0:0|0:0,0:0:0:0:
421,160,57247,2,0,P|410:103|389:73,1,89.5,8|2,0:0|0:0,0:0:0:0:
304,87,57639,1,0,0:0:0:0:
228,134,57835,1,0,0:0:0:0:
228,134,57933,1,0,0:0:0:0:
228,134,58031,2,0,P|179:143|132:125,1,89.5,10|0,0:0|0:0,0:0:0:0:
92,261,58423,6,0,P|173:300|239:302,1,134.25,2|0,0:0|0:0,0:0:0:0:
260,301,58815,2,0,P|315:277|330:230,1,89.5,8|2,0:0|0:0,0:0:0:0:
241,230,59207,2,0,P|190:228|151:211,1,89.5,0|0,0:0|0:0,0:0:0:0:
124,128,59600,2,0,P|175:130|214:147,1,89.5,10|0,0:0|0:0,0:0:0:0:
328,52,59992,6,0,P|380:117|415:194,1,134.25,2|0,0:0|0:0,0:0:0:0:
418,204,60384,2,0,P|432:255|431:295,1,89.5,8|2,0:0|0:0,0:0:0:0:
344,265,60776,2,0,P|306:244|278:208,1,89.5
240,127,61168,2,0,P|201:148|173:184,1,89.5,10|0,0:0|0:0,0:0:0:0:
108,301,61560,6,0,P|196:320|248:320,1,134.25,2|0,0:0|0:0,0:0:0:0:
284,316,61952,1,8,0:0:0:0:
374,312,62148,1,2,0:0:0:0:
436,192,62344,1,2,0:0:0:0:
374,72,62540,1,0,0:0:0:0:
374,72,62638,1,0,0:0:0:0:
374,72,62736,1,12,0:0:0:0:
284,67,62932,1,0,0:0:0:0:
208,176,63128,6,0,L|156:254,1,89.5,6|0,0:0|0:0,0:0:0:0:
112,328,63520,1,8,0:0:0:0:
68,249,63716,1,2,0:0:0:0:
245,220,63912,6,0,L|348:202,1,89.5,2|0,0:0|0:0,0:0:0:0:
422,191,64305,1,8,0:0:0:0:
388,274,64501,1,2,0:0:0:0:
209,176,64697,6,0,L|130:132,1,89.5,2|0,0:0|0:0,0:0:0:0:
51,90,65089,1,8,0:0:0:0:
128,43,65285,5,2,0:0:0:0:
29,192,65481,1,2,0:0:0:0:
29,192,65677,1,0,0:0:0:0:
128,341,65873,1,10,0:0:0:0:
128,341,66069,1,4,0:0:0:0:
245,210,66265,5,6,0:0:0:0:
157,230,66461,1,0,0:0:0:0:
157,230,66559,1,0,0:0:0:0:
157,230,66657,1,10,0:0:0:0:
91,170,66853,2,0,P|119:131|153:106,1,89.5,2|0,0:0|0:0,0:0:0:0:
209,176,67245,2,0,P|250:204|292:212,1,89.5,2|8,0:0|0:0,0:0:0:0:
377,199,67637,1,0,0:0:0:0:
429,75,67833,6,0,P|329:69|296:78,1,134.25,2|0,0:0|0:0,0:0:0:0:
255,92,68225,1,10,0:0:0:0:
173,131,68421,1,2,0:0:0:0:
148,216,68617,2,0,P|145:257|174:296,1,89.5
259,319,69009,1,10,0:0:0:0:
392,304,69206,1,2,0:0:0:0:
322,188,69402,6,0,P|260:136|205:116,1,134.25,2|0,0:0|0:0,0:0:0:0:
165,112,69794,2,0,P|120:141|99:181,1,89.5,8|2,0:0|0:0,0:0:0:0:
189,188,70186,2,0,P|252:136|306:116,1,134.25
347,112,70578,2,0,P|392:141|413:181,1,89.5,8|0,0:0|0:0,0:0:0:0:
299,313,70970,6,0,P|200:308|128:266,1,179,2|8,0:0|0:0,0:0:0:0:
85,192,71558,1,0,0:0:0:0:
110,106,71754,1,2,0:0:0:0:
189,63,71950,1,0,0:0:0:0:
210,55,72048,1,0,0:0:0:0:
232,51,72146,1,8,0:0:0:0:
254,50,72244,1,0,0:0:0:0:
276,53,72342,1,0,0:0:0:0:
296,61,72440,1,0,0:0:0:0:
314,72,72538,5,2,0:0:0:0:
392,180,72734,1,0,0:0:0:0:
314,289,72930,1,8,0:0:0:0:
186,248,73126,1,0,0:0:0:0:
186,248,73224,1,0,0:0:0:0:
186,248,73322,1,8,0:0:0:0:
185,248,73714,5,0,0:0:0:0:
313,72,74107,1,4,0:0:0:0:
314,289,74499,1,4,0:0:0:0:
186,113,74891,1,4,0:0:0:0:
392,180,75283,1,4,0:0:0:0:
100,310,75675,5,4,0:0:0:0:
100,310,75871,1,0,0:0:0:0:
188,306,76067,2,0,P|262:279|319:200,1,179,10|2,0:0|0:0,0:0:0:0:
340,112,76655,1,0,0:0:0:0:
185,205,76851,1,10,0:0:0:0:
185,205,76949,1,0,0:0:0:0:
309,343,77243,5,2,0:0:0:0:
309,343,77439,1,0,0:0:0:0:
236,290,77635,2,0,P|192:225|190:128,1,179,8|0,0:0|0:0,0:0:0:0:
215,41,78223,1,0,0:0:0:0:
300,201,78419,1,8,0:0:0:0:
300,201,78517,1,0,0:0:0:0:
102,192,78811,5,0,0:0:0:0:
82,104,79008,1,0,0:0:0:0:
168,125,79204,2,0,P|256:141|345:121,1,179,10|2,0:0|0:0,0:0:0:0:
424,84,79792,1,0,0:0:0:0:
256,27,79988,1,10,0:0:0:0:
256,27,80086,1,0,0:0:0:0:
412,304,80380,5,2,0:0:0:0:
432,216,80576,1,0,0:0:0:0:
365,155,80772,1,10,0:0:0:0:
279,131,80968,2,0,P|188:149|202:228,1,179,2|0,0:0|0:0,0:0:0:0:
252,285,81556,1,10,0:0:0:0:
295,295,81654,1,0,0:0:0:0:
339,287,81752,1,0,0:0:0:0:
375,261,81850,1,0,0:0:0:0:
402,225,81948,5,6,0:0:0:0:
437,142,82144,1,0,0:0:0:0:
384,71,82340,2,0,P|314:67|247:78,1,134.25,8|0,0:0|0:0,0:0:0:0:
209,92,82732,1,0,0:0:0:0:
139,148,82928,1,0,0:0:0:0:
317,142,83124,1,8,0:0:0:0:
317,142,83222,1,0,0:0:0:0:
267,316,83516,5,2,0:0:0:0:
180,292,83712,1,0,0:0:0:0:
112,232,83909,1,8,0:0:0:0:
140,147,84105,2,0,P|232:134|324:144,1,179,2|0,0:0|0:0,0:0:0:0:
432,286,84693,1,10,0:0:0:0:
432,286,84791,2,0,P|442:240|442:192,1,89.5
440,152,85085,5,14,0:0:0:0:
280,70,85281,1,0,0:0:0:0:
288,248,85477,1,0,0:0:0:0:
352,129,85673,1,12,0:0:0:0:
217,135,85869,1,0,0:0:0:0:
288,248,86065,1,0,0:0:0:0:
280,70,86261,1,12,0:0:0:0:
128,167,86457,1,0,0:0:0:0:
288,248,86653,1,12,0:0:0:0:
256,192,86849,12,0,87829,0:0:0:0:
292,104,88221,6,0,P|288:147|310:191,1,89.5,4|2,0:0|0:0,0:0:0:0:
376,131,88613,1,10,0:0:0:0:
201,87,88810,2,0,P|139:123|136:224,1,179,2|0,0:0|0:0,0:0:0:0:
224,224,89398,1,10,0:0:0:0:
307,187,89594,1,0,0:0:0:0:
387,225,89790,6,0,P|430:244|452:288,1,89.5,2|0,0:0|0:0,0:0:0:0:
372,304,90182,1,10,0:0:0:0:
449,143,90378,2,0,P|449:95|345:76,1,134.25,2|0,0:0|0:0,0:0:0:0:
336,65,90770,1,0,0:0:0:0:
246,75,90966,1,10,0:0:0:0:
227,162,91162,1,0,0:0:0:0:
315,141,91358,6,0,P|364:146|398:170,1,89.5,6|0,0:0|0:0,0:0:0:0:
449,240,91750,1,10,0:0:0:0:
270,243,91946,2,0,P|195:259|148:297,2,134.25,2|0|10,0:0|0:0|0:0,0:0:0:0:
356,230,92730,1,0,0:0:0:0:
485,106,92926,5,2,0:0:0:0:
369,38,93122,2,0,L|386:86,2,44.75,0|0|8,0:0|0:0|0:0,0:0:0:0:
234,40,93514,2,0,L|188:24,2,44.75
300,157,93907,2,0,L|254:200,2,44.75,0|0|12,0:0|0:0|0:0,0:0:0:0:
214,246,94299,1,0,0:0:0:0:
380,310,94495,6,0,P|343:292|313:251,1,89.5,4|0,0:0|0:0,0:0:0:0:
399,224,94887,1,10,0:0:0:0:
214,245,95083,2,0,P|153:197|227:146,1,179,2|0,0:0|0:0,0:0:0:0:
300,157,95671,1,10,0:0:0:0:
307,246,95867,1,0,0:0:0:0:
364,115,96063,6,0,P|380:75|416:45,1,89.5,2|0,0:0|0:0,0:0:0:0:
452,126,96455,1,8,0:0:0:0:
283,64,96651,2,0,P|199:100|150:178,1,179,2|0,0:0|0:0,0:0:0:0:
135,259,97239,1,10,0:0:0:0:
282,174,97435,1,0,0:0:0:0:
444,228,97631,6,0,P|366:284|263:295,1,179,6|8,0:0|0:0,0:0:0:0:
67,156,98219,2,0,P|145:99|248:88,1,179,2|0,0:0|0:0,0:0:0:0:
359,96,98808,1,10,0:0:0:0:
284,207,99004,1,0,0:0:0:0:
150,222,99200,5,6,0:0:0:0:
150,222,99396,1,0,0:0:0:0:
210,288,99592,1,0,0:0:0:0:
231,294,99690,1,0,0:0:0:0:
252,298,99788,1,0,0:0:0:0:
274,300,99886,1,0,0:0:0:0:
296,300,99984,1,6,0:0:0:0:
384,289,100180,1,0,0:0:0:0:
417,205,100376,1,0,0:0:0:0:
415,161,100474,1,0,0:0:0:0:
395,122,100572,1,0,0:0:0:0:
360,95,100670,1,0,0:0:0:0:
316,86,100768,5,4,0:0:0:0:
226,80,100964,1,0,0:0:0:0:
140,106,101160,1,10,0:0:0:0:
313,147,101356,2,0,P|351:176|291:262,1,179,2|0,0:0|0:0,0:0:0:0:
205,232,101944,1,10,0:0:0:0:
223,144,102140,1,0,0:0:0:0:
137,171,102336,6,0,P|93:188|71:224,1,89.5,2|0,0:0|0:0,0:0:0:0:
54,310,102728,1,10,0:0:0:0:
206,232,102924,2,0,B|255:211|292:253|339:228,1,134.25,2|0,0:0|0:0,0:0:0:0:
379,212,103316,1,0,0:0:0:0:
418,132,103513,1,10,0:0:0:0:
300,69,103709,1,0,0:0:0:0:
159,180,103905,6,0,P|152:241|187:271,1,89.5,6|0,0:0|0:0,0:0:0:0:
244,306,104297,1,10,0:0:0:0:
73,222,104493,2,0,P|85:158|136:102,2,134.25,2|0|10,0:0|0:0|0:0,0:0:0:0:
92,313,105277,1,0,0:0:0:0:
248,349,105473,5,0,0:0:0:0:
334,324,105669,1,0,0:0:0:0:
354,313,105767,1,0,0:0:0:0:
374,302,105865,1,8,0:0:0:0:
437,239,106061,1,0,0:0:0:0:
406,224,106159,1,0,0:0:0:0:
373,216,106257,1,0,0:0:0:0:
292,176,106453,1,0,0:0:0:0:
328,149,106551,1,0,0:0:0:0:
371,137,106649,1,12,0:0:0:0:
459,152,106845,1,0,0:0:0:0:
244,114,107041,6,0,P|201:128|171:164,1,89.5,4|0,0:0|0:0,0:0:0:0:
251,203,107433,1,10,0:0:0:0:
162,47,107629,2,0,P|95:114|74:202,1,179,2|0,0:0|0:0,0:0:0:0:
79,282,108217,1,10,0:0:0:0:
201,337,108414,1,0,0:0:0:0:
320,275,108610,6,0,P|360:244|412:243,1,89.5,2|0,0:0|0:0,0:0:0:0:
389,328,109002,1,8,0:0:0:0:
259,204,109198,2,0,P|180:175|84:178,1,179,2|0,0:0|0:0,0:0:0:0:
0,205,109786,1,10,0:0:0:0:
93,300,109982,1,0,0:0:0:0:
128,172,110178,6,0,P|122:120|230:118,1,179,6|8,0:0|0:0,0:0:0:0:
287,276,110766,2,0,P|389:263|384:212,1,179,2|0,0:0|0:0,0:0:0:0:
351,128,111354,1,10,0:0:0:0:
268,91,111550,1,0,0:0:0:0:
272,180,111746,5,2,0:0:0:0:
277,201,111844,1,0,0:0:0:0:
279,224,111942,1,0,0:0:0:0:
274,246,112040,1,0,0:0:0:0:
265,266,112138,5,0,0:0:0:0:
252,284,112236,1,0,0:0:0:0:
234,298,112334,1,0,0:0:0:0:
214,308,112432,1,0,0:0:0:0:
192,312,112530,5,0,0:0:0:0:
169,311,112628,1,0,0:0:0:0:
148,305,112726,1,0,0:0:0:0:
128,295,112824,1,0,0:0:0:0:
112,280,112922,5,4,0:0:0:0:
100,261,113020,1,0,0:0:0:0:
92,240,113118,1,0,0:0:0:0:
88,218,113217,1,0,0:0:0:0:
91,196,113315,5,4,0:0:0:0:
69,49,125861,6,0,P|121:41|153:55,1,89.5,6|0,0:0|0:0,0:0:0:0:
232,98,126253,1,8,0:0:0:0:
151,137,126449,2,0,P|134:216|184:308,1,179,2|0,0:0|0:0,0:0:0:0:
256,192,127037,1,10,0:0:0:0:
376,133,127233,1,0,0:0:0:0:
438,252,127429,6,0,P|399:282|310:289,1,134.25,2|0,0:0|0:0,0:0:0:0:
273,280,127821,1,8,0:0:0:0:
256,192,128018,1,2,0:0:0:0:
238,103,128214,2,0,P|194:92|144:90,1,89.5
106,100,128508,1,0,0:0:0:0:
72,131,128606,1,8,0:0:0:0:
51,217,128802,1,0,0:0:0:0:
119,275,128998,6,0,P|166:272|206:260,1,89.5,2|0,0:0|0:0,0:0:0:0:
284,214,129390,1,8,0:0:0:0:
324,134,129586,1,2,0:0:0:0:
238,162,129782,2,0,P|282:212|340:245,1,134.25
384,254,130174,2,0,P|421:228|428:183,1,89.5,10|0,0:0|0:0,0:0:0:0:
317,112,130566,6,0,P|240:98|151:147,1,179,2|8,0:0|0:0,0:0:0:0:
85,200,131154,1,2,0:0:0:0:
149,318,131350,2,0,P|181:345|228:354,1,89.5,2|0,0:0|0:0,0:0:0:0:
316,344,131742,2,0,P|328:303|314:259,1,89.5,10|0,0:0|0:0,0:0:0:0:
256,192,132134,5,6,0:0:0:0:
256,192,132330,1,0,0:0:0:0:
338,157,132526,2,0,L|429:157,1,89.5,8|2,0:0|0:0,0:0:0:0:
256,192,132919,5,2,0:0:0:0:
256,192,133115,1,0,0:0:0:0:
149,248,133311,2,0,L|48:248,1,89.5,8|2,0:0|0:0,0:0:0:0:
256,192,133703,5,2,0:0:0:0:
256,192,133899,1,0,0:0:0:0:
243,70,134095,1,8,0:0:0:0:
330,49,134291,5,2,0:0:0:0:
456,100,134487,2,0,L|366:118,1,89.5,2|0,0:0|0:0,0:0:0:0:
256,192,134879,2,0,L|345:209,1,89.5,10|0,0:0|0:0,0:0:0:0:
428,244,135271,6,0,P|401:300|334:322,1,134.25,6|0,0:0|0:0,0:0:0:0:
292,310,135663,2,0,P|250:297|204:299,1,89.5,8|2,0:0|0:0,0:0:0:0:
117,284,136055,1,0,0:0:0:0:
56,218,136251,1,0,0:0:0:0:
56,218,136349,1,0,0:0:0:0:
56,218,136447,1,10,0:0:0:0:
91,135,136643,1,0,0:0:0:0:
197,52,136839,6,0,P|277:16|349:68,1,179,2|10,0:0|0:0,0:0:0:0:
402,132,137427,1,2,0:0:0:0:
316,157,137623,2,0,P|290:195|306:238,1,89.5
386,263,138016,1,10,0:0:0:0:
256,295,138212,1,0,0:0:0:0:
125,263,138408,6,0,P|94:188|165:133,1,179,6|8,0:0|0:0,0:0:0:0:
387,121,138996,2,0,P|418:196|347:251,1,179,2|0,0:0|0:0,0:0:0:0:
261,246,139584,2,0,P|211:224|191:194,1,89.5,10|0,0:0|0:0,0:0:0:0:
230,114,139976,6,0,P|320:107|388:120,1,134.25,2|0,0:0|0:0,0:0:0:0:
407,122,140368,1,8,0:0:0:0:
445,203,140564,1,0,0:0:0:0:
311,209,140760,2,0,P|257:210|220:217,1,89.5,2|0,0:0|0:0,0:0:0:0:
179,229,141054,1,0,0:0:0:0:
138,249,141152,1,8,0:0:0:0:
61,295,141348,1,0,0:0:0:0:
256,320,141544,5,0,0:0:0:0:
376,259,141740,1,0,0:0:0:0:
376,125,141936,1,8,0:0:0:0:
256,64,142132,1,0,0:0:0:0:
256,64,142230,1,0,0:0:0:0:
256,64,142328,1,8,0:0:0:0:
102,89,142721,5,4,0:0:0:0:
256,248,143113,1,4,0:0:0:0:
409,89,143505,1,4,0:0:0:0:
409,294,143897,1,4,0:0:0:0:
256,136,144289,1,0,0:0:0:0:
102,294,144681,5,4,0:0:0:0:
88,204,144877,1,0,0:0:0:0:
171,236,145073,2,0,P|256:261|340:236,1,179,10|2,0:0|0:0,0:0:0:0:
424,204,145661,1,0,0:0:0:0:
256,136,145857,1,10,0:0:0:0:
256,136,145955,1,0,0:0:0:0:
88,204,146249,5,2,0:0:0:0:
102,294,146445,1,0,0:0:0:0:
171,236,146641,2,0,P|256:212|345:238,1,179,8|0,0:0|0:0,0:0:0:0:
409,294,147229,1,0,0:0:0:0:
256,325,147425,1,8,0:0:0:0:
256,325,147524,1,0,0:0:0:0:
394,182,147818,5,4,0:0:0:0:
353,102,148014,1,0,0:0:0:0:
268,74,148210,2,0,P|155:82|108:134,1,179,10|2,0:0|0:0,0:0:0:0:
58,204,148798,1,0,0:0:0:0:
219,190,148994,1,10,0:0:0:0:
219,190,149092,1,0,0:0:0:0:
453,204,149386,5,2,0:0:0:0:
414,284,149582,1,0,0:0:0:0:
364,208,149778,1,10,0:0:0:0:
324,288,149974,2,0,P|255:336|187:288,1,179,2|0,0:0|0:0,0:0:0:0:
147,208,150562,1,8,0:0:0:0:
140,186,150660,1,0,0:0:0:0:
136,164,150758,1,2,0:0:0:0:
137,141,150856,1,0,0:0:0:0:
143,120,150954,5,4,0:0:0:0:
204,54,151150,1,0,0:0:0:0:
228,140,151346,2,0,P|279:210|369:206,1,179,8|0,0:0|0:0,0:0:0:0:
444,168,151934,1,0,0:0:0:0:
396,92,152130,1,8,0:0:0:0:
396,92,152228,1,0,0:0:0:0:
204,54,152523,5,2,0:0:0:0:
143,120,152719,1,0,0:0:0:0:
142,208,152915,1,8,0:0:0:0:
191,283,153111,2,0,P|280:311|364:278,1,179,2|0,0:0|0:0,0:0:0:0:
418,216,153699,1,10,0:0:0:0:
418,216,153797,2,0,P|429:168|372:150,1,89.5
357,142,154091,5,14,0:0:0:0:
198,56,154287,1,0,0:0:0:0:
98,205,154483,1,0,0:0:0:0:
229,259,154679,1,12,0:0:0:0:
272,111,154875,1,0,0:0:0:0:
141,130,155071,1,0,0:0:0:0:
230,259,155267,1,12,0:0:0:0:
198,56,155463,1,0,0:0:0:0:
98,204,155659,5,8,0:0:0:0:
190,320,155855,1,0,0:0:0:0:
210,330,155953,1,0,0:0:0:0:
230,338,156051,1,0,0:0:0:0:
253,342,156149,1,0,0:0:0:0:
275,342,156247,1,0,0:0:0:0:
297,338,156345,1,0,0:0:0:0:
318,331,156443,1,0,0:0:0:0:
342,234,156639,1,0,0:0:0:0:
308,263,156737,1,0,0:0:0:0:
265,275,156835,1,0,0:0:0:0:
222,265,156933,1,0,0:0:0:0:
187,238,157031,1,0,0:0:0:0:
168,198,157129,1,0,0:0:0:0:
169,153,157227,6,0,B|182:107|230:83,1,89.5,4|0,0:0|0:0,0:0:0:0:
263,174,157620,1,10,0:0:0:0:
400,57,157816,2,0,P|430:155|416:228,1,179,2|0,0:0|0:0,0:0:0:0:
364,301,158404,1,10,0:0:0:0:
230,319,158600,1,0,0:0:0:0:
192,189,158796,6,0,P|169:152|122:130,1,89.5,2|0,0:0|0:0,0:0:0:0:
109,219,159188,1,10,0:0:0:0:
248,105,159384,2,0,P|297:80|366:116,1,134.25,2|0,0:0|0:0,0:0:0:0:
378,154,159776,1,2,0:0:0:0:
384,243,159972,1,10,0:0:0:0:
267,175,160168,1,2,0:0:0:0:
248,308,160364,6,0,P|226:344|173:327,1,89.5,4|0,0:0|0:0,0:0:0:0:
103,299,160756,1,10,0:0:0:0:
272,239,160952,2,0,P|317:213|315:132,1,134.25,2|2,0:0|0:0,0:0:0:0:
281,112,161344,1,0,0:0:0:0:
193,94,161540,1,10,0:0:0:0:
100,192,161736,1,0,0:0:0:0:
193,289,161932,5,0,0:0:0:0:
326,269,162128,1,0,0:0:0:0:
336,248,162227,1,0,0:0:0:0:
354,235,162325,1,8,0:0:0:0:
398,157,162521,1,0,0:0:0:0:
367,144,162619,1,0,0:0:0:0:
334,147,162717,1,0,0:0:0:0:
277,216,162913,1,0,0:0:0:0:
232,206,163011,1,0,0:0:0:0:
188,196,163109,2,0,P|146:185|101:191,1,89.5,12|0,0:0|0:0,0:0:0:0:
326,269,163501,6,0,P|376:290|413:285,1,89.5,4|0,0:0|0:0,0:0:0:0:
384,200,163893,1,10,0:0:0:0:
250,80,164089,2,0,P|169:58|95:115,1,179,2|0,0:0|0:0,0:0:0:0:
59,192,164677,1,10,0:0:0:0:
78,279,164873,1,0,0:0:0:0:
205,236,165069,6,0,P|251:234|292:259,1,89.5,2|0,0:0|0:0,0:0:0:0:
231,322,165461,1,8,0:0:0:0:
176,151,165657,2,0,P|190:87|261:88,1,134.25,2|0,0:0|0:0,0:0:0:0:
288,103,166049,1,0,0:0:0:0:
409,159,166245,1,10,0:0:0:0:
360,284,166441,1,2,0:0:0:0:
182,257,166637,6,0,P|127:216|126:112,1,179,6|8,0:0|0:0,0:0:0:0:
304,139,167226,2,0,P|359:180|360:284,1,179,2|0,0:0|0:0,0:0:0:0:
162,196,167814,2,0,P|160:153|185:108,1,89.5,10|0,0:0|0:0,0:0:0:0:
247,56,168206,5,4,0:0:0:0:
290,134,168402,1,0,0:0:0:0:
223,193,168598,1,0,0:0:0:0:
211,212,168696,1,0,0:0:0:0:
190,207,168794,1,0,0:0:0:0:
187,184,168892,1,0,0:0:0:0:
208,176,168990,1,4,0:0:0:0:
290,134,169186,1,0,0:0:0:0:
356,194,169382,1,0,0:0:0:0:
391,215,169480,1,0,0:0:0:0:
421,190,169578,1,0,0:0:0:0:
407,150,169676,1,0,0:0:0:0:
367,154,169774,5,4,0:0:0:0:
303,240,169970,1,0,0:0:0:0:
399,245,170166,1,10,0:0:0:0:
272,148,170362,2,0,P|196:124|104:159,1,179,2|0,0:0|0:0,0:0:0:0:
60,236,170950,1,10,0:0:0:0:
178,300,171146,1,0,0:0:0:0:
303,250,171342,5,2,0:0:0:0:
362,183,171538,1,0,0:0:0:0:
416,256,171734,1,10,0:0:0:0:
244,306,171930,2,0,P|160:288|131:244,1,134.25,2|0,0:0|0:0,0:0:0:0:
123,208,172323,1,0,0:0:0:0:
138,119,172519,1,10,0:0:0:0:
207,175,172715,1,2,0:0:0:0:
202,49,172911,5,4,0:0:0:0:
266,114,173107,1,0,0:0:0:0:
289,27,173303,1,8,0:0:0:0:
352,84,173499,2,0,P|402:102|442:174,1,134.25,2|0,0:0|0:0,0:0:0:0:
437,214,173891,1,0,0:0:0:0:
369,329,174087,1,0,0:0:0:0:
243,288,174283,1,0,0:0:0:0:
373,255,174479,5,0,0:0:0:0:
243,288,174675,1,0,0:0:0:0:
198,282,174773,1,0,0:0:0:0:
163,252,174871,1,0,0:0:0:0:
116,175,175067,1,0,0:0:0:0:
207,175,175263,1,0,0:0:0:0:
324,120,175459,1,8,0:0:0:0:
288,93,175557,1,0,0:0:0:0:
243,90,175655,1,8,0:0:0:0:
153,92,175851,1,0,0:0:0:0:
287,195,176047,6,0,P|305:239|294:286,1,89.5,4|0,0:0|0:0,0:0:0:0:
215,250,176439,1,10,0:0:0:0:
360,145,176635,2,0,P|390:214|371:330,1,179,2|0,0:0|0:0,0:0:0:0:
244,340,177224,1,10,0:0:0:0:
172,227,177420,1,0,0:0:0:0:
173,93,177616,6,0,P|128:69|84:68,1,89.5,2|0,0:0|0:0,0:0:0:0:
111,154,178008,1,8,0:0:0:0:
268,69,178204,2,0,P|370:76|398:106,1,134.25,2|0,0:0|0:0,0:0:0:0:
409,135,178596,1,0,0:0:0:0:
404,224,178792,1,10,0:0:0:0:
331,172,178988,1,0,0:0:0:0:
180,172,179184,5,6,0:0:0:0:
107,224,179380,1,0,0:0:0:0:
97,135,179576,1,8,0:0:0:0:
187,258,179772,2,0,P|256:302|350:265,1,179,2|0,0:0|0:0,0:0:0:0:
412,217,180360,1,10,0:0:0:0:
412,127,180556,1,0,0:0:0:0:
329,94,180752,5,0,0:0:0:0:
284,87,180850,1,0,0:0:0:0:
240,91,180948,1,0,0:0:0:0:
196,104,181046,1,0,0:0:0:0:
164,136,181144,5,0,0:0:0:0:
134,169,181242,1,0,0:0:0:0:
134,215,181340,1,0,0:0:0:0:
164,248,181438,1,0,0:0:0:0:
196,279,181536,5,0,0:0:0:0:
240,292,181634,1,0,0:0:0:0:
284,296,181732,1,0,0:0:0:0:
329,289,181831,1,0,0:0:0:0:
371,272,181929,6,0,P|407:192|371:112,1,179,4|0,0:0|0:0,0:0:0:0:
160,97,194890,5,6,0:0:0:0:
193,227,195086,1,0,0:0:0:0:
236,147,195282,1,8,0:0:0:0:
113,178,195478,1,2,0:0:0:0:
101,197,195576,1,0,0:0:0:0:
97,219,195674,5,2,0:0:0:0:
160,97,195870,1,0,0:0:0:0:
243,201,196066,1,10,0:0:0:0:
286,75,196262,1,2,0:0:0:0:
386,195,196458,5,2,0:0:0:0:
263,140,196654,1,0,0:0:0:0:
357,96,196850,1,10,0:0:0:0:
292,237,197046,1,2,0:0:0:0:
248,247,197144,1,0,0:0:0:0:
201,249,197242,5,2,0:0:0:0:
111,244,197438,1,0,0:0:0:0:
196,87,197634,1,8,0:0:0:0:
293,237,197830,1,0,0:0:0:0:
116,150,198026,5,2,0:0:0:0:
203,132,198222,1,0,0:0:0:0:
204,153,198320,1,0,0:0:0:0:
197,174,198418,1,8,0:0:0:0:
116,150,198614,1,2,0:0:0:0:
291,113,198810,1,0,0:0:0:0:
294,155,198908,1,0,0:0:0:0:
286,204,199006,1,0,0:0:0:0:
204,153,199202,1,10,0:0:0:0:
396,150,199398,1,0,0:0:0:0:
216,293,199594,6,0,L|122:274,1,89.5,2|0,0:0|0:0,0:0:0:0:
296,293,199986,2,0,L|390:274,1,89.5,2|0,0:0|0:0,0:0:0:0:
256,232,200378,1,2,0:0:0:0:
256,221,200476,1,0,0:0:0:0:
256,210,200574,1,0,0:0:0:0:
256,199,200672,1,0,0:0:0:0:
256,188,200770,1,10,0:0:0:0:
256,176,200868,1,0,0:0:0:0:
256,165,200966,1,0,0:0:0:0:
256,154,201064,1,0,0:0:0:0:
256,143,201162,5,6,0:0:0:0:
372,76,201358,1,0,0:0:0:0:
372,210,201554,1,10,0:0:0:0:
256,143,201750,1,2,0:0:0:0:
236,132,201848,1,0,0:0:0:0:
215,122,201946,5,2,0:0:0:0:
348,128,202142,1,0,0:0:0:0:
276,242,202338,1,10,0:0:0:0:
215,122,202534,1,2,0:0:0:0:
204,102,202632,1,0,0:0:0:0:
193,82,202730,5,2,0:0:0:0:
286,170,202926,1,0,0:0:0:0:
158,212,203122,1,10,0:0:0:0:
193,82,203318,1,2,0:0:0:0:
197,60,203416,1,0,0:0:0:0:
202,38,203514,5,2,0:0:0:0:
335,46,203710,1,0,0:0:0:0:
419,150,203906,1,10,0:0:0:0:
370,275,204102,1,0,0:0:0:0:
286,170,204298,5,2,0:0:0:0:
154,141,204494,1,0,0:0:0:0:
132,136,204592,1,0,0:0:0:0:
110,131,204690,1,8,0:0:0:0:
286,170,204886,1,2,0:0:0:0:
202,275,205082,1,0,0:0:0:0:
174,310,205180,1,0,0:0:0:0:
146,345,205278,1,0,0:0:0:0:
256,204,205474,1,10,0:0:0:0:
366,345,205670,1,0,0:0:0:0:
426,176,205866,6,0,L|438:123,1,44.75,10|8,0:0|0:0,0:0:0:0:
449,45,206062,1,0,0:0:0:0:
427,38,206160,1,0,0:0:0:0:
405,34,206258,1,0,0:0:0:0:
383,32,206356,1,0,0:0:0:0:
360,32,206454,1,0,0:0:0:0:
338,34,206552,1,0,0:0:0:0:
316,38,206650,1,0,0:0:0:0:
295,44,206748,1,0,0:0:0:0:
274,53,206846,1,0,0:0:0:0:
254,63,206944,1,0,0:0:0:0:
235,74,207042,2,0,L|179:104,1,44.75,8|0,0:0|0:0,0:0:0:0:
127,152,207238,2,0,L|183:182,1,44.75,0|0,0:0|0:0,0:0:0:0:
248,226,207434,5,6,0:0:0:0:
401,176,207630,1,0,0:0:0:0:
367,333,207826,2,0,L|264:360,1,107.399996722412,10|2,0:0|0:0,0:0:0:0:
229,369,208120,1,0,0:0:0:0:
195,377,208218,5,2,0:0:0:0:
89,255,208414,1,0,0:0:0:0:
248,226,208611,1,10,0:0:0:0:
405,260,208807,1,2,0:0:0:0:
444,104,209003,5,2,0:0:0:0:
286,69,209199,1,0,0:0:0:0:
248,226,209395,2,0,L|217:332,1,107.399996722412,10|2,0:0|0:0,0:0:0:0:
210,354,209689,1,0,0:0:0:0:
202,380,209787,1,2,0:0:0:0:
55,312,209983,1,0,0:0:0:0:
11,157,210179,1,10,0:0:0:0:
98,21,210375,1,2,0:0:0:0:
131,178,210571,6,0,P|153:231|194:273,1,107.399996722412,2|0,0:0|0:0,0:0:0:0:
337,324,210963,1,8,0:0:0:0:
337,324,211061,1,0,0:0:0:0:
337,324,211159,1,0,0:0:0:0:
241,194,211355,6,0,P|294:215|352:216,1,107.399996722412,2|0,0:0|0:0,0:0:0:0:
490,151,211747,1,8,0:0:0:0:
490,151,211845,1,0,0:0:0:0:
490,151,211943,1,0,0:0:0:0:
350,70,212139,5,2,0:0:0:0:
324,62,212237,1,0,0:0:0:0:
297,58,212335,1,0,0:0:0:0:
270,56,212433,1,2,0:0:0:0:
244,58,212531,1,0,0:0:0:0:
217,62,212629,1,0,0:0:0:0:
191,70,212727,1,2,0:0:0:0:
167,80,212825,1,0,0:0:0:0:
143,93,212923,2,0,L|90:127,1,53.6999983612061,2|0,0:0|0:0,0:0:0:0:
75,226,213119,2,0,L|128:192,1,53.6999983612061,2|0,0:0|0:0,0:0:0:0:
224,223,213315,2,0,L|175:260,1,53.6999983612061,2|0,0:0|0:0,0:0:0:0:
219,355,213511,2,0,L|257:308,1,53.6999983612061,2|0,0:0|0:0,0:0:0:0:
322,229,213707,5,6,0:0:0:0:
437,116,213903,1,0,0:0:0:0:
458,132,214001,1,0,0:0:0:0:
471,154,214099,1,10,0:0:0:0:
459,314,214295,1,2,0:0:0:0:
322,229,214491,5,2,0:0:0:0:
479,179,214687,1,0,0:0:0:0:
483,205,214785,1,0,0:0:0:0:
481,231,214883,1,10,0:0:0:0:
400,370,215079,1,2,0:0:0:0:
268,200,215275,5,2,0:0:0:0:
126,122,215471,1,0,0:0:0:0:
108,142,215569,1,0,0:0:0:0:
99,167,215667,1,10,0:0:0:0:
82,327,215863,1,2,0:0:0:0:
239,358,216059,5,2,0:0:0:0:
268,199,216255,1,0,0:0:0:0:
277,174,216353,1,0,0:0:0:0:
295,154,216451,1,10,0:0:0:0:
425,60,216647,1,2,0:0:0:0:
399,218,216843,6,0,P|374:276|334:309,1,107.399996722412,2|0,0:0|0:0,0:0:0:0:
320,320,217137,1,0,0:0:0:0:
295,329,217235,1,8,0:0:0:0:
268,333,217333,1,0,0:0:0:0:
241,336,217431,1,0,0:0:0:0:
332,203,217627,6,0,P|359:149|359:93,1,107.399996722412,2|0,0:0|0:0,0:0:0:0:
350,78,217921,1,0,0:0:0:0:
330,59,218019,1,8,0:0:0:0:
306,45,218117,1,0,0:0:0:0:
279,38,218215,1,0,0:0:0:0:
117,51,218411,6,0,P|95:80|93:149,1,107.399996722412,2|0,0:0|0:0,0:0:0:0:
157,296,218803,1,8,0:0:0:0:
433,290,218999,1,8,0:0:0:0:
438,116,219195,1,0,0:0:0:0:
322,229,219391,1,0,0:0:0:0:
349,70,219587,1,0,0:0:0:0:
420,215,219783,1,0,0:0:0:0:
279,141,219979,6,0,P|219:127|114:143,1,161.099995083618,6|0,0:0|0:0,0:0:0:0:
69,154,220371,1,8,0:0:0:0:
39,257,220567,1,2,0:0:0:0:
39,257,220665,1,0,0:0:0:0:
39,257,220763,1,0,0:0:0:0:
143,232,220959,1,0,0:0:0:0:
259,343,221155,1,10,0:0:0:0:
408,282,221351,1,0,0:0:0:0:
283,178,221547,6,0,P|288:115|346:39,1,161.099995083618,2|0,0:0|0:0,0:0:0:0:
391,11,221939,1,8,0:0:0:0:
446,102,222135,1,2,0:0:0:0:
446,102,222234,1,0,0:0:0:0:
446,102,222332,1,0,0:0:0:0:
473,206,222528,1,0,0:0:0:0:
473,206,222626,1,0,0:0:0:0:
473,206,222724,2,0,P|418:238|373:251,1,107.399996722412,8|0,0:0|0:0,0:0:0:0:
215,253,223116,6,0,P|160:248|112:221,1,107.399996722412,2|0,0:0|0:0,0:0:0:0:
39,145,223508,1,10,0:0:0:0:
253,158,223704,2,0,P|312:172|356:193,2,107.399996722412,2|0|0,0:0|0:0|0:0,0:0:0:0:
146,147,224292,1,10,0:0:0:0:
84,235,224488,1,0,0:0:0:0:
215,327,224684,6,0,P|284:350|319:352,1,107.399996722412,2|0,0:0|0:0,0:0:0:0:
470,263,225076,2,0,P|401:240|366:238,1,107.399996722412,10|0,0:0|0:0,0:0:0:0:
206,249,225468,2,0,P|275:272|310:274,1,107.399996722412,2|0,0:0|0:0,0:0:0:0:
461,185,225860,2,0,P|392:162|357:160,1,107.399996722412,10|0,0:0|0:0,0:0:0:0:
144,177,226252,6,0,P|115:238|133:337,1,161.099995083618,6|0,0:0|0:0,0:0:0:0:
163,368,226644,1,8,0:0:0:0:
282,259,226840,1,2,0:0:0:0:
282,259,226938,1,0,0:0:0:0:
282,259,227036,1,0,0:0:0:0:
287,98,227232,2,0,P|226:69|179:59,2,107.399996722412,0|10|0,0:0|0:0|0:0,0:0:0:0:
424,183,227820,6,0,P|333:165|261:174,1,161.099995083618,2|0,0:0|0:0,0:0:0:0:
215,190,228212,1,8,0:0:0:0:
82,281,228408,1,2,0:0:0:0:
82,281,228506,1,0,0:0:0:0:
82,281,228604,1,0,0:0:0:0:
241,302,228800,1,0,0:0:0:0:
241,302,228898,1,0,0:0:0:0:
241,302,228996,1,8,0:0:0:0:
397,264,229192,1,0,0:0:0:0:
285,148,229388,6,0,P|213:123|173:123,1,107.399996722412,2|0,0:0|0:0,0:0:0:0:
22,138,229780,1,10,0:0:0:0:
222,216,229976,2,0,P|281:233|338:224,2,107.399996722412,2|0|0,0:0|0:0|0:0,0:0:0:0:
120,180,230564,2,0,P|154:131|201:110,1,107.399996722412,10|0,0:0|0:0,0:0:0:0:
300,85,230956,5,0,0:0:0:0:
326,89,231054,1,0,0:0:0:0:
350,101,231152,1,0,0:0:0:0:
371,118,231250,1,0,0:0:0:0:
387,139,231348,1,0,0:0:0:0:
397,164,231446,1,0,0:0:0:0:
400,191,231544,1,0,0:0:0:0:
397,217,231642,1,0,0:0:0:0:
388,242,231740,1,0,0:0:0:0:
372,264,231838,1,0,0:0:0:0:
352,281,231936,1,0,0:0:0:0:
328,293,232034,1,0,0:0:0:0:
301,298,232132,1,0,0:0:0:0:
112,192,232524,5,6,0:0:0:0:
94,171,232622,1,2,0:0:0:0:
76,150,232720,2,0,P|63:51|162:43,1,214.799993444824,0|6,0:0|0:0,0:0:0:0:
256,80,233308,1,0,0:0:0:0:
356,38,233504,1,0,0:0:0:0:
256,187,233700,2,0,L|256:299,1,107.399996722412,6|0,0:0|0:0,0:0:0:0:
456,141,234288,5,0,0:0:0:0:
364,84,234484,2,0,L|364:196,1,107.399996722412,4|0,0:0|0:0,0:0:0:0:
364,300,234876,1,0,0:0:0:0:
456,243,235072,1,4,0:0:0:0:
458,36,235268,1,4,0:0:0:0:
310,192,235464,1,4,0:0:0:0:
458,348,235660,1,4,0:0:0:0:
96,128,248215,6,0,P|151:151|206:153,1,107.399996722412,4|0,0:0|0:0,0:0:0:0:
307,130,248606,1,10,0:0:0:0:
256,224,248802,2,0,P|211:266|165:281,2,107.399996722412,2|0|0,0:0|0:0|0:0,0:0:0:0:
307,130,249390,1,10,0:0:0:0:
328,144,249488,1,0,0:0:0:0:
346,165,249586,1,0,0:0:0:0:
359,188,249684,1,0,0:0:0:0:
364,214,249782,6,0,P|349:278|320:312,1,107.399996722412,2|0,0:0|0:0,0:0:0:0:
256,225,250173,1,10,0:0:0:0:
187,309,250369,2,0,P|162:278|147:214,2,107.399996722412,2|0|0,0:0|0:0|0:0,0:0:0:0:
256,225,250957,1,10,0:0:0:0:
268,201,251055,1,0,0:0:0:0:
280,177,251153,1,2,0:0:0:0:
293,154,251251,1,0,0:0:0:0:
306,130,251349,5,4,0:0:0:0:
403,85,251545,1,0,0:0:0:0:
396,192,251741,1,10,0:0:0:0:
299,232,251936,2,0,P|231:264|198:284,2,107.399996722412,2|0|0,0:0|0:0|0:0,0:0:0:0:
396,192,252524,1,10,0:0:0:0:
403,85,252720,1,0,0:0:0:0:
306,130,252916,6,0,L|262:163,1,53.6999983612061,2|0,0:0|0:0,0:0:0:0:
202,255,253112,2,0,L|218:202,1,53.6999983612061
212,92,253308,2,0,L|229:144,1,53.6999983612061,8|0,0:0|0:0,0:0:0:0:
299,231,253504,2,0,L|254:198,1,53.6999983612061
147,170,253699,5,0,0:0:0:0:
120,172,253797,1,0,0:0:0:0:
97,186,253895,1,0,0:0:0:0:
80,206,253993,1,0,0:0:0:0:
72,232,254091,1,12,0:0:0:0:
74,259,254189,1,0,0:0:0:0:
87,282,254287,1,0,0:0:0:0:
107,300,254385,1,0,0:0:0:0:
133,308,254483,5,4,0:0:0:0:
212,231,254679,1,0,0:0:0:0:
284,310,254875,1,10,0:0:0:0:
400,197,255071,2,0,B|436:145|384:100,2,107.399996722412,2|0|0,0:0|0:0|0:0,0:0:0:0:
293,231,255658,1,10,0:0:0:0:
266,231,255756,1,0,0:0:0:0:
239,231,255854,1,0,0:0:0:0:
212,231,255952,1,0,0:0:0:0:
185,231,256050,5,2,0:0:0:0:
96,170,256246,1,0,0:0:0:0:
158,81,256442,1,8,0:0:0:0:
290,174,256638,2,0,P|338:196|399:201,2,107.399996722412,2|0|0,0:0|0:0|0:0,0:0:0:0:
184,152,257225,2,0,L|135:131,1,53.6999983612061,10|0,0:0|0:0,0:0:0:0:
184,231,257421,2,0,L|135:252,1,53.6999983612061,2|0,0:0|0:0,0:0:0:0:
232,296,257617,6,0,P|289:309|336:297,1,107.399996722412,2|0,0:0|0:0,0:0:0:0:
358,192,258009,1,8,0:0:0:0:
336,85,258205,2,2,P|289:74|232:87,1,107.399996722412,2|0,0:0|0:0,0:0:0:0:
324,143,258597,1,0,0:0:0:0:
420,192,258792,1,10,0:0:0:0:
324,240,258988,1,0,0:0:0:0:
231,296,259184,6,0,L|174:324,1,53.6999983612061,2|0,0:0|0:0,0:0:0:0:
171,267,259380,2,0,L|107:257,1,53.6999983612061
142,211,259576,1,8,0:0:0:0:
129,187,259674,1,0,0:0:0:0:
147,167,259772,1,0,0:0:0:0:
171,179,259870,1,0,0:0:0:0:
168,205,259968,6,0,L|223:233,1,53.6999983612061,2|0,0:0|0:0,0:0:0:0:
256,195,260164,2,0,L|316:186,1,53.6999983612061
291,136,260360,1,8,0:0:0:0:
327,117,260457,1,0,0:0:0:0:
321,77,260555,1,0,0:0:0:0:
282,71,260653,1,0,0:0:0:0:
245,85,260751,6,0,P|187:106|143:142,1,107.399996722412,4|0,0:0|0:0,0:0:0:0:
105,231,261143,1,10,0:0:0:0:
255,286,261339,2,0,P|308:301|360:295,1,107.399996722412,2|0,0:0|0:0,0:0:0:0:
437,220,261731,1,0,0:0:0:0:
329,230,261927,1,10,0:0:0:0:
302,228,262025,1,0,0:0:0:0:
276,220,262123,1,0,0:0:0:0:
252,208,262220,1,0,0:0:0:0:
231,191,262318,6,0,P|172:172|129:187,1,107.399996722412,2|0,0:0|0:0,0:0:0:0:
72,276,262710,1,10,0:0:0:0:
213,113,262906,2,0,P|268:95|320:107,1,107.399996722412,2|0,0:0|0:0,0:0:0:0:
404,166,263298,1,0,0:0:0:0:
389,272,263494,1,10,0:0:0:0:
380,297,263592,1,0,0:0:0:0:
362,317,263690,1,2,0:0:0:0:
338,328,263788,1,0,0:0:0:0:
311,330,263886,5,4,0:0:0:0:
200,330,264081,1,0,0:0:0:0:
164,225,264277,1,10,0:0:0:0:
344,222,264473,2,0,P|396:198|428:152,2,107.399996722412,2|0|0,0:0|0:0|0:0,0:0:0:0:
252,159,265061,1,10,0:0:0:0:
252,159,265257,1,0,0:0:0:0:
151,123,265453,6,0,L|96:98,1,53.6999983612061,2|0,0:0|0:0,0:0:0:0:
140,192,265648,2,0,L|76:192,1,53.6999983612061
151,260,265844,2,0,L|96:285,1,53.6999983612061,8|0,0:0|0:0,0:0:0:0:
203,306,266040,1,0,0:0:0:0:
229,298,266138,1,0,0:0:0:0:
256,296,266236,5,0,0:0:0:0:
282,298,266334,1,0,0:0:0:0:
308,306,266432,2,0,L|366:323,1,53.6999983612061
371,192,266628,2,0,L|435:192,1,53.6999983612061,12|0,0:0|0:0,0:0:0:0:
308,76,266824,2,0,L|366:60,1,53.6999983612061
245,192,267020,6,0,L|171:281,1,107.399996722412,4|0,0:0|0:0,0:0:0:0:
282,298,267411,1,10,0:0:0:0:
133,167,267607,2,0,P|83:108|78:75,2,107.399996722412,2|0|0,0:0|0:0|0:0,0:0:0:0:
245,192,268195,1,10,0:0:0:0:
272,192,268293,1,0,0:0:0:0:
299,192,268391,1,0,0:0:0:0:
325,192,268489,1,0,0:0:0:0:
352,192,268587,5,2,0:0:0:0:
460,192,268783,1,0,0:0:0:0:
405,99,268979,1,8,0:0:0:0:
405,284,269174,2,0,P|372:328|324:323,1,107.399996722412,2|0,0:0|0:0,0:0:0:0:
256,240,269566,1,0,0:0:0:0:
186,323,269762,2,0,P|139:328|106:284,1,107.399996722412,10|0,0:0|0:0,0:0:0:0:
107,176,270154,6,8,B|107:134|107:134|102:115|102:115|102:63,2,107.399996722412,6|0|8,0:0|0:0|0:0,0:0:0:0:
206,216,270742,2,0,B|206:259|206:259|211:278|211:278|211:329,2,107.399996722412,2|0|0,0:0|0:0|0:0,0:0:0:0:
187,110,271329,2,0,P|237:76|284:73,1,107.399996722412,10|0,0:0|0:0,0:0:0:0:
310,177,271721,6,0,L|348:223,3,53.6999983612061,6|0|0|0,0:0|0:0|0:0|0:0,0:0:0:0:
272,240,272113,2,0,L|288:302,3,53.6999983612061,12|0|0|0,0:0|0:0|0:0|0:0,0:0:0:0:
239,143,272505,2,0,L|226:91,3,53.6999983612061,4|0|0|0,0:0|0:0|0:0|0:0,0:0:0:0:
201,206,272896,2,0,L|167:164,3,53.6999983612061,4|0|0|0,0:0|0:0|0:0|0:0,0:0:0:0:
219,258,273288,5,6,0:0:0:0:
324,282,273484,1,0,0:0:0:0:
324,282,273582,1,0,0:0:0:0:
324,282,273680,1,8,0:0:0:0:
311,176,273876,1,6,0:0:0:0:
168,248,274072,5,6,0:0:0:0:
60,239,274267,1,0,0:0:0:0:
60,239,274365,1,0,0:0:0:0:
60,239,274463,1,8,0:0:0:0:
122,151,274659,1,6,0:0:0:0:
311,176,274855,5,6,0:0:0:0:
417,166,275051,1,0,0:0:0:0:
417,166,275149,1,0,0:0:0:0:
417,166,275247,1,8,0:0:0:0:
356,77,275443,1,6,0:0:0:0:
207,214,275639,5,6,0:0:0:0:
122,151,275835,1,0,0:0:0:0:
122,151,275933,1,0,0:0:0:0:
122,151,276030,1,0,0:0:0:0:
219,107,276226,1,0,0:0:0:0:
311,176,276422,5,0,0:0:0:0:
192,326,276618,1,0,0:0:0:0:
122,151,276814,2,0,B|95:114|115:85|164:82|183:107|191:144|205:172|166:206|131:216|108:213,1,214.799993444824
373,208,277598,5,4,0:0:0:0:
169,108,277989,1,0,0:0:0:0:
276,309,278381,1,0,0:0:0:0:
308,83,278773,1,0,0:0:0:0:
149,248,279165,1,0,0:0:0:0:
256,192,279556,1,4,0:0:0:0:
256,192,279752,1,0,0:0:0:0:
