osu file format v12

[General]
AudioFilename: Nightwish - 01 - She Is My Sin.mp3
AudioLeadIn: 0
PreviewTime: 88620
Countdown: 0
SampleSet: Normal
StackLeniency: 0.7
Mode: 0
LetterboxInBreaks: 1
WidescreenStoryboard: 0

[Editor]
Bookmarks: 25483,38040,44306,46364,47443,63130,63924,72541,88227,94502,100776,113325,125874,132149,141560,175482,182345,194894,235678
DistanceSpacing: 1
BeatDivisor: 2
GridSize: 16

[Metadata]
Title:She Is My Sin
TitleUnicode:She Is My Sin
Artist:Nightwish
ArtistUnicode:Nightwish
Creator:Shiro
Version:Hard
Source:
Tags:Odaril wishmaster
BeatmapID:256545
BeatmapSetID:92347

[Difficulty]
HPDrainRate:5
CircleSize:3
OverallDifficulty:6
ApproachRate:6
SliderMultiplier:1.6
SliderTickRate:2

[Events]
//Background and Video events
0,0,"background.jpg",0,0
//Break Periods
2,113515,124811
2,182521,193840
//Storyboard Layer 0 (Background)
//Storyboard Layer 1 (Fail)
//Storyboard Layer 2 (Pass)
//Storyboard Layer 3 (Foreground)
//Storyboard Sound Samples
//Background Colour Transformations
3,100,163,162,255

[TimingPoints]
396,392.079984316801,4,1,1,70,1,0
37982,-100,4,2,1,70,0,0
44257,-100,4,1,2,78,0,0
44355,-100,4,1,1,78,0,0
44845,-100,4,1,2,78,0,0
45139,-100,4,1,1,78,0,0
45630,-100,4,1,2,78,0,0
45924,-100,4,1,1,78,0,0
46414,-100,4,1,2,78,0,0
46708,-100,4,1,1,78,0,0
47002,-100,4,1,2,78,0,0
47100,-100,4,1,1,78,0,0
47394,-100,4,2,1,78,0,0
53669,-100,4,1,2,78,0,0
53963,-100,4,1,1,78,0,0
54453,-100,4,1,2,78,0,0
54747,-100,4,1,1,78,0,0
55237,-100,4,1,2,78,0,0
55532,-100,4,1,1,78,0,0
56022,-100,4,1,2,78,0,0
56316,-100,4,1,1,78,0,0
56560,-100,4,2,1,48,0,0
56806,-100,4,1,2,78,0,0
56904,-100,4,2,1,78,0,0
63081,-100,4,1,2,78,0,0
63179,-100,4,1,1,78,0,0
63669,-100,4,1,2,78,0,0
63963,-100,4,1,1,78,0,0
64453,-100,4,1,2,78,0,0
64747,-100,4,1,1,78,0,0
65237,-100,4,1,2,78,0,0
65532,-100,4,1,1,78,0,0
65826,-100,4,1,2,78,0,0
65924,-100,4,1,1,78,0,0
66218,-100,4,2,1,78,0,0
72492,-100,4,1,1,78,0,0
72786,-100,4,1,2,78,0,0
73081,-100,4,1,2,78,0,0
73277,-100,4,2,1,78,0,0
73669,-100,4,1,1,78,0,0
75629,-100,4,1,2,78,0,0
75923,-100,4,1,1,78,0,0
76413,-100,4,1,2,78,0,0
76707,-100,4,1,1,78,0,0
76904,-100,4,1,2,78,0,0
77002,-100,4,1,1,78,0,0
77198,-100,4,1,2,78,0,0
77492,-100,4,1,1,78,0,0
77982,-100,4,1,2,78,0,0
78276,-100,4,1,1,78,0,0
78472,-100,4,1,2,78,0,0
78570,-100,4,1,1,78,0,0
78766,-100,4,1,2,78,0,0
79060,-100,4,1,1,78,0,0
79551,-100,4,1,2,78,0,0
79845,-100,4,1,1,78,0,0
80335,-100,4,1,2,78,0,0
80629,-100,4,1,1,78,0,0
81119,-100,4,1,2,78,0,0
81413,-100,4,1,1,78,0,0
81904,-100,4,1,2,78,0,0
82198,-100,4,1,1,78,0,0
82688,-100,4,1,2,78,0,0
82982,-100,4,1,1,78,0,0
83472,-100,4,1,2,78,0,0
83766,-100,4,1,1,78,0,0
84257,-100,4,1,2,78,0,0
84551,-100,4,1,1,78,0,0
84897,-100,4,1,1,5,0,0
88178,-100,4,1,2,90,0,0
88276,-100,4,1,1,90,0,0
88570,-100,4,1,2,90,0,0
88864,-100,4,1,1,90,0,0
89355,-100,4,1,2,90,0,0
89453,-100,4,1,1,90,0,0
89747,-100,4,1,2,90,0,0
89845,-100,4,1,1,90,0,0
90139,-100,4,1,2,90,0,0
90433,-100,4,1,1,90,0,0
90923,-100,4,1,2,90,0,0
91021,-100,4,1,1,90,0,0
91315,-100,4,1,2,90,0,0
91413,-100,4,1,1,90,0,0
91707,-100,4,1,2,90,0,0
92002,-100,4,1,1,90,0,0
92492,-100,4,1,2,90,0,0
92590,-100,4,1,1,90,0,0
92884,-100,4,1,2,90,0,0
93276,-100,4,1,1,90,0,0
93472,-100,4,1,2,90,0,0
93766,-100,4,1,1,90,0,0
93864,-100,4,1,2,90,0,0
94060,-100,4,1,1,90,0,0
94257,-100,4,1,2,90,0,0
94551,-100,4,1,1,90,0,0
94845,-100,4,1,2,90,0,0
95139,-100,4,1,1,90,0,0
95629,-100,4,1,2,90,0,0
95727,-100,4,1,1,90,0,0
96021,-100,4,1,2,90,0,0
96119,-100,4,1,1,90,0,0
96413,-100,4,1,2,90,0,0
96707,-100,4,1,1,90,0,0
97198,-100,4,1,2,90,0,0
97296,-100,4,1,1,90,0,0
97590,-100,4,1,2,90,0,0
97688,-100,4,1,1,90,0,0
97982,-100,4,1,2,90,0,0
98276,-100,4,1,1,90,0,0
98766,-100,4,1,2,90,0,0
98864,-100,4,1,1,90,0,0
100335,-100,4,1,2,90,0,0
100825,-100,4,1,1,90,0,0
101144,-100,4,1,2,90,0,0
101389,-100,4,1,1,90,0,0
101928,-100,4,1,2,90,0,0
101977,-100,4,1,1,90,0,0
102296,-100,4,1,2,90,0,0
102394,-100,4,1,1,90,0,0
102688,-100,4,1,2,90,0,0
102982,-100,4,1,1,90,0,0
103472,-100,4,1,2,90,0,0
103570,-100,4,1,1,90,0,0
103864,-100,4,1,2,90,0,0
103962,-100,4,1,1,90,0,0
104257,-100,4,1,2,90,0,0
104551,-100,4,1,1,90,0,0
105041,-100,4,1,2,90,0,0
105139,-100,4,1,1,90,0,0
105433,-100,4,1,2,90,0,0
105825,-100,4,1,1,90,0,0
106021,-100,4,1,2,90,0,0
106609,-100,4,1,1,90,0,0
106806,-100,4,1,2,90,0,0
107100,-100,4,1,1,90,0,0
107394,-100,4,1,2,90,0,0
107688,-100,4,1,1,90,0,0
108178,-100,4,1,2,90,0,0
108276,-100,4,1,1,90,0,0
108570,-100,4,1,2,90,0,0
108668,-100,4,1,1,90,0,0
108962,-100,4,1,2,90,0,0
109257,-100,4,1,1,90,0,0
109747,-100,4,1,2,90,0,0
109845,-100,4,1,1,90,0,0
110139,-100,4,1,2,90,0,0
110237,-100,4,1,1,90,0,0
110531,-100,4,1,2,90,0,0
110825,-100,4,1,1,90,0,0
111315,-100,4,1,2,90,0,0
111413,-100,4,1,1,90,0,0
111806,-100,4,1,2,90,0,0
112100,-100,4,1,1,90,0,0
112198,-100,4,1,2,90,0,0
112492,-100,4,1,1,90,0,0
112590,-100,4,1,2,90,0,0
112884,-100,4,1,1,90,0,0
112982,-100,4,1,2,90,0,0
113276,-100,4,1,1,90,0,0
125482,-100,4,2,1,78,0,0
132051,-100,4,1,2,78,0,0
132443,-100,4,1,1,78,0,0
132835,-100,4,1,2,78,0,0
133227,-100,4,1,1,78,0,0
133619,-100,4,1,2,78,0,0
134011,-100,4,1,1,78,0,0
134404,-100,4,1,2,78,0,0
134796,-100,4,1,1,78,0,0
134992,-100,4,1,2,78,0,0
135188,-100,4,2,1,78,0,0
141462,-100,4,1,2,78,0,0
141855,-100,4,1,1,78,0,0
142051,-100,4,1,2,78,0,0
142296,-100,4,1,1,78,0,0
142688,-100,4,1,2,78,0,0
144992,-100,4,1,1,78,0,0
145629,-100,4,1,2,78,0,0
145727,-100,4,1,1,78,0,0
145923,-100,4,1,2,78,0,0
146021,-100,4,1,1,78,0,0
146217,-100,4,1,2,78,0,0
146511,-100,4,1,1,78,0,0
147198,-100,4,1,2,78,0,0
147296,-100,4,1,1,78,0,0
147492,-100,4,1,2,78,0,0
147590,-100,4,1,1,78,0,0
147786,-100,4,1,2,78,0,0
148080,-100,4,1,1,78,0,0
148766,-100,4,1,2,78,0,0
148864,-100,4,1,1,78,0,0
149060,-100,4,1,2,78,0,0
149158,-100,4,1,1,78,0,0
149355,-100,4,1,2,78,0,0
149649,-100,4,1,1,78,0,0
150335,-100,4,1,2,78,0,0
150433,-100,4,1,1,78,0,0
150923,-100,4,1,2,78,0,0
151217,-100,4,1,1,78,0,0
151904,-100,4,1,2,78,0,0
152002,-100,4,1,1,78,0,0
152492,-100,4,1,2,78,0,0
152786,-100,4,1,1,78,0,0
153472,-100,4,1,2,78,0,0
153570,-100,4,1,1,78,0,0
154060,-100,4,1,2,78,0,0
154158,-100,4,1,1,78,0,0
154649,-100,4,1,2,78,0,0
154747,-100,4,1,1,78,0,0
155237,-100,4,1,2,78,0,0
155335,-100,4,1,1,78,0,0
155629,-100,4,1,2,78,0,0
155727,-100,4,1,1,78,0,0
156413,-100,4,1,2,78,0,0
156511,-100,4,1,1,78,0,0
157198,-100,4,1,2,90,0,0
157484,-100,4,1,1,90,0,0
157778,-100,4,1,2,90,0,0
157876,-100,4,1,1,90,0,0
158170,-100,4,1,2,90,0,0
158268,-100,4,1,1,90,0,0
158758,-100,4,1,2,90,0,0
159052,-100,4,1,1,90,0,0
159347,-100,4,1,2,90,0,0
159445,-100,4,1,1,90,0,0
159739,-100,4,1,2,90,0,0
159837,-100,4,1,1,90,0,0
160327,-100,4,1,2,90,0,0
160621,-100,4,1,1,90,0,0
160915,-100,4,1,2,90,0,0
161013,-100,4,1,1,90,0,0
161307,-100,4,1,2,90,0,0
161405,-100,4,1,1,90,0,0
161896,-100,4,1,2,90,0,0
162288,-100,4,1,1,90,0,0
162386,-100,4,1,2,90,0,0
163072,-100,4,1,1,90,0,0
163464,-100,4,1,2,90,0,0
163758,-100,4,1,1,90,0,0
164052,-100,4,1,2,90,0,0
164150,-100,4,1,1,90,0,0
164445,-100,4,1,2,90,0,0
164543,-100,4,1,1,90,0,0
165033,-100,4,1,2,90,0,0
165327,-100,4,1,1,90,0,0
165621,-100,4,1,2,90,0,0
165719,-100,4,1,1,90,0,0
166013,-100,4,1,2,90,0,0
166111,-100,4,1,1,90,0,0
166601,-100,4,1,2,90,0,0
166896,-100,4,1,1,90,0,0
167190,-100,4,1,2,90,0,0
167288,-100,4,1,1,90,0,0
167582,-100,4,1,2,90,0,0
167680,-100,4,1,1,90,0,0
169343,-100,4,1,2,90,0,0
170029,-100,4,1,1,90,0,0
170323,-100,4,1,2,90,0,0
170421,-100,4,1,1,90,0,0
170715,-100,4,1,2,90,0,0
170813,-100,4,1,1,90,0,0
171303,-100,4,1,2,90,0,0
171597,-100,4,1,1,90,0,0
171892,-100,4,1,2,90,0,0
171990,-100,4,1,1,90,0,0
172284,-100,4,1,2,90,0,0
172382,-100,4,1,1,90,0,0
172872,-100,4,1,2,90,0,0
173166,-100,4,1,1,90,0,0
173460,-100,4,1,2,90,0,0
173558,-100,4,1,1,90,0,0
173852,-100,4,1,2,90,0,0
173950,-100,4,1,1,90,0,0
174441,-100,4,1,2,90,0,0
174539,-100,4,1,1,90,0,0
174637,-100,4,1,2,90,0,0
174833,-100,4,1,1,90,0,0
175029,-100,4,1,2,90,0,0
175127,-100,4,1,1,90,0,0
175225,-100,4,1,2,90,0,0
175323,-100,4,1,1,90,0,0
175421,-100,4,1,2,90,0,0
175617,-100,4,1,1,90,0,0
175813,-100,4,1,2,90,0,0
175911,-100,4,1,1,90,0,0
176009,-100,4,1,2,90,0,0
176303,-100,4,1,1,90,0,0
176597,-100,4,1,2,90,0,0
176695,-100,4,1,1,90,0,0
176990,-100,4,1,2,90,0,0
177088,-100,4,1,1,90,0,0
177578,-100,4,1,2,90,0,0
177872,-100,4,1,1,90,0,0
178166,-100,4,1,2,90,0,0
178264,-100,4,1,1,90,0,0
178558,-100,4,1,2,90,0,0
178656,-100,4,1,1,90,0,0
179146,-100,4,1,2,90,0,0
179441,-100,4,1,1,90,0,0
179735,-100,4,1,2,90,0,0
179833,-100,4,1,1,90,0,0
180127,-100,4,1,2,90,0,0
180225,-100,4,1,1,90,0,0
180813,-100,4,1,2,90,0,0
181107,-100,4,1,1,90,0,0
181205,-100,4,1,2,90,0,0
181499,-100,4,1,1,90,0,0
181597,-100,4,1,2,90,0,0
181892,-100,4,1,1,90,0,0
194890,392.02874877491,4,1,1,90,1,1
195034,-100,4,1,2,90,0,1
195230,-100,4,1,1,90,0,1
195426,-100,4,1,2,90,0,1
195622,-100,4,1,1,90,0,1
195818,-100,4,1,2,90,0,1
196014,-100,4,1,1,90,0,1
196210,-100,4,1,2,90,0,1
196406,-100,4,1,1,90,0,1
196602,-100,4,1,2,90,0,1
196798,-100,4,1,1,90,0,1
196994,-100,4,1,2,90,0,1
197190,-100,4,1,1,90,0,1
197387,-100,4,1,2,90,0,1
197583,-100,4,1,1,90,0,1
197779,-100,4,1,2,90,0,1
197975,-100,4,1,1,90,0,1
198171,-100,4,1,2,90,0,1
198465,-100,4,1,1,90,0,1
198759,-100,4,1,2,90,0,1
199053,-100,4,1,1,90,0,1
199347,-100,4,1,2,90,0,1
199445,-100,4,1,1,90,0,1
199739,-100,4,1,2,90,0,1
199837,-100,4,1,1,90,0,1
200132,-100,4,1,2,90,0,1
200230,-100,4,1,1,90,0,1
200426,-100,4,1,2,90,0,1
200720,-100,4,1,1,90,0,1
200818,-100,4,1,2,90,0,1
201112,-100,4,1,1,90,0,1
201308,-100,4,1,2,90,0,1
201504,-100,4,1,1,90,0,1
201700,-100,4,1,2,90,0,1
201896,-100,4,1,1,90,0,1
202092,-100,4,1,2,90,0,1
202288,-100,4,1,1,90,0,1
202485,-100,4,1,2,90,0,1
202681,-100,4,1,1,90,0,1
202877,-100,4,1,2,90,0,1
203073,-100,4,1,1,90,0,1
203269,-100,4,1,2,90,0,1
203465,-100,4,1,1,90,0,1
203661,-100,4,1,2,90,0,1
203857,-100,4,1,1,90,0,1
204053,-100,4,1,2,90,0,1
204249,-100,4,1,1,90,0,1
204445,-100,4,1,2,90,0,1
204739,-100,4,1,1,90,0,1
205034,-100,4,1,2,90,0,1
205328,-100,4,1,1,90,0,1
205622,-100,4,1,2,90,0,1
205720,-100,4,1,1,90,0,1
206014,-100,4,1,2,90,0,1
206210,-100,4,1,1,90,0,1
206308,-100,4,1,2,90,0,1
206602,-100,4,1,1,90,0,1
206700,-100,4,1,2,90,0,1
206994,-100,4,1,1,90,0,1
207092,-100,4,1,2,90,0,1
207190,-100,4,1,1,90,0,1
207288,-100,4,1,2,90,0,1
207387,-83.3333333333333,4,1,1,90,0,1
207583,-83.3333333333333,4,1,2,90,0,1
207779,-83.3333333333333,4,1,1,90,0,1
207975,-83.3333333333333,4,1,2,90,0,1
208171,-83.3333333333333,4,1,1,90,0,1
208367,-83.3333333333333,4,1,2,90,0,1
208563,-83.3333333333333,4,1,1,90,0,1
208759,-83.3333333333333,4,1,2,90,0,1
208955,-83.3333333333333,4,1,1,90,0,1
209151,-83.3333333333333,4,1,2,90,0,1
209347,-83.3333333333333,4,1,1,90,0,1
209543,-83.3333333333333,4,1,2,90,0,1
209739,-83.3333333333333,4,1,1,90,0,1
209936,-83.3333333333333,4,1,2,90,0,1
210132,-83.3333333333333,4,1,1,90,0,1
210328,-83.3333333333333,4,1,2,90,0,1
210524,-83.3333333333333,4,1,1,90,0,1
210622,-83.3333333333333,4,1,2,90,0,1
210818,-83.3333333333333,4,1,1,90,0,1
211014,-83.3333333333333,4,1,2,90,0,1
211210,-83.3333333333333,4,1,1,90,0,1
211406,-83.3333333333333,4,1,2,90,0,1
211602,-83.3333333333333,4,1,1,90,0,1
211798,-83.3333333333333,4,1,2,90,0,1
211994,-83.3333333333333,4,1,1,90,0,1
212190,-83.3333333333333,4,1,2,90,0,1
212485,-83.3333333333333,4,1,1,90,0,1
212583,-83.3333333333333,4,1,2,90,0,1
212877,-83.3333333333333,4,1,1,90,0,1
212975,-83.3333333333333,4,1,2,90,0,1
213269,-83.3333333333333,4,1,1,90,0,1
213367,-83.3333333333333,4,1,2,90,0,1
213661,-83.3333333333333,4,1,1,90,0,1
213857,-83.3333333333333,4,1,2,90,0,1
214053,-83.3333333333333,4,1,1,90,0,1
214249,-83.3333333333333,4,1,2,90,0,1
214445,-83.3333333333333,4,1,1,90,0,1
214641,-83.3333333333333,4,1,2,90,0,1
214837,-83.3333333333333,4,1,1,90,0,1
215034,-83.3333333333333,4,1,2,90,0,1
215230,-83.3333333333333,4,1,1,90,0,1
215426,-83.3333333333333,4,1,2,90,0,1
215622,-83.3333333333333,4,1,1,90,0,1
215818,-83.3333333333333,4,1,2,90,0,1
216014,-83.3333333333333,4,1,1,90,0,1
216210,-83.3333333333333,4,1,2,90,0,1
216406,-83.3333333333333,4,1,1,90,0,1
216602,-83.3333333333333,4,1,2,90,0,1
216798,-83.3333333333333,4,1,1,90,0,1
216994,-83.3333333333333,4,1,2,90,0,1
217190,-83.3333333333333,4,1,1,90,0,1
217288,-83.3333333333333,4,1,2,90,0,1
217485,-83.3333333333333,4,1,1,90,0,1
217779,-83.3333333333333,4,1,2,90,0,1
217975,-83.3333333333333,4,1,1,90,0,1
218073,-83.3333333333333,4,1,2,90,0,1
218269,-83.3333333333333,4,1,1,90,0,1
218420,-83.3333333333333,4,1,1,90,0,1
218563,-83.3333333333333,4,1,2,90,0,1
218661,-83.3333333333333,4,1,1,90,0,1
220132,-83.3333333333333,4,1,2,90,0,1
220328,-83.3333333333333,4,1,1,90,0,1
220524,-83.3333333333333,4,1,2,90,0,1
220720,-83.3333333333333,4,1,1,90,0,1
220916,-83.3333333333333,4,1,2,90,0,1
221112,-83.3333333333333,4,1,1,90,0,1
221308,-83.3333333333333,4,1,2,90,0,1
221504,-83.3333333333333,4,1,1,90,0,1
221700,-83.3333333333333,4,1,2,90,0,1
221896,-83.3333333333333,4,1,1,90,0,1
222092,-83.3333333333333,4,1,2,90,0,1
222288,-83.3333333333333,4,1,1,90,0,1
222485,-83.3333333333333,4,1,2,90,0,1
222681,-83.3333333333333,4,1,1,90,0,1
222877,-83.3333333333333,4,1,2,90,0,1
223073,-83.3333333333333,4,1,1,90,0,1
223269,-83.3333333333333,4,1,2,90,0,1
223465,-83.3333333333333,4,1,1,90,0,1
223661,-83.3333333333333,4,1,2,90,0,1
223857,-83.3333333333333,4,1,1,90,0,1
224053,-83.3333333333333,4,1,2,90,0,1
224249,-83.3333333333333,4,1,1,90,0,1
224445,-83.3333333333333,4,1,2,90,0,1
224641,-83.3333333333333,4,1,1,90,0,1
224837,-83.3333333333333,4,1,2,90,0,1
225034,-83.3333333333333,4,1,1,90,0,1
225230,-83.3333333333333,4,1,2,90,0,1
225426,-83.3333333333333,4,1,1,90,0,1
225622,-83.3333333333333,4,1,2,90,0,1
225818,-83.3333333333333,4,1,1,90,0,1
226014,-83.3333333333333,4,1,2,90,0,1
226210,-83.3333333333333,4,1,1,90,0,1
226406,-83.3333333333333,4,1,2,90,0,1
226602,-83.3333333333333,4,1,1,90,0,1
226798,-83.3333333333333,4,1,2,90,0,1
226994,-83.3333333333333,4,1,1,90,0,1
227190,-83.3333333333333,4,1,2,90,0,1
227387,-83.3333333333333,4,1,1,90,0,1
227583,-83.3333333333333,4,1,2,90,0,1
227779,-83.3333333333333,4,1,1,90,0,1
227975,-83.3333333333333,4,1,2,90,0,1
228171,-83.3333333333333,4,1,1,90,0,1
228367,-83.3333333333333,4,1,2,90,0,1
228563,-83.3333333333333,4,1,1,90,0,1
228759,-83.3333333333333,4,1,2,90,0,1
228955,-83.3333333333333,4,1,1,90,0,1
229151,-83.3333333333333,4,1,2,90,0,1
229347,-83.3333333333333,4,1,1,90,0,1
229543,-83.3333333333333,4,1,2,90,0,1
229739,-83.3333333333333,4,1,1,90,0,1
229936,-83.3333333333333,4,1,2,90,0,1
230132,-83.3333333333333,4,1,1,90,0,1
230328,-83.3333333333333,4,1,2,90,0,1
230524,-83.3333333333333,4,1,1,90,0,1
230720,-83.3333333333333,4,1,2,90,0,1
230916,-83.3333333333333,4,1,1,90,0,1
231014,-83.3333333333333,4,1,2,90,0,1
231308,-83.3333333333333,4,1,1,90,0,1
231406,-83.3333333333333,4,1,2,90,0,1
231700,-83.3333333333333,4,1,1,90,0,1
231798,-83.3333333333333,4,1,2,90,0,1
232092,-83.3333333333333,4,1,1,90,0,1
232190,-83.3333333333333,4,1,2,90,0,1
232524,-83.3333333333333,4,1,2,90,0,0
246648,391.77277179236,4,1,2,90,1,0

[Colours]
Combo1 : 128,175,255
Combo2 : 128,255,255
Combo3 : 128,128,255

[HitObjects]
52,221,38035,2,0,B|108:215|108:215|127:193|162:176|202:193,1,160,6|8,0:0|0:0,0:0:0:0:
170,266,38623,2,0,B|210:283|245:266|264:244|264:244|320:238,1,160,2|0,0:0|0:0,0:0:0:0:
399,233,39211,1,10,0:0:0:0:
389,73,39603,6,0,P|315:103|233:103,1,160,2|8,0:0|0:0,0:0:0:0:
81,58,40388,2,0,P|81:137|111:211,1,160,2|10,0:0|0:0,0:0:0:0:
169,266,40976,1,2,0:0:0:0:
244,291,41172,6,0,B|316:263|316:263|304:233|312:198|330:177,1,160,0|8,0:0|0:0,0:0:0:0:
477,232,41956,1,2,0:0:0:0:
386,100,42348,1,10,0:0:0:0:
261,197,42740,5,2,0:0:0:0:
126,100,43132,1,10,0:0:0:0:
35,232,43524,1,2,0:0:0:0:
60,307,43720,2,0,L|17:342,2,40,0|0|14,0:0|0:0|0:0,0:0:0:0:
134,336,44112,1,8,0:0:0:0:
212,319,44308,6,0,L|192:233,2,80,6|0|8,0:0|0:0|0:0,0:0:0:0:
319,266,44897,1,2,0:0:0:0:
318,266,45093,6,0,L|338:352,2,80,2|0|8,0:0|0:0|0:0,0:0:0:0:
251,165,45681,1,2,0:0:0:0:
251,166,45877,6,0,L|231:80,2,80,2|0|8,0:0|0:0|0:0,0:0:0:0:
354,105,46465,1,2,0:0:0:0:
353,105,46661,6,0,L|423:45,1,80,2|0,0:0|0:0,0:0:0:0:
474,157,47053,2,0,L|404:217,1,80,10|0,0:0|0:0,0:0:0:0:
321,286,47445,6,0,P|246:317|166:312,1,160,6|8,0:0|0:0,0:0:0:0:
148,234,48033,2,0,P|243:202|308:155,1,160,2|0,0:0|0:0,0:0:0:0:
295,89,48621,1,10,0:0:0:0:
225,49,48817,1,0,0:0:0:0:
147,70,49013,6,0,P|98:132|71:215,1,160,2|8,0:0|0:0,0:0:0:0:
149,234,49602,2,0,P|226:219|312:234,1,160,2|0,0:0|0:0,0:0:0:0:
374,273,50190,2,0,P|411:244|436:209,1,80,10|0,0:0|0:0,0:0:0:0:
440,138,50582,6,0,P|360:132|293:86,1,160,2|8,0:0|0:0,0:0:0:0:
216,88,51170,2,0,P|152:132|72:138,1,160,2|0,0:0|0:0,0:0:0:0:
13,192,51758,1,10,0:0:0:0:
118,312,52150,6,0,P|219:300|271:268,1,160,2|8,0:0|0:0,0:0:0:0:
244,113,52934,2,4,P|293:84|394:72,1,160,2|8,0:0|0:0,0:0:0:0:
465,107,53522,1,0,0:0:0:0:
493,181,53718,6,0,L|503:276,2,80,4|0|8,0:0|0:0|0:0,0:0:0:0:
353,102,54503,2,0,L|343:7,2,80,0|0|8,0:0|0:0|0:0,0:0:0:0:
265,235,55287,6,0,L|275:330,2,80,0|0|8,0:0|0:0|0:0,0:0:0:0:
137,137,56071,2,0,L|127:42,1,80
48,60,56463,2,0,L|58:155,1,80,12|0,0:0|0:0,0:0:0:0:
98,207,56855,6,0,P|153:262|231:263,1,160,6|8,0:0|0:0,0:0:0:0:
293,213,57443,2,0,P|351:173|441:173,1,160,2|0,0:0|0:0,0:0:0:0:
509,209,58031,2,0,P|518:257|503:301,1,80,10|0,0:0|0:0,0:0:0:0:
458,346,58423,6,0,P|353:326|291:335,1,160,2|8,0:0|0:0,0:0:0:0:
226,360,59011,1,2,0:0:0:0:
146,365,59207,2,0,P|105:352|81:316,1,80
73,244,59600,1,10,0:0:0:0:
147,102,59992,6,0,P|234:116|304:104,1,160,2|8,0:0|0:0,0:0:0:0:
379,76,60580,2,0,P|403:143|368:231,1,160,2|0,0:0|0:0,0:0:0:0:
308,269,61168,1,10,0:0:0:0:
167,192,61560,6,0,P|181:262|265:325,1,160,2|8,0:0|0:0,0:0:0:0:
319,348,62148,1,2,0:0:0:0:
398,336,62344,2,0,P|442:317|475:293,1,80,2|0,0:0|0:0,0:0:0:0:
404,250,62736,2,0,P|429:209|442:170,1,80,10|0,0:0|0:0,0:0:0:0:
341,107,63128,6,0,P|338:59|326:19,2,80,6|0|8,0:0|0:0|0:0,0:0:0:0:
256,192,63716,1,2,0:0:0:0:
171,277,63912,6,0,P|173:324|185:364,2,80,2|0|8,0:0|0:0|0:0,0:0:0:0:
256,192,64501,5,2,0:0:0:0:
171,107,64697,2,0,P|174:59|186:19,2,80,2|0|8,0:0|0:0|0:0,0:0:0:0:
256,192,65285,1,2,0:0:0:0:
341,277,65481,6,0,P|339:324|327:364,1,80,2|0,0:0|0:0,0:0:0:0:
181,355,65873,2,0,P|173:324|171:277,1,80,10|0,0:0|0:0,0:0:0:0:
256,156,66265,6,0,P|315:120|365:46,1,160,6|8,0:0|0:0,0:0:0:0:
288,22,66853,2,0,P|208:18|135:56,1,160,2|0,0:0|0:0,0:0:0:0:
110,128,67441,1,10,0:0:0:0:
256,192,67833,6,0,P|311:240|360:315,1,160,2|8,0:0|0:0,0:0:0:0:
295,362,68421,2,0,P|240:314|191:239,1,160,2|0,0:0|0:0,0:0:0:0:
160,126,69009,1,10,0:0:0:0:
256,55,69206,1,2,0:0:0:0:
160,126,69402,6,0,P|116:198|100:278,1,160,6|8,0:0|0:0,0:0:0:0:
194,240,69990,2,0,P|248:189|326:155,1,160,2|0,0:0|0:0,0:0:0:0:
320,263,70578,1,10,0:0:0:0:
234,326,70774,1,0,0:0:0:0:
127,316,70970,6,0,P|62:272|17:200,1,160,2|8,0:0|0:0,0:0:0:0:
239,110,71754,2,0,P|317:108|395:141,1,160,2|8,0:0|0:0,0:0:0:0:
256,192,72538,12,0,75283,0:0:0:0:
136,77,75675,5,4,0:0:0:0:
77,131,75871,1,0,0:0:0:0:
151,156,76067,2,0,P|228:172|312:168,2,160,8|0|8,0:0|0:0|0:0,0:0:0:0:
62,289,77243,5,0,0:0:0:0:
138,310,77439,1,0,0:0:0:0:
120,231,77635,2,0,P|151:157|206:73,2,160,8|0|8,0:0|0:0|0:0,0:0:0:0:
279,218,78811,5,0,0:0:0:0:
355,196,79008,1,0,0:0:0:0:
431,218,79204,2,0,P|466:290|471:373,2,160,8|0|8,0:0|0:0|0:0,0:0:0:0:
295,137,80380,5,0,0:0:0:0:
218,111,80576,1,0,0:0:0:0:
145,144,80772,2,0,P|71:170|-7:151,2,160,8|0|8,0:0|0:0|0:0,0:0:0:0:
217,286,81948,6,0,P|296:295|372:273,1,160,4|8,0:0|0:0,0:0:0:0:
400,115,82732,1,0,0:0:0:0:
327,150,82928,1,0,0:0:0:0:
331,69,83124,1,8,0:0:0:0:
178,115,83516,6,0,P|114:165|81:247,1,160,0|8,0:0|0:0,0:0:0:0:
91,315,84105,1,0,0:0:0:0:
242,262,84497,1,0,0:0:0:0:
314,227,84693,1,8,0:0:0:0:
256,192,85085,12,0,87437,0:0:0:0:
370,130,88221,5,4,0:0:0:0:
216,85,88613,1,10,0:0:0:0:
136,90,88810,2,0,P|68:128|44:203,1,160,2|0,0:0|0:0,0:0:0:0:
64,279,89398,1,10,0:0:0:0:
211,340,89790,5,2,0:0:0:0:
370,323,90182,1,10,0:0:0:0:
294,295,90378,2,0,P|236:243|211:166,1,160,2|0,0:0|0:0,0:0:0:0:
216,85,90966,1,10,0:0:0:0:
360,65,91358,6,0,P|431:111|460:183,1,160,4|10,0:0|0:0,0:0:0:0:
445,256,91946,2,0,P|369:238|277:240,1,160,2|0,0:0|0:0,0:0:0:0:
216,275,92534,2,0,P|174:289|131:296,1,80,10|0,0:0|0:0,0:0:0:0:
64,265,92926,6,0,P|31:228|20:195,1,80,2|0,0:0|0:0,0:0:0:0:
29,119,93318,2,0,P|76:129|121:129,1,80,8|0,0:0|0:0,0:0:0:0:
187,123,93711,1,0,0:0:0:0:
250,73,93907,2,0,L|236:25,2,40,0|0|12,0:0|0:0|0:0,0:0:0:0:
328,90,94299,1,0,0:0:0:0:
361,162,94495,5,4,0:0:0:0:
392,318,94887,1,10,0:0:0:0:
320,281,95083,2,0,P|218:258|164:268,1,160,2|0,0:0|0:0,0:0:0:0:
91,298,95671,2,0,P|56:255|52:203,1,80,10|0,0:0|0:0,0:0:0:0:
60,152,96063,6,0,P|107:93|185:65,1,160,2|8,0:0|0:0,0:0:0:0:
264,68,96651,2,0,B|312:85|312:85|344:73|391:83|413:123,1,160,2|0,0:0|0:0,0:0:0:0:
413,195,97239,1,10,0:0:0:0:
341,163,97435,1,2,0:0:0:0:
222,182,97631,6,8,P|147:208|80:280,1,160,6|8,0:0|0:0,0:0:0:0:
166,356,98219,2,0,P|241:330|308:258,1,160,2|0,0:0|0:0,0:0:0:0:
341,163,98808,1,10,0:0:0:0:
62,94,99200,6,0,P|132:54|212:42,1,160,2|8,0:0|0:0,0:0:0:0:
327,62,99788,1,0,0:0:0:0:
327,62,99886,1,0,0:0:0:0:
327,62,99984,2,0,P|267:117|196:151,1,160,2|0,0:0|0:0,0:0:0:0:
95,186,100572,1,0,0:0:0:0:
95,186,100670,1,0,0:0:0:0:
95,186,100768,5,4,0:0:0:0:
162,330,101160,1,10,0:0:0:0:
241,342,101356,2,0,B|281:340|281:340|314:281|299:223,1,160,2|0,0:0|0:0,0:0:0:0:
281,146,101944,2,0,B|275:100|230:83,1,80,10|0,0:0|0:0,0:0:0:0:
200,158,102336,6,0,L|376:132,1,160,2|10,0:0|0:0,0:0:0:0:
343,56,102924,2,0,L|377:241,1,160,2|0,0:0|0:0,0:0:0:0:
452,207,103513,1,10,0:0:0:0:
418,279,103709,1,2,0:0:0:0:
338,288,103905,6,0,B|296:288|296:288|268:230|204:219,1,160,4|10,0:0|0:0,0:0:0:0:
126,224,104493,2,0,B|75:233|75:233|30:193|38:133,1,160,2|0,0:0|0:0,0:0:0:0:
52,57,105081,1,10,0:0:0:0:
211,59,105473,6,0,B|247:73|247:73|288:60,1,80
360,29,105865,1,8,0:0:0:0:
402,96,106061,1,0,0:0:0:0:
439,166,106257,2,0,B|403:180|403:180|362:167,1,80
344,161,106551,1,0,0:0:0:0:
324,154,106649,2,0,B|284:141|284:141|248:155,1,80,12|0,0:0|0:0,0:0:0:0:
174,183,107041,5,4,0:0:0:0:
38,267,107433,1,10,0:0:0:0:
93,324,107629,2,0,P|171:344|258:323,1,160,2|0,0:0|0:0,0:0:0:0:
316,286,108217,2,0,P|353:267|401:266,1,80,10|0,0:0|0:0,0:0:0:0:
469,280,108610,6,0,P|496:204|480:127,1,160,2|8,0:0|0:0,0:0:0:0:
408,162,109198,2,0,P|332:177|256:150,1,160,2|0,0:0|0:0,0:0:0:0:
215,81,109786,1,0,0:0:0:0:
294,79,109982,1,0,0:0:0:0:
211,216,110178,6,0,P|155:269|73:294,1,160,6|8,0:0|0:0,0:0:0:0:
12,192,110766,2,0,P|68:139|150:114,1,160,2|8,0:0|0:0,0:0:0:0:
253,148,111354,1,10,0:0:0:0:
256,192,111746,12,4,113315,0:0:0:0:
406,115,125861,6,0,P|394:186|326:240,1,160,6|8,0:0|0:0,0:0:0:0:
256,272,126449,1,2,0:0:0:0:
183,239,126645,2,0,P|118:186|106:115,1,160,0|10,0:0|0:0,0:0:0:0:
256,169,127429,5,2,0:0:0:0:
193,316,127821,1,8,0:0:0:0:
256,272,128018,1,2,0:0:0:0:
319,316,128214,2,0,P|391:293|432:223,1,160,0|8,0:0|0:0,0:0:0:0:
355,82,128998,6,0,B|330:138|282:144|282:144|221:146,1,160,2|8,0:0|0:0,0:0:0:0:
240,68,129586,2,0,P|164:90|148:173,1,160,2|0,0:0|0:0,0:0:0:0:
197,221,130174,1,10,0:0:0:0:
352,184,130566,6,0,P|399:241|378:320,1,160,2|8,0:0|0:0,0:0:0:0:
309,359,131154,1,2,0:0:0:0:
229,352,131350,2,0,L|126:337,1,80,2|0,0:0|0:0,0:0:0:0:
67,253,131742,2,0,L|170:268,1,80,10|0,0:0|0:0,0:0:0:0:
256,271,132134,6,0,L|348:271,2,80,6|0|8,0:0|0:0|0:0,0:0:0:0:
194,168,132722,1,2,0:0:0:0:
133,64,132919,6,0,L|41:66,2,80,2|0|8,0:0|0:0|0:0,0:0:0:0:
253,59,133507,1,2,0:0:0:0:
372,55,133703,6,0,L|465:51,2,80,2|0|8,0:0|0:0|0:0,0:0:0:0:
317,161,134291,1,2,0:0:0:0:
222,235,134487,6,0,L|148:291,1,80,2|0,0:0|0:0,0:0:0:0:
274,316,134879,2,0,L|347:259,1,80,10|0,0:0|0:0,0:0:0:0:
457,248,135271,6,0,P|481:171|488:86,1,160,6|8,0:0|0:0,0:0:0:0:
407,87,135859,2,0,P|403:142|394:180,1,80,2|0,0:0|0:0,0:0:0:0:
378,243,136251,1,0,0:0:0:0:
326,303,136447,1,10,0:0:0:0:
295,146,136839,6,0,P|281:73|198:49,1,160,2|8,0:0|0:0,0:0:0:0:
219,125,137427,2,0,P|228:192|321:221,1,160,2|0,0:0|0:0,0:0:0:0:
369,176,138016,2,0,P|401:133|426:120,1,80,10|0,0:0|0:0,0:0:0:0:
444,239,138408,6,0,P|392:298|312:317,1,160,6|8,0:0|0:0,0:0:0:0:
196,317,138996,2,0,P|120:298|68:239,1,160,2|0,0:0|0:0,0:0:0:0:
51,120,139584,1,10,0:0:0:0:
162,163,139780,1,0,0:0:0:0:
267,220,139976,6,0,P|340:188|380:115,1,160,2|8,0:0|0:0,0:0:0:0:
163,21,140760,2,0,P|90:53|50:126,1,160,2|8,0:0|0:0,0:0:0:0:
256,192,141544,12,0,144289,0:0:0:0:
339,102,144681,5,0,0:0:0:0:
306,174,144877,1,0,0:0:0:0:
352,234,145073,2,0,B|407:244|393:339|449:350,2,160,8|0|8,0:0|0:0|0:0,0:0:0:0:
256,108,146249,5,0,0:0:0:0:
183,147,146445,1,0,0:0:0:0:
158,71,146641,2,0,B|125:24|44:75|11:29,2,160,8|0|8,0:0|0:0|0:0,0:0:0:0:
183,237,147818,5,4,0:0:0:0:
256,269,148014,1,0,0:0:0:0:
329,237,148210,2,0,B|373:201|437:273|481:237,2,160,8|0|8,0:0|0:0|0:0,0:0:0:0:
189,316,149386,5,0,0:0:0:0:
116,282,149582,1,0,0:0:0:0:
112,202,149778,2,0,P|159:113|212:88,2,160,8|0|8,0:0|0:0|0:0,0:0:0:0:
257,268,150954,6,0,L|421:243,1,160,4|8,0:0|0:0,0:0:0:0:
272,172,151738,1,0,0:0:0:0:
322,109,151934,1,0,0:0:0:0:
386,156,152130,1,8,0:0:0:0:
240,90,152523,6,0,L|84:21,1,160,0|8,0:0|0:0,0:0:0:0:
187,154,153307,1,0,0:0:0:0:
108,171,153503,1,0,0:0:0:0:
66,101,153699,1,8,0:0:0:0:
256,192,154091,12,0,155659,0:0:0:0:
176,80,157227,5,4,0:0:0:0:
336,80,157620,1,10,0:0:0:0:
397,130,157816,2,0,B|436:179|436:179|391:202|377:262,1,160,2|0,0:0|0:0,0:0:0:0:
373,334,158404,1,10,0:0:0:0:
139,334,158796,5,2,0:0:0:0:
256,226,159188,1,10,0:0:0:0:
291,154,159384,2,0,B|306:106|306:106|256:68|206:107,1,160,2|0,0:0|0:0,0:0:0:0:
182,184,159972,1,10,0:0:0:0:
324,263,160364,5,6,0:0:0:0:
383,114,160756,1,10,0:0:0:0:
303,104,160952,2,0,P|254:85|186:158,1,160,2|0,0:0|0:0,0:0:0:0:
261,179,161540,1,10,0:0:0:0:
419,196,161932,6,0,B|452:216|452:216|466:258,1,80,0|0,0:0|0:0,0:0:0:0:
441,332,162325,2,0,B|403:341|403:341|363:321,1,80,8|0,0:0|0:0,0:0:0:0:
307,268,162717,1,0,0:0:0:0:
230,291,162913,2,0,L|224:348,2,40,0|0|12,0:0|0:0|0:0,0:0:0:0:
282,93,163501,5,4,0:0:0:0:
122,103,163893,1,10,0:0:0:0:
76,168,164089,2,0,B|57:202|57:202|104:211|136:238|147:281,1,160,2|0,0:0|0:0,0:0:0:0:
120,351,164677,1,10,0:0:0:0:
392,351,165069,5,2,0:0:0:0:
256,266,165461,1,8,0:0:0:0:
190,220,165657,2,0,B|153:191|153:191|216:153|230:96,1,160,2|0,0:0|0:0,0:0:0:0:
231,28,166245,1,10,0:0:0:0:
342,72,166441,1,2,0:0:0:0:
231,28,166637,6,0,P|145:47|94:98,1,160,6|0,0:0|0:0,0:0:0:0:
51,208,167226,2,0,P|129:221|194:268,1,160,2|0,0:0|0:0,0:0:0:0:
256,369,167814,1,10,0:0:0:0:
414,192,168206,6,0,P|373:126|298:103,1,160,0|8,0:0|0:0,0:0:0:0:
230,202,168794,1,0,0:0:0:0:
230,202,168892,1,0,0:0:0:0:
230,202,168990,2,8,P|168:244|83:255,1,160,2|0,0:0|0:0,0:0:0:0:
26,148,169578,1,0,0:0:0:0:
26,148,169676,1,0,0:0:0:0:
26,148,169774,5,4,0:0:0:0:
127,24,170166,1,10,0:0:0:0:
206,20,170362,2,0,P|290:36|347:91,1,160,2|0,0:0|0:0,0:0:0:0:
368,161,170950,1,10,0:0:0:0:
376,240,171146,1,0,0:0:0:0:
368,160,171342,5,2,0:0:0:0:
247,265,171734,1,10,0:0:0:0:
178,223,171930,2,0,P|138:162|157:76,1,160,2|0,0:0|0:0,0:0:0:0:
206,20,172519,1,10,0:0:0:0:
285,20,172715,1,0,0:0:0:0:
206,20,172911,5,4,0:0:0:0:
52,66,173303,1,10,0:0:0:0:
47,145,173499,2,0,P|64:228|121:293,1,160,2|0,0:0|0:0,0:0:0:0:
186,308,174087,2,0,P|230:274|262:267,1,80,10|0,0:0|0:0,0:0:0:0:
328,293,174479,5,0,0:0:0:0:
389,242,174675,1,0,0:0:0:0:
443,183,174871,1,8,0:0:0:0:
376,138,175067,1,0,0:0:0:0:
305,99,175263,1,0,0:0:0:0:
372,52,175459,2,0,L|414:19,2,40,0|0|8,0:0|0:0|0:0,0:0:0:0:
259,166,176047,5,4,0:0:0:0:
165,295,176439,1,10,0:0:0:0:
94,257,176635,2,0,B|57:232|57:232|101:178|86:122,1,160,2|0,0:0|0:0,0:0:0:0:
77,45,177224,1,10,0:0:0:0:
157,39,177420,1,0,0:0:0:0:
176,116,177616,5,2,0:0:0:0:
236,264,178008,1,10,0:0:0:0:
306,302,178204,2,0,B|360:331|360:331|362:273|411:252,1,160,2|0,0:0|0:0,0:0:0:0:
484,224,178792,1,10,0:0:0:0:
422,172,178988,1,0,0:0:0:0:
345,195,179184,6,0,P|270:178|269:104,1,160,6|8,0:0|0:0,0:0:0:0:
304,35,179772,2,0,P|264:91|182:58,1,160,2|0,0:0|0:0,0:0:0:0:
107,78,180360,1,10,0:0:0:0:
256,192,180752,12,0,182321,0:0:0:0:
162,79,194890,6,0,P|126:108|106:145,1,80,6|0,0:0|0:0,0:0:0:0:
74,220,195282,1,10,0:0:0:0:
174,285,195478,1,2,0:0:0:0:
276,223,195674,2,0,P|310:188|332:158,1,80,2|0,0:0|0:0,0:0:0:0:
358,88,196066,1,10,0:0:0:0:
416,192,196262,1,2,0:0:0:0:
358,296,196458,6,0,P|318:327|282:333,1,80,2|0,0:0|0:0,0:0:0:0:
213,354,196850,1,10,0:0:0:0:
99,314,197046,1,2,0:0:0:0:
152,206,197242,2,0,P|177:162|186:128,1,80,2|0,0:0|0:0,0:0:0:0:
181,53,197634,1,10,0:0:0:0:
76,111,197830,1,2,0:0:0:0:
152,206,198026,6,0,P|201:259|297:253,1,160,2|8,0:0|0:0,0:0:0:0:
242,172,198614,2,0,P|284:100|354:84,1,160,2|0,0:0|0:0,0:0:0:0:
337,180,199202,2,0,P|369:221|378:268,1,80,10|0,0:0|0:0,0:0:0:0:
367,326,199594,6,0,L|289:366,1,80,2|0,0:0|0:0,0:0:0:0:
264,288,199986,2,0,L|190:253,1,80,10|0,0:0|0:0,0:0:0:0:
150,322,200378,2,0,L|72:348,1,80,2|0,0:0|0:0,0:0:0:0:
16,291,200770,1,10,0:0:0:0:
84,57,201162,6,0,P|127:77|163:79,1,80,6|0,0:0|0:0,0:0:0:0:
238,82,201554,1,10,0:0:0:0:
356,100,201750,1,2,0:0:0:0:
453,170,201946,2,0,P|414:205|376:219,1,80,2|0,0:0|0:0,0:0:0:0:
309,212,202338,1,10,0:0:0:0:
189,231,202534,1,2,0:0:0:0:
89,298,202730,6,0,P|126:343|165:350,1,80,2|0,0:0|0:0,0:0:0:0:
224,349,203122,1,10,0:0:0:0:
342,328,203318,1,2,0:0:0:0:
458,300,203514,2,0,P|492:276|512:242,1,80,2|0,0:0|0:0,0:0:0:0:
501,164,203906,1,10,0:0:0:0:
388,121,204102,1,2,0:0:0:0:
275,78,204298,6,0,P|201:56|116:65,1,160,2|8,0:0|0:0,0:0:0:0:
72,174,204886,2,0,P|146:152|231:161,1,160,2|0,0:0|0:0,0:0:0:0:
275,271,205474,2,0,P|226:253|183:248,1,80,10|0,0:0|0:0,0:0:0:0:
87,293,205866,5,8,0:0:0:0:
87,293,205964,1,8,0:0:0:0:
87,293,206062,1,8,0:0:0:0:
192,349,206258,2,0,L|157:313,2,40,8|8|0,0:0|0:0|0:0,0:0:0:0:
307,380,206650,2,0,L|354:375,2,40,8|0|0,0:0|0:0|0:0,0:0:0:0:
391,295,207042,1,8,0:0:0:0:
391,295,207238,1,8,0:0:0:0:
391,89,207434,6,0,P|343:72|293:70,1,95.9999970703126,6|0,0:0|0:0,0:0:0:0:
211,110,207826,1,10,0:0:0:0:
67,125,208022,1,2,0:0:0:0:
211,110,208218,2,0,P|242:153|321:156,1,95.9999970703126,2|0,0:0|0:0,0:0:0:0:
375,185,208611,1,10,0:0:0:0:
506,243,208807,1,2,0:0:0:0:
375,185,209003,6,0,P|353:237|301:255,1,95.9999970703126,2|0,0:0|0:0,0:0:0:0:
229,289,209395,1,10,0:0:0:0:
103,359,209591,1,2,0:0:0:0:
229,289,209787,2,0,P|264:340|315:347,1,95.9999970703126
386,318,210179,1,10,0:0:0:0:
452,192,210375,1,2,0:0:0:0:
386,66,210571,6,0,P|331:44|289:38,2,95.9999970703126,2|0|8,0:0|0:0|0:0,0:0:0:0:
475,100,211159,1,0,0:0:0:0:
308,196,211355,2,0,P|253:206|207:197,2,95.9999970703126,2|0|8,0:0|0:0|0:0,0:0:0:0:
390,147,211943,1,0,0:0:0:0:
201,110,212139,6,0,P|115:108|29:142,2,143.999995605469,2|2|2,0:0|0:0|0:0,0:0:0:0:
297,113,212923,1,2,0:0:0:0:
321,128,213021,1,0,0:0:0:0:
339,149,213119,2,0,L|397:146,2,47.9999985351563,2|0|2,0:0|0:0|0:0,0:0:0:0:
273,217,213511,1,2,0:0:0:0:
177,208,213707,6,0,P|123:210|78:222,1,95.9999970703126,6|0,0:0|0:0,0:0:0:0:
11,284,214099,1,10,0:0:0:0:
138,351,214295,1,2,0:0:0:0:
273,217,214491,2,0,P|312:169|350:143,1,95.9999970703126,2|0,0:0|0:0,0:0:0:0:
431,119,214883,1,10,0:0:0:0:
365,247,215079,1,2,0:0:0:0:
177,208,215275,6,0,P|124:195|77:195,1,95.9999970703126,2|0,0:0|0:0,0:0:0:0:
2,248,215667,1,10,0:0:0:0:
119,330,215863,1,2,0:0:0:0:
273,217,216059,2,0,P|323:180|366:165,1,95.9999970703126,2|0,0:0|0:0,0:0:0:0:
449,152,216451,1,10,0:0:0:0:
365,269,216647,1,0,0:0:0:0:
230,132,216843,6,0,P|186:95|144:82,2,95.9999970703126,2|0|8,0:0|0:0|0:0,0:0:0:0:
274,217,217431,1,0,0:0:0:0:
132,190,217627,6,0,P|74:184|32:198,2,95.9999970703126,2|0|8,0:0|0:0|0:0,0:0:0:0:
274,217,218215,1,0,0:0:0:0:
133,294,218411,6,0,P|83:322|61:358,2,95.9999970703126,2|0|8,0:0|0:0|0:0,0:0:0:0:
228,300,218999,1,0,0:0:0:0:
323,298,219195,1,0,0:0:0:0:
369,215,219391,1,0,0:0:0:0:
320,134,219587,1,0,0:0:0:0:
225,136,219783,1,0,0:0:0:0:
179,219,219979,5,6,0:0:0:0:
270,50,220371,1,8,0:0:0:0:
365,48,220567,2,0,P|420:66|461:201,1,191.999994140625,2|0,0:0|0:0,0:0:0:0:
449,277,221155,1,10,0:0:0:0:
320,134,221547,5,2,0:0:0:0:
228,300,221939,1,8,0:0:0:0:
132,303,222135,1,2,0:0:0:0:
81,221,222332,2,0,P|63:175|78:123,1,95.9999970703126
133,56,222724,1,10,0:0:0:0:
369,215,223116,5,2,0:0:0:0:
180,218,223508,1,10,0:0:0:0:
82,221,223704,2,0,P|125:138|217:126,1,191.999994140625,2|0,0:0|0:0,0:0:0:0:
180,218,224292,2,0,P|174:267|189:319,1,95.9999970703126,10|0,0:0|0:0,0:0:0:0:
256,375,224684,6,0,L|350:349,1,95.9999970703126,2|0,0:0|0:0,0:0:0:0:
284,279,225076,2,0,L|258:183,1,95.9999970703126,10|0,0:0|0:0,0:0:0:0:
351,209,225468,2,0,L|443:184,1,95.9999970703126,2|0,0:0|0:0,0:0:0:0:
381,111,225860,2,0,L|355:17,1,95.9999970703126,10|0,0:0|0:0,0:0:0:0:
287,86,226252,5,6,0:0:0:0:
449,187,226644,1,8,0:0:0:0:
417,277,226840,2,0,P|332:303|256:216,1,191.999994140625,2|0,0:0|0:0,0:0:0:0:
218,154,227428,1,10,0:0:0:0:
403,103,227820,5,2,0:0:0:0:
450,288,228212,1,8,0:0:0:0:
391,364,228408,1,2,0:0:0:0:
295,358,228604,2,0,P|246:329|219:295,1,95.9999970703126
195,206,228996,1,8,0:0:0:0:
366,120,229388,5,2,0:0:0:0:
189,44,229780,1,10,0:0:0:0:
96,69,229976,2,0,P|50:140|104:228,1,191.999994140625,2|0,0:0|0:0,0:0:0:0:
195,206,230564,2,0,P|251:198|306:200,1,95.9999970703126,10|0,0:0|0:0,0:0:0:0:
256,192,230956,12,4,235660,0:0:0:0:
