osu file format v12

[General]
AudioFilename: Nightwish - 01 - She Is My Sin.mp3
AudioLeadIn: 0
PreviewTime: 88620
Countdown: 0
SampleSet: Normal
StackLeniency: 0.7
Mode: 0
LetterboxInBreaks: 1
WidescreenStoryboard: 0

[Editor]
Bookmarks: 25483,38040,44306,46364,47443,63130,63924,72541,88227,94502,100776,113325,125874,132149,141560,175482,182345,194894,235678
DistanceSpacing: 1
BeatDivisor: 2
GridSize: 16

[Metadata]
Title:She Is My Sin
TitleUnicode:She Is My Sin
Artist:Nightwish
ArtistUnicode:Nightwish
Creator:Shiro
Version:Easy
Source:
Tags:Odaril wishmaster
BeatmapID:253369
BeatmapSetID:92347

[Difficulty]
HPDrainRate:2
CircleSize:3
OverallDifficulty:2
ApproachRate:2
SliderMultiplier:0.96
SliderTickRate:2

[Events]
//Background and Video events
0,0,"background.jpg",0,0
//Break Periods
2,113515,124301
2,182521,193330
//Storyboard Layer 0 (Background)
//Storyboard Layer 1 (Fail)
//Storyboard Layer 2 (Pass)
//Storyboard Layer 3 (Foreground)
//Storyboard Sound Samples
//Background Colour Transformations
3,100,163,162,255

[TimingPoints]
396,392.079984316801,4,1,1,70,1,0
37982,-100,4,2,1,70,0,0
44257,-100,4,1,2,78,0,0
44355,-100,4,1,1,78,0,0
44845,-100,4,1,2,78,0,0
45139,-100,4,1,1,78,0,0
45630,-100,4,1,2,78,0,0
45924,-100,4,1,1,78,0,0
46414,-100,4,1,2,78,0,0
46708,-100,4,1,1,78,0,0
47002,-100,4,1,2,78,0,0
47100,-100,4,1,1,78,0,0
47394,-100,4,2,1,78,0,0
53669,-100,4,1,2,78,0,0
53963,-100,4,1,1,78,0,0
54453,-100,4,1,2,78,0,0
54747,-100,4,1,1,78,0,0
55237,-100,4,1,2,78,0,0
55532,-100,4,1,1,78,0,0
56022,-100,4,1,2,78,0,0
56316,-100,4,1,1,78,0,0
56560,-100,4,2,1,48,0,0
56806,-100,4,1,2,78,0,0
56904,-100,4,2,1,78,0,0
63081,-100,4,1,2,78,0,0
63179,-100,4,1,1,78,0,0
63669,-100,4,1,2,78,0,0
63963,-100,4,1,1,78,0,0
64453,-100,4,1,2,78,0,0
64747,-100,4,1,1,78,0,0
65237,-100,4,1,2,78,0,0
65532,-100,4,1,1,78,0,0
65826,-100,4,1,2,78,0,0
65924,-100,4,2,1,78,0,0
72492,-100,4,1,1,78,0,0
72786,-100,4,1,2,78,0,0
73081,-100,4,1,2,78,0,0
73277,-100,4,2,1,78,0,0
73669,-100,4,1,1,78,0,0
75629,-100,4,1,2,78,0,0
75923,-100,4,1,1,78,0,0
76413,-100,4,1,2,78,0,0
76707,-100,4,1,1,78,0,0
76904,-100,4,1,2,78,0,0
77002,-100,4,1,1,78,0,0
77198,-100,4,1,2,78,0,0
77492,-100,4,1,1,78,0,0
77982,-100,4,1,2,78,0,0
78276,-100,4,1,1,78,0,0
78472,-100,4,1,2,78,0,0
78570,-100,4,1,1,78,0,0
78766,-100,4,1,2,78,0,0
79060,-100,4,1,1,78,0,0
79551,-100,4,1,2,78,0,0
79845,-100,4,1,1,78,0,0
80335,-100,4,1,2,78,0,0
80629,-100,4,1,1,78,0,0
81119,-100,4,1,2,78,0,0
81413,-100,4,1,1,78,0,0
81904,-100,4,1,2,78,0,0
82198,-100,4,1,1,78,0,0
82688,-100,4,1,2,78,0,0
82982,-100,4,1,1,78,0,0
83472,-100,4,1,2,78,0,0
83766,-100,4,1,1,78,0,0
84257,-100,4,1,2,78,0,0
84551,-100,4,1,1,78,0,0
84897,-100,4,1,1,5,0,0
88178,-100,4,1,2,90,0,0
88276,-100,4,1,1,90,0,0
88570,-100,4,1,2,90,0,0
88864,-100,4,1,1,90,0,0
89355,-100,4,1,2,90,0,0
89453,-100,4,1,1,90,0,0
89747,-100,4,1,2,90,0,0
89845,-100,4,1,1,90,0,0
90139,-100,4,1,2,90,0,0
90433,-100,4,1,1,90,0,0
90923,-100,4,1,2,90,0,0
91021,-100,4,1,1,90,0,0
91315,-100,4,1,2,90,0,0
91413,-100,4,1,1,90,0,0
91707,-100,4,1,2,90,0,0
92492,-100,4,1,2,90,0,0
92590,-100,4,1,1,90,0,0
92884,-100,4,1,2,90,0,0
93276,-100,4,1,1,90,0,0
93472,-100,4,1,2,90,0,0
93766,-100,4,1,1,90,0,0
93864,-100,4,1,2,90,0,0
94060,-100,4,1,1,90,0,0
94257,-100,4,1,2,90,0,0
94551,-100,4,1,1,90,0,0
94845,-100,4,1,2,90,0,0
95139,-100,4,1,1,90,0,0
95629,-100,4,1,2,90,0,0
95727,-100,4,1,1,90,0,0
96021,-100,4,1,2,90,0,0
96119,-100,4,1,1,90,0,0
96413,-100,4,1,2,90,0,0
96707,-100,4,1,1,90,0,0
97198,-100,4,1,2,90,0,0
97296,-100,4,1,1,90,0,0
97590,-100,4,1,2,90,0,0
97688,-100,4,1,1,90,0,0
97982,-100,4,1,2,90,0,0
98276,-100,4,1,1,90,0,0
98766,-100,4,1,2,90,0,0
98864,-100,4,1,1,90,0,0
100335,-100,4,1,2,90,0,0
100825,-100,4,1,1,90,0,0
101144,-100,4,1,2,90,0,0
101389,-100,4,1,1,90,0,0
101928,-100,4,1,2,90,0,0
101977,-100,4,1,1,90,0,0
102296,-100,4,1,2,90,0,0
102394,-100,4,1,1,90,0,0
102688,-100,4,1,2,90,0,0
102982,-100,4,1,1,90,0,0
103472,-100,4,1,2,90,0,0
103570,-100,4,1,1,90,0,0
103864,-100,4,1,2,90,0,0
103962,-100,4,1,1,90,0,0
104257,-100,4,1,2,90,0,0
104551,-100,4,1,1,90,0,0
105041,-100,4,1,2,90,0,0
105139,-100,4,1,1,90,0,0
105433,-100,4,1,2,90,0,0
105825,-100,4,1,1,90,0,0
106021,-100,4,1,2,90,0,0
106609,-100,4,1,1,90,0,0
106806,-100,4,1,2,90,0,0
107100,-100,4,1,1,90,0,0
107394,-100,4,1,2,90,0,0
107688,-100,4,1,1,90,0,0
108178,-100,4,1,2,90,0,0
108276,-100,4,1,1,90,0,0
108570,-100,4,1,2,90,0,0
108668,-100,4,1,1,90,0,0
108962,-100,4,1,2,90,0,0
109257,-100,4,1,1,90,0,0
109747,-100,4,1,2,90,0,0
109845,-100,4,1,1,90,0,0
110139,-100,4,1,2,90,0,0
110237,-100,4,1,1,90,0,0
110531,-100,4,1,2,90,0,0
110825,-100,4,1,1,90,0,0
111315,-100,4,1,2,90,0,0
111413,-100,4,1,1,90,0,0
111806,-100,4,1,2,90,0,0
112100,-100,4,1,1,90,0,0
112198,-100,4,1,2,90,0,0
112492,-100,4,1,1,90,0,0
112590,-100,4,1,2,90,0,0
112884,-100,4,1,1,90,0,0
112982,-100,4,1,2,90,0,0
113276,-100,4,1,1,90,0,0
125482,-100,4,2,1,78,0,0
132051,-100,4,1,2,78,0,0
132443,-100,4,1,1,78,0,0
132835,-100,4,1,2,78,0,0
133227,-100,4,1,1,78,0,0
133619,-100,4,1,2,78,0,0
134011,-100,4,1,1,78,0,0
134404,-100,4,1,2,78,0,0
134796,-100,4,1,1,78,0,0
134992,-100,4,1,2,78,0,0
135188,-100,4,2,1,78,0,0
141462,-100,4,1,2,78,0,0
141855,-100,4,1,1,78,0,0
142051,-100,4,1,2,78,0,0
142296,-100,4,1,1,78,0,0
142688,-100,4,1,2,78,0,0
144992,-100,4,1,1,78,0,0
145629,-100,4,1,2,78,0,0
145727,-100,4,1,1,78,0,0
145923,-100,4,1,2,78,0,0
146021,-100,4,1,1,78,0,0
146217,-100,4,1,2,78,0,0
146511,-100,4,1,1,78,0,0
147198,-100,4,1,2,78,0,0
147296,-100,4,1,1,78,0,0
147492,-100,4,1,2,78,0,0
147590,-100,4,1,1,78,0,0
147786,-100,4,1,2,78,0,0
148080,-100,4,1,1,78,0,0
148766,-100,4,1,2,78,0,0
148864,-100,4,1,1,78,0,0
149060,-100,4,1,2,78,0,0
149158,-100,4,1,1,78,0,0
149355,-100,4,1,2,78,0,0
149649,-100,4,1,1,78,0,0
150335,-100,4,1,2,78,0,0
150433,-100,4,1,1,78,0,0
150923,-100,4,1,2,78,0,0
151217,-100,4,1,1,78,0,0
151904,-100,4,1,2,78,0,0
152002,-100,4,1,1,78,0,0
152492,-100,4,1,2,78,0,0
152786,-100,4,1,1,78,0,0
153472,-100,4,1,2,78,0,0
153570,-100,4,1,1,78,0,0
154060,-100,4,1,2,78,0,0
154158,-100,4,1,1,78,0,0
154649,-100,4,1,2,78,0,0
154747,-100,4,1,1,78,0,0
155237,-100,4,1,2,78,0,0
155335,-100,4,1,1,78,0,0
155629,-100,4,1,2,78,0,0
155727,-100,4,1,1,78,0,0
156413,-100,4,1,2,78,0,0
156511,-100,4,1,1,78,0,0
157198,-100,4,1,2,90,0,0
157484,-100,4,1,1,90,0,0
157778,-100,4,1,2,90,0,0
157876,-100,4,1,1,90,0,0
158170,-100,4,1,2,90,0,0
158268,-100,4,1,1,90,0,0
158758,-100,4,1,2,90,0,0
159052,-100,4,1,1,90,0,0
159347,-100,4,1,2,90,0,0
159445,-100,4,1,1,90,0,0
159739,-100,4,1,2,90,0,0
159837,-100,4,1,1,90,0,0
160327,-100,4,1,2,90,0,0
160621,-100,4,1,1,90,0,0
160915,-100,4,1,2,90,0,0
161013,-100,4,1,1,90,0,0
161307,-100,4,1,2,90,0,0
161405,-100,4,1,1,90,0,0
161896,-100,4,1,2,90,0,0
162288,-100,4,1,1,90,0,0
162386,-100,4,1,2,90,0,0
163072,-100,4,1,1,90,0,0
163464,-100,4,1,2,90,0,0
163758,-100,4,1,1,90,0,0
164052,-100,4,1,2,90,0,0
164150,-100,4,1,1,90,0,0
164445,-100,4,1,2,90,0,0
164543,-100,4,1,1,90,0,0
165033,-100,4,1,2,90,0,0
165327,-100,4,1,1,90,0,0
165621,-100,4,1,2,90,0,0
165719,-100,4,1,1,90,0,0
166013,-100,4,1,2,90,0,0
166111,-100,4,1,1,90,0,0
166601,-100,4,1,2,90,0,0
166896,-100,4,1,1,90,0,0
167190,-100,4,1,2,90,0,0
167288,-100,4,1,1,90,0,0
167582,-100,4,1,2,90,0,0
167680,-100,4,1,1,90,0,0
169343,-100,4,1,2,90,0,0
170029,-100,4,1,1,90,0,0
170323,-100,4,1,2,90,0,0
170421,-100,4,1,1,90,0,0
170715,-100,4,1,2,90,0,0
170813,-100,4,1,1,90,0,0
171303,-100,4,1,2,90,0,0
171597,-100,4,1,1,90,0,0
171892,-100,4,1,2,90,0,0
171990,-100,4,1,1,90,0,0
172284,-100,4,1,2,90,0,0
172382,-100,4,1,1,90,0,0
172872,-100,4,1,2,90,0,0
173166,-100,4,1,1,90,0,0
173460,-100,4,1,2,90,0,0
173558,-100,4,1,1,90,0,0
173852,-100,4,1,2,90,0,0
173950,-100,4,1,1,90,0,0
174441,-100,4,1,2,90,0,0
174539,-100,4,1,1,90,0,0
174637,-100,4,1,2,90,0,0
174833,-100,4,1,1,90,0,0
175029,-100,4,1,2,90,0,0
175127,-100,4,1,1,90,0,0
175225,-100,4,1,2,90,0,0
175323,-100,4,1,1,90,0,0
175421,-100,4,1,2,90,0,0
175617,-100,4,1,1,90,0,0
175813,-100,4,1,2,90,0,0
175911,-100,4,1,1,90,0,0
176009,-100,4,1,2,90,0,0
176303,-100,4,1,1,90,0,0
176597,-100,4,1,2,90,0,0
176695,-100,4,1,1,90,0,0
176990,-100,4,1,2,90,0,0
177088,-100,4,1,1,90,0,0
177578,-100,4,1,2,90,0,0
177872,-100,4,1,1,90,0,0
178166,-100,4,1,2,90,0,0
178264,-100,4,1,1,90,0,0
178558,-100,4,1,2,90,0,0
178656,-100,4,1,1,90,0,0
179146,-100,4,1,2,90,0,0
179441,-100,4,1,1,90,0,0
179735,-100,4,1,2,90,0,0
179833,-100,4,1,1,90,0,0
180127,-100,4,1,2,90,0,0
180225,-100,4,1,1,90,0,0
180813,-100,4,1,2,90,0,0
181107,-100,4,1,1,90,0,0
181205,-100,4,1,2,90,0,0
181499,-100,4,1,1,90,0,0
181597,-100,4,1,2,90,0,0
181892,-100,4,1,1,90,0,0
194890,392.02874877491,4,1,1,90,1,1
195034,-100,4,1,2,90,0,1
195230,-100,4,1,1,90,0,1
195426,-100,4,1,2,90,0,1
195622,-100,4,1,1,90,0,1
195818,-100,4,1,2,90,0,1
196014,-100,4,1,1,90,0,1
196210,-100,4,1,2,90,0,1
196406,-100,4,1,1,90,0,1
196602,-100,4,1,2,90,0,1
196798,-100,4,1,1,90,0,1
196994,-100,4,1,2,90,0,1
197190,-100,4,1,1,90,0,1
197387,-100,4,1,2,90,0,1
197583,-100,4,1,1,90,0,1
197779,-100,4,1,2,90,0,1
197975,-100,4,1,1,90,0,1
198171,-100,4,1,2,90,0,1
198465,-100,4,1,1,90,0,1
198759,-100,4,1,2,90,0,1
199053,-100,4,1,1,90,0,1
199347,-100,4,1,2,90,0,1
199445,-100,4,1,1,90,0,1
199739,-100,4,1,2,90,0,1
199837,-100,4,1,1,90,0,1
200132,-100,4,1,2,90,0,1
200230,-100,4,1,1,90,0,1
200426,-100,4,1,2,90,0,1
200720,-100,4,1,1,90,0,1
200818,-100,4,1,2,90,0,1
201112,-100,4,1,1,90,0,1
201308,-100,4,1,2,90,0,1
201504,-100,4,1,1,90,0,1
201700,-100,4,1,2,90,0,1
201896,-100,4,1,1,90,0,1
202092,-100,4,1,2,90,0,1
202288,-100,4,1,1,90,0,1
202485,-100,4,1,2,90,0,1
202681,-100,4,1,1,90,0,1
202877,-100,4,1,2,90,0,1
203073,-100,4,1,1,90,0,1
203269,-100,4,1,2,90,0,1
203465,-100,4,1,1,90,0,1
203661,-100,4,1,2,90,0,1
203857,-100,4,1,1,90,0,1
204053,-100,4,1,2,90,0,1
204249,-100,4,1,1,90,0,1
204445,-100,4,1,2,90,0,1
204739,-100,4,1,1,90,0,1
205034,-100,4,1,2,90,0,1
205328,-100,4,1,1,90,0,1
205622,-100,4,1,2,90,0,1
205720,-100,4,1,1,90,0,1
206014,-100,4,1,2,90,0,1
206210,-100,4,1,1,90,0,1
206308,-100,4,1,2,90,0,1
206602,-100,4,1,1,90,0,1
206700,-100,4,1,2,90,0,1
206994,-100,4,1,1,90,0,1
207092,-100,4,1,2,90,0,1
207190,-100,4,1,1,90,0,1
207288,-100,4,1,2,90,0,1
207387,-83.3333333333333,4,1,1,90,0,1
207583,-83.3333333333333,4,1,2,90,0,1
207779,-83.3333333333333,4,1,1,90,0,1
207975,-83.3333333333333,4,1,2,90,0,1
208171,-83.3333333333333,4,1,1,90,0,1
208367,-83.3333333333333,4,1,2,90,0,1
208563,-83.3333333333333,4,1,1,90,0,1
208759,-83.3333333333333,4,1,2,90,0,1
208955,-83.3333333333333,4,1,1,90,0,1
209151,-83.3333333333333,4,1,2,90,0,1
209347,-83.3333333333333,4,1,1,90,0,1
209543,-83.3333333333333,4,1,2,90,0,1
209739,-83.3333333333333,4,1,1,90,0,1
209936,-83.3333333333333,4,1,2,90,0,1
210132,-83.3333333333333,4,1,1,90,0,1
210328,-83.3333333333333,4,1,2,90,0,1
210524,-83.3333333333333,4,1,1,90,0,1
210622,-83.3333333333333,4,1,2,90,0,1
210818,-83.3333333333333,4,1,1,90,0,1
211014,-83.3333333333333,4,1,2,90,0,1
211210,-83.3333333333333,4,1,1,90,0,1
211406,-83.3333333333333,4,1,2,90,0,1
211602,-83.3333333333333,4,1,1,90,0,1
211798,-83.3333333333333,4,1,2,90,0,1
211994,-83.3333333333333,4,1,1,90,0,1
212190,-83.3333333333333,4,1,2,90,0,1
212485,-83.3333333333333,4,1,1,90,0,1
212583,-83.3333333333333,4,1,2,90,0,1
212877,-83.3333333333333,4,1,1,90,0,1
212975,-83.3333333333333,4,1,2,90,0,1
213269,-83.3333333333333,4,1,1,90,0,1
213367,-83.3333333333333,4,1,2,90,0,1
213661,-83.3333333333333,4,1,1,90,0,1
213857,-83.3333333333333,4,1,2,90,0,1
214053,-83.3333333333333,4,1,1,90,0,1
214249,-83.3333333333333,4,1,2,90,0,1
214445,-83.3333333333333,4,1,1,90,0,1
214641,-83.3333333333333,4,1,2,90,0,1
214837,-83.3333333333333,4,1,1,90,0,1
215034,-83.3333333333333,4,1,2,90,0,1
215230,-83.3333333333333,4,1,1,90,0,1
215426,-83.3333333333333,4,1,2,90,0,1
215622,-83.3333333333333,4,1,1,90,0,1
215818,-83.3333333333333,4,1,2,90,0,1
216014,-83.3333333333333,4,1,1,90,0,1
216210,-83.3333333333333,4,1,2,90,0,1
216406,-83.3333333333333,4,1,1,90,0,1
216602,-83.3333333333333,4,1,2,90,0,1
216798,-83.3333333333333,4,1,1,90,0,1
216994,-83.3333333333333,4,1,2,90,0,1
217190,-83.3333333333333,4,1,1,90,0,1
217288,-83.3333333333333,4,1,2,90,0,1
217485,-83.3333333333333,4,1,1,90,0,1
217779,-83.3333333333333,4,1,2,90,0,1
217975,-83.3333333333333,4,1,1,90,0,1
218073,-83.3333333333333,4,1,2,90,0,1
218269,-83.3333333333333,4,1,1,90,0,1
218563,-83.3333333333333,4,1,2,90,0,1
218661,-83.3333333333333,4,1,1,90,0,1
220132,-83.3333333333333,4,1,2,90,0,1
220328,-83.3333333333333,4,1,1,90,0,1
220524,-83.3333333333333,4,1,2,90,0,1
220720,-83.3333333333333,4,1,1,90,0,1
220916,-83.3333333333333,4,1,2,90,0,1
221112,-83.3333333333333,4,1,1,90,0,1
221308,-83.3333333333333,4,1,2,90,0,1
221504,-83.3333333333333,4,1,1,90,0,1
221700,-83.3333333333333,4,1,2,90,0,1
221896,-83.3333333333333,4,1,1,90,0,1
222092,-83.3333333333333,4,1,2,90,0,1
222288,-83.3333333333333,4,1,1,90,0,1
222485,-83.3333333333333,4,1,2,90,0,1
222681,-83.3333333333333,4,1,1,90,0,1
222877,-83.3333333333333,4,1,2,90,0,1
223073,-83.3333333333333,4,1,1,90,0,1
223269,-83.3333333333333,4,1,2,90,0,1
223465,-83.3333333333333,4,1,1,90,0,1
223661,-83.3333333333333,4,1,2,90,0,1
223857,-83.3333333333333,4,1,1,90,0,1
224053,-83.3333333333333,4,1,2,90,0,1
224249,-83.3333333333333,4,1,1,90,0,1
224445,-83.3333333333333,4,1,2,90,0,1
224641,-83.3333333333333,4,1,1,90,0,1
224837,-83.3333333333333,4,1,2,90,0,1
225034,-83.3333333333333,4,1,1,90,0,1
225230,-83.3333333333333,4,1,2,90,0,1
225426,-83.3333333333333,4,1,1,90,0,1
225622,-83.3333333333333,4,1,2,90,0,1
225818,-83.3333333333333,4,1,1,90,0,1
226014,-83.3333333333333,4,1,2,90,0,1
226210,-83.3333333333333,4,1,1,90,0,1
226406,-83.3333333333333,4,1,2,90,0,1
226602,-83.3333333333333,4,1,1,90,0,1
226798,-83.3333333333333,4,1,2,90,0,1
226994,-83.3333333333333,4,1,1,90,0,1
227190,-83.3333333333333,4,1,2,90,0,1
227387,-83.3333333333333,4,1,1,90,0,1
227583,-83.3333333333333,4,1,2,90,0,1
227779,-83.3333333333333,4,1,1,90,0,1
227975,-83.3333333333333,4,1,2,90,0,1
228171,-83.3333333333333,4,1,1,90,0,1
228367,-83.3333333333333,4,1,2,90,0,1
228563,-83.3333333333333,4,1,1,90,0,1
228759,-83.3333333333333,4,1,2,90,0,1
228955,-83.3333333333333,4,1,1,90,0,1
229151,-83.3333333333333,4,1,2,90,0,1
229347,-83.3333333333333,4,1,1,90,0,1
229543,-83.3333333333333,4,1,2,90,0,1
229739,-83.3333333333333,4,1,1,90,0,1
229936,-83.3333333333333,4,1,2,90,0,1
230132,-83.3333333333333,4,1,1,90,0,1
230328,-83.3333333333333,4,1,2,90,0,1
230524,-83.3333333333333,4,1,1,90,0,1
230720,-83.3333333333333,4,1,2,90,0,1
230916,-83.3333333333333,4,1,1,90,0,1
231014,-83.3333333333333,4,1,2,90,0,1
231308,-83.3333333333333,4,1,1,90,0,1
231406,-83.3333333333333,4,1,2,90,0,1
231700,-83.3333333333333,4,1,1,90,0,1
231798,-83.3333333333333,4,1,2,90,0,1
232092,-83.3333333333333,4,1,1,90,0,1
232190,-83.3333333333333,4,1,2,90,0,1
232524,-83.3333333333333,4,1,2,90,0,0
246648,391.77277179236,4,1,2,90,1,0

[Colours]
Combo1 : 128,175,255
Combo2 : 128,255,255
Combo3 : 128,128,255

[HitObjects]
144,144,38035,2,0,P|257:68|368:144,1,288,6|0,0:0|0:0,0:0:0:0:
368,239,39603,2,0,P|333:293|216:327,1,192,2|2,0:0|0:0,0:0:0:0:
77,192,41172,5,0,0:0:0:0:
202,46,41956,2,0,P|246:81|260:125,1,96,0|2,0:0|0:0,0:0:0:0:
310,198,42740,2,0,P|216:204|165:122,1,192,2|2,0:0|0:0,0:0:0:0:
346,72,44308,6,0,B|388:98|388:98|394:147,1,96,4|8,0:0|0:0,0:0:0:0:
393,239,45093,2,0,B|388:286|388:286|346:312,1,96,0|8,0:0|0:0,0:0:0:0:
252,288,45877,2,0,B|226:246|226:246|179:240,1,96,0|8,0:0|0:0,0:0:0:0:
179,143,46661,2,0,B|226:138|226:138|252:96,1,96,0|8,0:0|0:0,0:0:0:0:
159,48,47445,6,0,P|83:123|196:239,1,288,4|2,0:0|0:0,0:0:0:0:
270,207,49013,1,2,0:0:0:0:
373,45,49798,2,0,P|419:82|436:124,1,96,2|0,0:0|0:0,0:0:0:0:
409,207,50582,6,0,B|337:211|342:314|342:314|254:259|215:318,1,288,2|2,0:0|0:0,0:0:0:0:
184,226,52150,2,0,B|218:197|273:197|273:197|301:149|343:134,1,192,2|2,0:0|0:0,0:0:0:0:
150,134,53718,6,0,B|103:143|103:143|88:193,1,96,0|8,0:0|0:0,0:0:0:0:
111,282,54503,2,0,B|134:323|134:323|182:322,1,96,0|8,0:0|0:0,0:0:0:0:
277,305,55287,2,0,B|324:296|324:296|337:249,1,96,0|8,0:0|0:0,0:0:0:0:
257,196,56071,2,0,B|280:154|280:154|328:155,1,96,0|8,0:0|0:0,0:0:0:0:
426,133,56855,6,0,B|402:73|356:59|322:59|322:59|227:59|227:59|194:117,1,288,6|2,0:0|0:0,0:0:0:0:
280,159,58423,2,0,B|251:208|251:208|156:208|156:208|122:208|76:194|52:134,1,288,2|2,0:0|0:0,0:0:0:0:
123,69,59992,6,0,B|132:101|153:117|153:117|201:117|201:117|228:68|276:51|342:69|352:112,1,288,2|2,0:0|0:0,0:0:0:0:
421,170,61560,2,0,P|399:246|294:284,1,192,2|0,0:0|0:0,0:0:0:0:
113,240,63128,6,0,B|100:192|100:192|113:146,1,96,4|8,0:0|0:0,0:0:0:0:
208,149,63912,2,0,B|195:193|195:193|208:241,1,96,0|8,0:0|0:0,0:0:0:0:
303,241,64697,2,0,B|316:193|316:193|304:149,1,96,0|8,0:0|0:0,0:0:0:0:
399,147,65481,2,0,B|412:192|412:192|399:240,1,96,0|8,0:0|0:0,0:0:0:0:
351,322,66265,6,0,B|323:338|291:338|258:322|258:322|212:339|166:322|166:322|133:338|101:338|73:322,1,288,6|0,0:0|0:0,0:0:0:0:
118,237,67833,2,0,B|155:222|164:186|164:186|185:250|239:250|260:186|260:186|269:222|306:237,1,288,2|2,0:0|0:0,0:0:0:0:
402,243,69402,6,0,P|463:181|343:59,1,288,2|2,0:0|0:0,0:0:0:0:
371,152,70970,2,0,B|313:160|279:119|279:119|187:118,1,192,2|2,0:0|0:0,0:0:0:0:
256,192,72538,12,0,75283,0:0:0:0:
40,114,76067,6,0,B|104:98|120:66|120:66|136:98|200:114,1,192
312,270,77635,2,0,B|376:286|392:318|392:318|408:286|472:270,1,192
326,144,79204,6,0,B|256:144|256:144|236:104|195:85|141:94,1,192
103,262,80772,2,0,B|173:262|173:262|193:302|234:321|288:312,1,192
348,252,81948,5,4,0:0:0:0:
258,221,82340,2,0,B|228:168|177:168|177:168|81:168,1,192
112,75,83516,1,0,0:0:0:0:
207,74,83909,2,0,P|291:109|356:207,1,192
256,192,85085,12,0,86653,0:0:0:0:
430,292,88221,5,4,0:0:0:0:
405,199,88613,2,0,P|357:130|256:112,1,192,8|8,0:0|0:0,0:0:0:0:
165,143,89790,5,0,0:0:0:0:
143,236,90182,2,0,P|146:317|256:351,1,192,8|8,0:0|0:0,0:0:0:0:
330,329,91358,5,4,0:0:0:0:
274,253,91750,2,0,P|195:168|120:118,1,192,8|8,0:0|0:0,0:0:0:0:
40,96,92926,5,0,0:0:0:0:
113,33,93318,1,8,0:0:0:0:
204,62,93711,1,0,0:0:0:0:
296,35,94103,1,8,0:0:0:0:
370,94,94495,5,4,0:0:0:0:
425,172,94887,2,0,P|418:248|322:303,1,192,8|8,0:0|0:0,0:0:0:0:
256,236,96063,5,0,0:0:0:0:
186,303,96455,2,0,P|94:248|87:172,1,192,8|8,0:0|0:0,0:0:0:0:
127,84,97631,6,0,P|162:51|220:37,1,96,4|8,0:0|0:0,0:0:0:0:
206,133,98415,2,0,P|241:166|299:180,1,96,0|8,0:0|0:0,0:0:0:0:
296,84,99200,6,0,P|377:205|284:273,1,288,4|0,0:0|0:0,0:0:0:0:
192,251,100768,5,4,0:0:0:0:
158,161,101160,2,0,P|96:112|29:184,1,192,8|8,0:0|0:0,0:0:0:0:
16,276,102336,5,0,0:0:0:0:
89,337,102728,2,0,P|184:352|274:313,1,192,8|8,0:0|0:0,0:0:0:0:
339,249,103905,5,4,0:0:0:0:
429,217,104297,2,0,P|453:173|443:124,1,96,8|0,0:0|0:0,0:0:0:0:
367,77,105081,1,8,0:0:0:0:
273,53,105473,5,0,0:0:0:0:
194,107,105865,1,8,0:0:0:0:
99,90,106257,1,0,0:0:0:0:
29,156,106649,1,8,0:0:0:0:
123,172,107041,5,4,0:0:0:0:
61,245,107433,2,0,P|39:307|139:346,1,192,8|8,0:0|0:0,0:0:0:0:
204,282,108610,5,4,0:0:0:0:
296,308,109002,2,0,P|367:231|321:183,1,192,8|8,0:0|0:0,0:0:0:0:
256,192,110178,12,4,113315,0:0:0:0:
46,163,125861,6,0,P|92:101|165:77,2,144,4|0|2,0:0|0:0|0:0,0:0:0:0:
56,258,127429,2,0,P|104:288|192:304,1,144
292,209,128606,1,2,0:0:0:0:
376,162,128998,6,0,P|430:187|480:261,2,144,0|0|2,0:0|0:0|0:0,0:0:0:0:
280,157,130566,2,0,P|214:211|282:267,1,192,2|2,0:0|0:0,0:0:0:0:
459,210,132134,6,0,B|480:167|480:167|445:131,1,96,0|8,0:0|0:0,0:0:0:0:
355,101,132919,2,0,B|376:58|376:58|341:22,1,96,0|8,0:0|0:0,0:0:0:0:
262,76,133703,2,0,B|241:119|241:119|276:155,1,96,0|8,0:0|0:0,0:0:0:0:
187,193,134487,2,0,B|166:236|166:236|201:272,1,96,0|8,0:0|0:0,0:0:0:0:
286,310,135271,6,0,P|344:341|443:322,2,144,4|0|2,0:0|0:0|0:0,0:0:0:0:
284,213,136839,1,0,0:0:0:0:
363,158,137231,2,0,P|256:120|196:177,1,192,2|2,0:0|0:0,0:0:0:0:
194,258,138408,6,0,P|117:303|19:288,1,192,6|0,0:0|0:0,0:0:0:0:
19,96,139976,2,0,P|117:81|194:126,1,192,2|2,0:0|0:0,0:0:0:0:
256,192,141544,12,0,144289,0:0:0:0:
326,76,145073,6,0,B|372:90|372:90|400:161|361:228,1,192,8|8,0:0|0:0,0:0:0:0:
186,308,146641,2,0,B|140:294|140:294|112:223|151:156,1,192,8|8,0:0|0:0,0:0:0:0:
220,89,147818,1,4,0:0:0:0:
289,155,148210,6,0,B|309:199|309:199|354:195|403:229|405:286,1,192,8|8,0:0|0:0,0:0:0:0:
223,229,149778,2,0,B|203:185|203:185|158:189|109:155|107:98,1,192,8|8,0:0|0:0,0:0:0:0:
202,88,150954,5,4,0:0:0:0:
285,136,151346,2,0,B|306:184|306:184|326:224|323:276|271:313,1,192,8|8,0:0|0:0,0:0:0:0:
223,230,152523,1,0,0:0:0:0:
148,169,152915,2,0,P|201:86|286:45,1,192,8|8,0:0|0:0,0:0:0:0:
256,192,154091,12,0,155659,0:0:0:0:
379,111,157227,5,4,0:0:0:0:
341,199,157620,2,0,B|311:236|311:236|261:206|212:222|180:266,1,192,8|8,0:0|0:0,0:0:0:0:
261,315,158796,5,0,0:0:0:0:
356,315,159188,2,0,B|397:262|397:262|441:209|418:157|395:140,1,192,8|8,0:0|0:0,0:0:0:0:
329,85,160364,5,4,0:0:0:0:
259,150,160756,2,0,B|232:195|162:193|132:159|132:159|94:190,1,192,8|8,0:0|0:0,0:0:0:0:
24,251,161932,5,0,0:0:0:0:
116,281,162325,1,8,0:0:0:0:
195,334,162717,1,0,0:0:0:0:
276,283,163109,1,8,0:0:0:0:
366,251,163501,5,4,0:0:0:0:
460,234,163893,2,0,P|508:154|467:67,1,192,8|8,0:0|0:0,0:0:0:0:
378,43,165069,5,0,0:0:0:0:
335,129,165461,2,0,P|250:176|177:130,1,192,8|8,0:0|0:0,0:0:0:0:
134,43,166637,6,0,B|82:70|65:133|77:175|127:222|127:222|154:245|201:264,1,288,4|8,0:0|0:0,0:0:0:0:
283,280,168206,5,4,0:0:0:0:
453,192,168990,1,4,0:0:0:0:
283,104,169774,5,4,0:0:0:0:
187,116,170166,2,0,P|137:193|187:268,1,192,8|8,0:0|0:0,0:0:0:0:
280,286,171342,5,0,0:0:0:0:
377,265,171734,2,0,P|418:228|331:156,1,192,8|8,0:0|0:0,0:0:0:0:
256,192,172911,5,4,0:0:0:0:
169,233,173303,2,0,P|94:156|135:119,1,192,8|8,0:0|0:0,0:0:0:0:
232,98,174479,5,0,0:0:0:0:
316,144,174871,1,8,0:0:0:0:
316,240,175263,1,0,0:0:0:0:
232,286,175655,1,8,0:0:0:0:
314,335,176047,5,4,0:0:0:0:
398,289,176439,2,0,P|448:222|430:120,1,192,8|8,0:0|0:0,0:0:0:0:
347,72,177616,5,0,0:0:0:0:
291,150,178008,2,0,P|233:198|121:202,1,192,8|8,0:0|0:0,0:0:0:0:
256,192,179184,12,0,182321,0:0:0:0:
128,41,194890,5,4,0:0:0:0:
206,99,195282,1,8,0:0:0:0:
186,192,195674,1,0,0:0:0:0:
206,285,196066,1,8,0:0:0:0:
115,254,196458,5,0,0:0:0:0:
41,192,196850,1,8,0:0:0:0:
115,130,197242,1,0,0:0:0:0:
186,192,197634,1,8,0:0:0:0:
277,220,198026,6,0,P|356:231|423:207,2,144,0|0|8,0:0|0:0|0:0,0:0:0:0:
241,132,199594,6,0,B|220:81|182:62|182:62|112:137|112:137|134:173|186:192,1,288,0|8,0:0|0:0,0:0:0:0:
222,280,201162,5,0,0:0:0:0:
313,307,201554,1,8,0:0:0:0:
384,242,201946,1,0,0:0:0:0:
301,192,202338,1,8,0:0:0:0:
384,142,202730,5,0,0:0:0:0:
313,77,203122,1,8,0:0:0:0:
222,104,203514,1,0,0:0:0:0:
130,76,203906,1,8,0:0:0:0:
63,144,204298,6,0,P|28:206|48:273,2,144,0|0|8,0:0|0:0|0:0,0:0:0:0:
154,175,205866,6,0,B|199:186|208:240|208:240|256:283|304:240|304:240|313:186|358:175,1,288,0|8,0:0|0:0,0:0:0:0:
473,181,207434,5,4,0:0:0:0:
425,75,207826,1,8,0:0:0:0:
313,103,208218,1,0,0:0:0:0:
199,103,208611,1,8,0:0:0:0:
87,75,209003,5,0,0:0:0:0:
39,181,209395,1,8,0:0:0:0:
136,242,209787,1,0,0:0:0:0:
206,333,210179,1,0,0:0:0:0:
321,327,210571,6,0,P|378:309|424:273,1,115.199996484375,0|8,0:0|0:0,0:0:0:0:
312,241,211355,2,0,P|368:204|392:150,1,115.199996484375,0|8,0:0|0:0,0:0:0:0:
281,128,212139,6,0,P|125:158|220:240,1,345.599989453125,0|8,0:0|0:0,0:0:0:0:
312,241,213707,5,0,0:0:0:0:
256,343,214099,1,8,0:0:0:0:
200,241,214491,1,0,0:0:0:0:
96,192,214883,1,8,0:0:0:0:
200,143,215275,5,0,0:0:0:0:
256,41,215667,1,0,0:0:0:0:
312,143,216059,1,0,0:0:0:0:
416,192,216451,1,8,0:0:0:0:
405,306,216843,6,0,P|369:349|309:357,1,115.199996484375,0|8,0:0|0:0,0:0:0:0:
198,357,217627,2,0,P|143:349|107:306,1,115.199996484375,0|8,0:0|0:0,0:0:0:0:
192,262,218411,6,0,P|254:202|320:262,1,192
424,55,219979,6,0,B|337:55|337:55|285:34|285:34|195:34,1,230.39999296875,4|0,0:0|0:0,0:0:0:0:
82,34,221155,1,8,0:0:0:0:
141,132,221547,6,0,B|228:132|228:132|280:153|280:153|366:152|413:248|371:310,1,345.599989453125,0|8,0:0|0:0,0:0:0:0:
287,362,223116,5,0,0:0:0:0:
174,336,223508,2,0,B|141:285|152:226|152:226|81:232|53:168,1,230.39999296875,8|8,0:0|0:0,0:0:0:0:
44,61,224684,6,0,P|101:46|160:53,1,115.199996484375,0|8,0:0|0:0,0:0:0:0:
228,142,225468,2,0,P|283:147|340:132,1,115.199996484375,0|8,0:0|0:0,0:0:0:0:
438,72,226252,6,0,B|437:159|437:159|458:212|458:212|458:299,1,230.39999296875
367,226,227428,1,0,0:0:0:0:
276,296,227820,6,0,B|277:209|277:209|256:156|256:156|258:82|203:44|146:38|102:71,1,345.599989453125,0|8,0:0|0:0,0:0:0:0:
256,192,229388,12,0,235660,0:0:0:0:
