osu file format v7

[General]
AudioFilename: She is my sin.mp3
AudioLeadIn: 1004
PreviewTime: 89079
Countdown: 0
SampleSet: Normal
StackLeniency: 0.7
Mode: 0
LetterboxInBreaks: 1

[Editor]
DistanceSpacing: 0.800000011920929
BeatDivisor: 4
GridSize: 8

[Metadata]
Title:She Is My Sin
Artist:Nightwish
Creator:NatsumeRin
Version:Hard
Source:
Tags:Wishmaster gothic metal rock

[Difficulty]
HPDrainRate:5
CircleSize:4
OverallDifficulty:6
SliderMultiplier:1.4
SliderTickRate:2

[Events]
//Background and Video events
0,0,"wishmaster1.jpg"
//Break Periods
2,26148,37839
2,113597,122542
//Storyboard Layer 0 (Background)
//Storyboard Layer 1 (Fail)
//Storyboard Layer 2 (Pass)
//Storyboard Layer 3 (Foreground)
//Storyboard Sound Samples
//Background Colour Transformations
3,100,163,162,255

[TimingPoints]
1243,392.146862745099,4,1,1,90,1,0
1730,-100,4,1,1,40,0,0
3690,-100,4,1,1,91,0,0
4867,-100,4,1,1,41,0,0
6833,-100,4,1,1,90,0,0
7236,-100,4,1,1,74,0,0
9001,-100,4,1,1,91,0,0
10563,-100,4,1,1,30,0,0
10759,-100,4,1,1,35,0,0
10955,-100,4,1,1,40,0,0
11151,-100,4,1,1,45,0,0
11348,-100,4,1,1,50,0,0
11548,-100,4,1,1,55,0,0
11740,-100,4,1,1,60,0,0
11936,-100,4,1,1,65,0,0
12132,-100,4,1,1,70,0,0
12524,-100,4,1,1,73,0,0
12916,-100,4,1,1,75,0,0
15465,-100,4,1,1,59,0,0
16053,-100,4,1,1,74,0,0
18406,-100,4,1,1,57,0,0
19583,-100,4,1,1,76,0,0
23108,-100,4,1,1,40,0,0
23112,-100,4,1,1,35,0,0
23510,-100,4,1,1,45,0,0
23700,-100,4,1,1,50,0,0
23897,-100,4,1,1,55,0,0
24093,-100,4,1,1,60,0,0
24289,-100,4,1,1,65,0,0
24485,-100,4,1,1,70,0,0
24681,-100,4,1,1,50,0,0
38799,-100,4,2,1,70,0,0
45073,-100,4,1,1,56,0,0
48210,-100,4,2,1,75,0,0
54485,-100,4,1,1,56,0,0
57622,-100,4,2,1,80,0,0
63897,-100,4,1,1,55,0,0
67034,-100,4,2,1,78,0,0
74877,-100,4,1,1,70,0,0
76446,-100,4,2,1,80,0,0
85857,-100,4,1,1,65,0,0
89081,-100,4,1,1,72,0,1
100171,-100,4,1,1,50,0,1
101642,-100,4,1,1,70,0,1
106446,-100,4,1,1,50,0,1
107818,-100,4,1,1,69,0,1
112524,-100,4,1,1,55,0,1
113786,-100,4,1,1,71,0,0
123504,-100,4,1,1,40,0,0
123897,-100,4,1,1,50,0,0
124289,-100,4,1,1,60,0,0
124681,-100,4,1,1,70,0,0
125073,-100,4,1,1,45,0,0
126726,-100,4,2,1,76,0,0
132916,-100,4,1,1,55,0,0
136053,-100,4,2,1,80,0,0
143897,-100,4,1,1,65,0,0
145465,-100,4,2,1,79,0,0
154877,-100,4,1,1,61,0,0
156642,-100,4,1,1,49,0,0
157426,-100,4,1,1,36,0,0
158097,-100,4,2,1,80,0,1
170635,-100,4,2,1,90,0,1
183180,392.136358883196,4,1,1,90,1,0
186212,-100,4,1,1,93,0,0
186800,-100,4,1,1,63,0,0
187781,-100,4,1,1,81,0,0

[Colours]
Combo1 : 128,128,128
Combo2 : 13,13,13
Combo3 : 233,233,233

[HitObjects]
384,80,1242,2,0,B|472:80|472:80,2,70,4|4|4
328,80,1831,1,0
272,80,2027,2,0,B|56:80|56:80,1,210,8|0
62,80,2811,2,0,B|112:304|112:304,1,210,8|0
160,312,3595,1,8
216,296,3791,1,4
328,296,4184,5,0
384,296,4380,2,0,B|464:296|464:296,2,70,4|4|4
384,240,4968,1,0
384,184,5164,2,0,B|160:256|160:256,1,210,8|8
128,264,5948,2,0,B|160:48|160:48,1,210,8|8
158,56,6733,1,0
158,56,6929,1,4
272,56,7321,5,0
328,56,7517,2,0,B|424:56|424:56,3,70,4|4|4|0
456,64,8301,2,0,B|456:160|456:160,1,70,8|0
456,192,8693,2,0,B|456:280|456:280,1,70,0|8
456,320,9085,5,4
320,320,9478,1,4
184,320,9870,1,4
48,320,10262,1,4
120,232,10654,6,0,B|200:232|200:232,3,70
248,232,11438,2,0,B|344:232|344:232,1,70
376,232,11830,2,0,B|424:144|424:144,1,70
408,112,12223,6,0,B|336:72|336:72,3,70
288,72,13007,2,0,B|288:16|288:16,2,35
232,72,13399,1,4
120,48,13791,6,0,B|64:136|64:136,2,70,8|0|0
120,160,14575,2,0,B|80:224|80:224,2,70,8|0|0
120,272,15360,2,0,B|80:336|80:336,2,70,8|0|0
176,272,15948,1,8
232,272,16144,2,0,B|336:272|336:272,1,70
360,272,16536,1,8
360,160,16928,6,0,B|464:160|464:160,2,70,8|0|0
360,48,17713,2,0,B|448:48|448:48,2,70,8|0|0
248,48,18497,2,0,B|176:120|176:120,3,70,8|0|0|8
160,136,19281,1,8
120,176,19477,2,0,B|184:240|184:240,1,70,0|12
256,192,20066,12,0,21242
360,192,21634,5,4
152,192,22026,1,4
360,192,22418,1,4
152,192,22811,1,4
64,264,23203,6,0,B|128:328|128:328,1,70
168,312,23595,2,0,B|240:312|240:312,1,70
296,312,23987,2,0,B|368:312|368:312,1,70
424,312,24379,1,0
424,312,24575,1,0
424,312,24771,6,0,B|424:208|424:208,1,70,8|0
424,184,25163,2,0,B|424:88|424:88,1,70,0|8
424,56,25556,2,0,B|328:56|328:56,1,70
296,56,25948,1,8
152,96,38889,6,0,B|264:56|376:104|376:104,2,210
88,192,40457,2,0,B|88:328|200:344|288:320|288:320,1,280,2|0
400,296,41634,1,0
400,296,41830,1,0
400,72,42810,6,0,B|320:40|256:72|256:72,1,140
152,72,43594,2,0,B|120:152|152:224|152:224,1,140,2|2
256,216,44379,1,0
368,216,44771,2,0,B|424:216|424:272|424:272,1,70
424,312,45163,6,0,B|328:312|328:312,3,70,8|0|0|8
296,312,45947,2,0,B|240:240|240:240,1,70,8|0
200,256,46339,2,0,B|144:184|144:184,1,70,0|8
120,152,46732,2,0,B|200:88|200:88,1,70,8|0
232,112,47124,1,0
288,112,47320,1,8
344,112,47516,2,0,B|344:200|344:200,2,70,8|0|8
256,48,48300,6,0,B|120:48|120:200|120:200,2,210
256,48,49869,2,0,B|392:48|392:200|392:200,2,210,2|0|0
256,48,51437,1,2
344,192,52026,1,0
168,192,52614,1,0
256,192,53006,12,0,54574
256,144,54967,5,8
312,240,55359,2,0,B|384:296|384:296,2,70,0|0|8
200,240,56143,2,0,B|128:296|128:296,2,70,0|0|8
256,144,56927,1,0
256,144,57123,1,0
256,144,57320,1,8
352,96,57712,6,0,B|408:192|344:328|344:328,2,210
256,48,59280,2,0,B|160:80|40:48|40:48,2,210,2|0|0
256,160,60849,2,0,B|256:248|168:272|168:272,1,140
128,264,61437,2,0,B|48:184|80:72|88:40|88:40,1,210
192,64,62417,2,0,B|264:40|336:72|336:72,1,140,2|2
440,72,63202,1,0
440,184,63594,1,0
328,184,63986,6,0,B|328:88|328:88,2,70,8|0|0
272,184,64574,2,0,B|200:184|200:184,2,70,8|8|0
272,240,65162,2,0,B|272:312|272:312,1,70,0|8
216,312,65555,2,0,B|144:312|144:312,1,70,8|0
88,312,65947,1,0
88,256,66143,1,8
88,200,66339,2,0,B|88:120|88:120,2,70,8|0|8
88,88,67123,6,0,B|176:56|240:96|240:96,1,140
280,88,67711,2,0,B|360:120|432:96|432:96,1,140
417,99,68300,1,0
424,208,68692,6,0,B|336:240|272:200|272:200,1,140,2|2
232,208,69280,2,0,B|152:176|80:200|80:200,1,140
94,196,69868,1,0
94,196,70064,1,0
94,196,70260,2,0,B|112:312|264:336|264:336,2,210,2|0|0
256,192,71829,12,0,73398
392,192,74182,6,0,B|336:184|296:208|240:192,1,140,0|2
144,192,74966,1,0
256,64,75358,1,0
368,192,75750,1,0
256,320,76143,1,0
368,320,76535,5,0
368,320,76731,1,0
368,320,76927,1,2
256,320,77319,2,0,B|224:336|168:320|168:320,2,70,0|0|2
144,320,78103,1,0
144,320,78299,1,0
144,320,78495,1,2
256,320,78888,2,0,B|288:336|344:320|344:320,1,70
384,320,79280,2,0,B|424:312|432:336|432:336,1,35,2|0
424,240,79672,6,0,B|448:200|440:160|440:160,1,70
440,120,80064,1,2
352,48,80456,2,0,B|320:72|272:64|272:64,1,70
232,56,80848,1,2
120,56,81240,1,0
80,96,81437,1,0
72,152,81633,1,2
120,256,82025,1,0
176,272,82221,1,0
232,256,82417,2,0,B|256:240|256:224|256:224,1,35,2|0
312,288,82809,6,0,B|376:288|408:256|408:256,1,70
424,240,83201,2,0,B|448:200|432:144|432:144,1,70,2|0
432,120,83593,2,0,B|400:88|336:96|336:96,1,70
312,88,83985,1,2
200,88,84378,6,0,B|176:104|128:80|104:96|104:96,2,70,0|0|0
224,136,84966,1,2
208,192,85162,2,0,B|168:216|168:248|168:248,2,70,0|0|2
320,192,85946,6,0,B|376:136|376:136,2,70,8|0|0
280,232,86534,2,0,B|344:296|344:296,2,70,8|0|0
240,192,87123,2,0,B|176:128|176:128,1,70,8|0
256,192,87515,12,0,89083
392,80,89476,5,8
344,112,89672,1,0
296,144,89868,2,0,B|368:216|368:216,1,70
392,232,90260,1,8
296,296,90652,2,0,B|152:296|152:296,1,140
104,296,91240,1,0
104,296,91436,1,8
104,296,91632,2,0,B|104:200|104:200,1,70
104,112,92221,6,0,B|168:48|168:48,3,70,0|0|0|8
208,64,93005,2,0,B|288:64|288:64,1,70
336,64,93397,1,8
416,144,93789,2,0,B|352:208|352:208,3,70,0|0|0|0
368,248,94573,1,8
312,248,94770,2,0,B|224:248|224:248,1,70,8|0
128,248,95358,6,0,B|72:192|72:192,1,70
78,198,95750,1,8
80,88,96142,2,0,B|136:144|136:144,1,70
129,137,96534,1,8
232,88,96926,2,0,B|376:88|376:88,1,140,0|8
400,136,97515,2,0,B|488:136|488:136,2,70
376,184,98103,1,8
416,288,98495,6,0,B|248:328|248:328,1,140,0|0
224,320,99083,2,0,B|72:144|72:144,1,210
120,56,100064,2,0,B|408:56|408:56,2,280
120,168,102024,5,0
120,168,102220,2,0,B|288:336|288:336,1,210,0|8
384,320,103201,2,0,B|272:208|272:208,1,140
285,221,103789,2,0,B|448:64|448:64,1,210,0|8
436,75,104573,1,0
272,72,105161,1,0
272,72,105357,2,0,B|48:152|48:152,1,210
72,256,106338,5,0
168,312,106730,1,0
264,256,107122,1,0
360,312,107514,1,0
168,112,108299,5,0
168,112,108495,2,0,B|408:152|408:152,1,210,0|0
320,248,109475,2,0,B|96:320|96:320,2,210
256,192,111044,12,0,112612
256,192,113397,5,4
104,80,123592,5,0
104,80,123788,1,0
104,80,123984,1,0
104,80,124181,1,0
104,80,124377,1,0
104,80,124573,1,0
104,80,124769,1,0
104,80,124965,1,0
160,80,125161,6,0,B|160:32|160:32,2,35
216,80,125553,2,0,B|216:120|216:120,2,35,8|0|0
272,80,125945,1,0
312,120,126141,1,0
352,80,126337,1,8
392,120,126533,1,0
432,160,126729,6,0,B|440:296|304:320|304:320,2,210
432,48,128298,2,0,B|336:80|216:48|216:48,1,210,2|0
88,296,129867,2,0,B|176:344|296:312|296:312,2,210
88,184,131435,2,0,B|192:136|312:192|312:192,1,210,2|2
352,184,132220,1,0
352,184,132612,1,0
288,88,133004,6,0,B|192:120|192:120,1,70,8|0
168,128,133396,1,0
136,176,133592,1,8
104,224,133788,2,0,B|160:312|160:312,1,70,8|0
200,296,134180,1,0
256,304,134376,1,8
312,312,134572,6,0,B|392:256|392:256,1,70,8|0
416,240,134965,1,0
416,240,135161,1,8
416,184,135357,2,0,B|416:104|416:104,2,70,8|0|8
304,192,136141,6,0,B|296:104|232:72|128:88|128:88,2,210
256,296,137710,2,0,B|176:296|136:216|136:216,1,140,2|2
136,168,138298,1,2
144,112,138494,1,0
256,88,138886,1,0
368,112,139278,2,0,B|488:192|352:288|352:288,2,210,2|0|0
256,192,140847,12,4,142415
328,128,143200,5,0
184,128,143592,1,2
344,192,143984,1,0
168,192,144376,1,0
360,256,144768,1,0
152,256,145160,1,0
88,96,145553,6,0,B|240:48|240:48,1,140,0|2
336,56,146337,2,0,B|392:216|392:216,1,140,0|2
336,288,147121,2,0,B|240:272|240:272,1,70
216,264,147513,1,2
128,192,147905,1,0
216,120,148298,1,2
304,192,148690,6,0,B|336:184|368:208|400:184|400:184,2,70,0|0|2
200,144,149474,1,2
168,192,149670,1,0
136,240,149866,1,2
224,304,150258,6,0,B|264:328|312:312|312:312,1,70
344,304,150650,2,0,B|400:288|416:256|416:256,1,70,2|2
432,224,151043,2,0,B|456:160|432:136|432:136,1,70
432,104,151435,1,2
328,72,151827,5,0
328,72,152023,2,0,B|288:48|240:56|240:56,1,70,0|2
152,72,152611,1,0
152,72,152807,1,0
104,96,153003,2,0,B|72:96|72:128|72:128,1,35,2|0
104,192,153395,6,0,B|64:232|104:280|104:280,3,70,0|0|0|2
144,264,154180,2,0,B|176:232|152:192,3,70,0|0|2|0
208,192,154964,5,8
264,192,155160,2,0,B|352:152|352:152,1,70
376,192,155552,1,8
424,224,155748,2,0,B|336:272,1,70
312,280,156141,1,8
256,296,156337,1,4
256,192,156533,12,4,158101
408,104,158493,5,0
408,104,158689,2,0,B|352:56|240:56|176:96|176:96,1,210,2|2
96,112,159670,2,0,B|64:160|136:200|80:240|96:280|96:280,1,140,2|2
96,304,160258,2,0,B|176:256|216:368|328:344|328:344,1,210
294,344,161042,1,0
432,248,161631,1,0
432,248,161827,2,0,B|440:144|304:192|320:64|320:64,1,210,2|0
320,82,162807,5,0
264,72,163003,2,0,B|232:64|232:40|232:40,2,35
224,112,163395,1,0
216,168,163591,2,0,B|176:184|128:176|128:176,3,70,2|0|2|0
88,184,164376,6,0,B|88:280|144:336|144:336,1,140
184,328,164964,2,0,B|288:352|400:320|400:320,1,210,2|2
424,216,165944,2,0,B|456:176|384:144|384:112|416:80|416:80,1,140,2|0
360,64,166532,2,0,B|280:40|192:96|120:64|120:64,1,210
151,70,167317,1,0
151,70,167513,2,0,B|200:192|112:272|112:272,2,210,2|0|0
256,192,169081,12,4,170650
152,224,171042,6,0,B|160:272|232:272|232:272,1,70,2|0
200,152,171630,2,0,B|256:160|256:224|256:224,2,70,0|2|0
144,144,172219,2,0,B|96:144|72:120|72:120,1,70
72,72,172611,2,0,B|104:48|168:56|168:56,1,70,2|0
248,56,173199,2,0,B|312:48|344:72|344:72,1,70,0|2
368,80,173591,1,0
424,64,173787,6,0,B|440:112|432:144|432:144,1,70
424,184,174179,2,0,B|416:216|376:248|376:248,1,70,0|2
280,288,174767,2,0,B|312:320|344:312|344:312,2,70,0|2|0
224,296,175356,1,0
168,296,175552,2,0,B|152:336|176:352|176:352,2,35
120,272,175944,1,0
96,224,176140,2,0,B|64:168|96:128|96:128,1,70,2|0
136,184,176532,2,0,B|152:136|128:96|128:96,1,70,2|0
184,88,176924,5,0
184,88,177120,1,0
240,80,177316,1,0
240,80,177513,1,2
352,80,177905,2,0,B|408:80|424:40|424:40,2,70,0|2|2
376,136,178493,2,0,B|440:136|464:176|464:176,1,70
400,192,178885,2,0,B|440:240|440:272|440:272,1,70,0|2
384,272,179277,2,0,B|376:336|352:344|352:344,1,70,0|0
312,304,179669,2,0,B|256:344|224:336|224:336,1,70,2|0
192,336,180061,2,0,B|48:320|88:168|88:168,2,210,2|0|0
256,192,181630,12,4,182414
112,248,183180,6,0,B|160:328|160:328,1,70,8|0
192,248,183572,2,0,B|272:296|272:296,1,70,0|0
280,216,183964,2,0,B|360:208|360:208,1,70,8|0
352,136,184356,2,0,B|440:88|440:88,1,70,0|8
448,168,184748,6,0,B|424:264|424:264,1,70,8|0
416,304,185140,1,0
416,304,185336,1,0
344,304,185532,2,0,B|248:304|248:304,1,70
208,304,185924,2,0,B|200:216|200:216,1,70,0|8
256,192,186317,5,4
256,192,186513,1,4
256,192,186709,1,4
256,192,186905,1,0
184,192,187101,2,0,B|96:216|96:216,1,70,8|0
120,152,187493,2,0,B|56:112|56:112,1,70,0|8
60,114,187885,5,4
256,40,188277,1,4
451,114,188669,1,4
256,192,189062,1,4
256,192,189454,5,4
256,192,189650,1,4
