osu file format v14

[General]
AudioFilename: Nightwish - She Is My Sin.mp3
AudioLeadIn: 0
PreviewTime: 88166
Countdown: 0
SampleSet: Normal
StackLeniency: 0.7
Mode: 1
LetterboxInBreaks: 0
WidescreenStoryboard: 0

[Editor]
DistanceSpacing: 1
BeatDivisor: 4
GridSize: 32
TimelineZoom: 0.8

[Metadata]
Title:She Is My Sin
TitleUnicode:She Is My Sin
Artist:Nightwish
ArtistUnicode:Nightwish
Creator:Nardoxyribonucleic
Version:Futsuu
Source:
Tags:Taiko Wishmaster Tarja gothic symphonic metal Nwolf Ntiger
BeatmapID:1125980
BeatmapSetID:529780

[Difficulty]
HPDrainRate:7
CircleSize:5
OverallDifficulty:4
ApproachRate:7
SliderMultiplier:1.4
SliderTickRate:1

[Events]
//Background and Video events
0,0,"bg.jpg",0,0
//Break Periods
2,235797,246053
//Storyboard Layer 0 (Background)
//Storyboard Layer 1 (Fail)
//Storyboard Layer 2 (Pass)
//Storyboard Layer 3 (Foreground)
//Storyboard Sound Samples

[TimingPoints]
327,391.359432485323,4,1,0,70,1,0
327,-100.190361687206,4,1,0,70,0,0
12067,380.710659898477,4,1,0,80,1,8
12067,-102.997219075085,4,1,0,80,0,0
12447,403.225806451613,4,1,0,80,1,8
12447,-97.2384286269934,4,1,0,80,0,0
12850,400,4,1,0,70,1,0
12850,-98.0296049406921,4,1,0,70,0,0
14450,392.106862745098,4,1,0,70,1,0
23860,380.710659898477,4,1,0,80,1,0
23860,-102.997219075085,4,1,0,80,0,0
25002,427.046263345196,4,1,0,80,1,8
25002,-91.8189330639978,4,1,0,80,0,0
25429,392.105607110182,4,1,0,75,1,0
37976,-100,4,1,0,70,0,0
75618,-100,4,1,0,75,0,0
88165,-100,4,1,0,85,0,1
113260,-100,4,1,0,75,0,0
125808,-100,4,1,0,70,0,0
144629,-100,4,1,0,75,0,0
157176,-100,4,1,0,85,0,1
182271,-100,4,1,0,80,0,0
219913,-100,4,1,0,90,0,1
232460,-100,4,1,0,80,0,0
235598,391.26181936746,4,1,0,50,1,0
235598,-99.7804829375374,4,1,0,50,0,0
246553,400,4,1,0,60,1,0
246553,-98.0296049406921,4,1,0,60,0,0
248153,408.163265306122,4,1,0,90,1,1
248153,-96.061479346782,4,1,0,90,0,1
248561,384.15306122449,4,1,0,90,1,9
248561,-102.072062876391,4,1,0,90,0,1
249329,392.003136025088,4,1,0,90,1,9
249329,-100.030009002701,4,1,0,90,0,1
249721,391.900718484651,4,1,0,90,1,1
249721,-100.050025012506,4,1,0,90,0,1
273235,-100.050025012506,4,1,0,75,0,0

[HitObjects]
256,192,327,5,12,0:0:0:0:
256,192,718,1,12,0:0:0:0:
256,192,2870,1,4,0:0:0:0:
256,192,3262,1,4,0:0:0:0:
256,192,3457,1,12,0:0:0:0:
256,192,3849,1,12,0:0:0:0:
256,192,6001,1,12,0:0:0:0:
256,192,6393,1,4,0:0:0:0:
256,192,6588,1,12,0:0:0:0:
256,192,6980,1,12,0:0:0:0:
256,192,7762,1,4,0:0:0:0:
256,192,8545,1,12,0:0:0:0:
256,192,8936,1,12,0:0:0:0:
256,192,9328,1,4,0:0:0:0:
256,192,9719,1,12,0:0:0:0:
256,192,10502,1,0,0:0:0:0:
256,192,10893,1,0,0:0:0:0:
256,192,11285,1,8,0:0:0:0:
256,192,11676,1,8,0:0:0:0:
256,192,12067,1,8,0:0:0:0:
256,192,12257,1,0,0:0:0:0:
256,192,12447,1,8,0:0:0:0:
256,192,12850,1,12,0:0:0:0:
256,192,13650,1,8,0:0:0:0:
256,192,14050,1,0,0:0:0:0:
256,192,14250,1,8,0:0:0:0:
256,192,14450,1,0,0:0:0:0:
256,192,14842,1,0,0:0:0:0:
256,192,15234,1,8,0:0:0:0:
256,192,15430,1,0,0:0:0:0:
256,192,15626,1,8,0:0:0:0:
256,192,16018,1,12,0:0:0:0:
256,192,16802,1,8,0:0:0:0:
256,192,17194,1,0,0:0:0:0:
256,192,17390,1,8,0:0:0:0:
256,192,17586,1,0,0:0:0:0:
256,192,17978,1,0,0:0:0:0:
256,192,18175,1,8,0:0:0:0:
256,192,18371,1,8,0:0:0:0:
256,192,18763,1,0,0:0:0:0:
256,192,19155,1,12,0:0:0:0:
256,192,20331,1,4,0:0:0:0:
256,192,21115,1,12,0:0:0:0:
256,192,21507,1,12,0:0:0:0:
256,192,21900,1,4,0:0:0:0:
256,192,22292,1,12,0:0:0:0:
256,192,23076,1,0,0:0:0:0:
256,192,23468,1,0,0:0:0:0:
256,192,23860,1,8,0:0:0:0:
256,192,24240,1,8,0:0:0:0:
256,192,24621,1,0,0:0:0:0:
256,192,24811,1,0,0:0:0:0:
256,192,25002,1,8,0:0:0:0:
256,192,25429,1,12,0:0:0:0:
256,192,26213,1,8,0:0:0:0:
256,192,26605,1,8,0:0:0:0:
256,192,26997,1,0,0:0:0:0:
256,192,27389,1,8,0:0:0:0:
256,192,27781,1,0,0:0:0:0:
256,192,27977,1,0,0:0:0:0:
256,192,28173,1,8,0:0:0:0:
256,192,28565,1,12,0:0:0:0:
256,192,29350,1,8,0:0:0:0:
256,192,29742,1,8,0:0:0:0:
256,192,29938,1,8,0:0:0:0:
256,192,30134,1,0,0:0:0:0:
256,192,30526,1,8,0:0:0:0:
256,192,30918,1,0,0:0:0:0:
256,192,31310,1,8,0:0:0:0:
256,192,31702,1,12,0:0:0:0:
256,192,32094,1,8,0:0:0:0:
256,192,32290,1,0,0:0:0:0:
256,192,32486,1,8,0:0:0:0:
256,192,32879,1,4,0:0:0:0:
256,192,33663,1,12,0:0:0:0:
256,192,34055,1,12,0:0:0:0:
256,192,34447,1,4,0:0:0:0:
256,192,34839,1,12,0:0:0:0:
256,192,35623,1,0,0:0:0:0:
256,192,36015,1,0,0:0:0:0:
256,192,36407,1,8,0:0:0:0:
256,192,36604,1,8,0:0:0:0:
256,192,36800,1,8,0:0:0:0:
256,192,37192,1,0,0:0:0:0:
256,192,37388,1,0,0:0:0:0:
256,192,37584,1,0,0:0:0:0:
256,192,37976,1,4,0:0:0:0:
256,192,38368,1,8,0:0:0:0:
256,192,38760,1,0,0:0:0:0:
256,192,39152,1,8,0:0:0:0:
256,192,39348,1,0,0:0:0:0:
256,192,39544,1,8,0:0:0:0:
256,192,40329,1,8,0:0:0:0:
256,192,40721,1,8,0:0:0:0:
256,192,40917,1,0,0:0:0:0:
256,192,41113,1,0,0:0:0:0:
256,192,41897,1,0,0:0:0:0:
256,192,42289,1,8,0:0:0:0:
256,192,42681,1,8,0:0:0:0:
256,192,43073,1,8,0:0:0:0:
256,192,43269,1,8,0:0:0:0:
256,192,43465,1,0,0:0:0:0:
256,192,43857,1,8,0:0:0:0:
256,192,44250,1,4,0:0:0:0:
256,192,45034,1,8,0:0:0:0:
256,192,45426,1,8,0:0:0:0:
256,192,45818,1,0,0:0:0:0:
256,192,46210,1,8,0:0:0:0:
256,192,46602,1,0,0:0:0:0:
256,192,46798,1,0,0:0:0:0:
256,192,46994,1,8,0:0:0:0:
256,192,47386,1,4,0:0:0:0:
256,192,47779,1,8,0:0:0:0:
256,192,48171,1,0,0:0:0:0:
256,192,48563,1,8,0:0:0:0:
256,192,48759,1,0,0:0:0:0:
256,192,48955,1,8,0:0:0:0:
256,192,49739,1,0,0:0:0:0:
256,192,50131,1,8,0:0:0:0:
256,192,50327,1,0,0:0:0:0:
256,192,50523,1,8,0:0:0:0:
256,192,51307,1,8,0:0:0:0:
256,192,51700,1,8,0:0:0:0:
256,192,51896,1,0,0:0:0:0:
256,192,52092,1,0,0:0:0:0:
256,192,52484,1,8,0:0:0:0:
256,192,52876,1,0,0:0:0:0:
256,192,53072,1,8,0:0:0:0:
256,192,53268,1,8,0:0:0:0:
256,192,53660,1,4,0:0:0:0:
256,192,54052,1,8,0:0:0:0:
256,192,54836,1,8,0:0:0:0:
256,192,55229,1,0,0:0:0:0:
256,192,55621,1,8,0:0:0:0:
256,192,56013,1,0,0:0:0:0:
256,192,56209,1,0,0:0:0:0:
256,192,56405,1,8,0:0:0:0:
256,192,56797,1,4,0:0:0:0:
256,192,57189,1,8,0:0:0:0:
256,192,57581,1,0,0:0:0:0:
256,192,57973,1,8,0:0:0:0:
256,192,58169,1,0,0:0:0:0:
256,192,58365,1,8,0:0:0:0:
256,192,58757,1,8,0:0:0:0:
256,192,59150,1,0,0:0:0:0:
256,192,59542,1,8,0:0:0:0:
256,192,59738,1,0,0:0:0:0:
256,192,59934,1,0,0:0:0:0:
256,192,60718,1,0,0:0:0:0:
256,192,61110,1,8,0:0:0:0:
256,192,61502,1,8,0:0:0:0:
256,192,61894,1,8,0:0:0:0:
256,192,62090,1,8,0:0:0:0:
256,192,62286,1,0,0:0:0:0:
256,192,62679,1,8,0:0:0:0:
256,192,63071,1,4,0:0:0:0:
256,192,63855,1,8,0:0:0:0:
256,192,64247,1,8,0:0:0:0:
256,192,64639,1,0,0:0:0:0:
256,192,65031,1,8,0:0:0:0:
256,192,65423,1,0,0:0:0:0:
256,192,65619,1,0,0:0:0:0:
256,192,65815,1,8,0:0:0:0:
256,192,66207,1,4,0:0:0:0:
256,192,66600,1,8,0:0:0:0:
256,192,66992,1,0,0:0:0:0:
256,192,67384,1,8,0:0:0:0:
256,192,67580,1,0,0:0:0:0:
256,192,67776,1,8,0:0:0:0:
256,192,68168,1,8,0:0:0:0:
256,192,68560,1,0,0:0:0:0:
256,192,68952,1,8,0:0:0:0:
256,192,69148,1,0,0:0:0:0:
256,192,69344,1,8,0:0:0:0:
256,192,70129,1,8,0:0:0:0:
256,192,70521,1,8,0:0:0:0:
256,192,70717,1,0,0:0:0:0:
256,192,70913,1,0,0:0:0:0:
256,192,71305,1,8,0:0:0:0:
256,192,71697,1,0,0:0:0:0:
256,192,71893,1,8,0:0:0:0:
256,192,72089,1,8,0:0:0:0:
256,192,72481,1,4,0:0:0:0:
256,192,72873,1,8,0:0:0:0:
256,192,73069,1,0,0:0:0:0:
256,192,73265,1,8,0:0:0:0:
256,192,73657,1,12,0:0:0:0:
256,192,74442,1,12,0:0:0:0:
256,192,74834,1,12,0:0:0:0:
256,192,75226,1,4,0:0:0:0:
256,192,75618,1,4,0:0:0:0:
256,192,76010,1,8,0:0:0:0:
256,192,76598,1,0,0:0:0:0:
256,192,76794,1,8,0:0:0:0:
256,192,77186,1,0,0:0:0:0:
256,192,77579,1,8,0:0:0:0:
256,192,78363,1,8,0:0:0:0:
256,192,78755,1,0,0:0:0:0:
256,192,79147,1,8,0:0:0:0:
256,192,79735,1,0,0:0:0:0:
256,192,79931,1,8,0:0:0:0:
256,192,80323,1,0,0:0:0:0:
256,192,80715,1,8,0:0:0:0:
256,192,81107,1,0,0:0:0:0:
256,192,81304,1,0,0:0:0:0:
256,192,81500,1,8,0:0:0:0:
256,192,81892,1,4,0:0:0:0:
256,192,82284,1,8,0:0:0:0:
256,192,82872,1,0,0:0:0:0:
256,192,83068,1,8,0:0:0:0:
256,192,83460,1,0,0:0:0:0:
256,192,83852,1,8,0:0:0:0:
256,192,84636,1,8,0:0:0:0:
256,192,85029,1,12,0:0:0:0:
256,192,85421,1,0,0:0:0:0:
256,192,85617,1,12,0:0:0:0:
256,192,86009,1,0,0:0:0:0:
256,192,86205,1,12,0:0:0:0:
256,192,86597,1,12,0:0:0:0:
256,192,88165,1,4,0:0:0:0:
256,192,88558,1,8,0:0:0:0:
256,192,89146,1,0,0:0:0:0:
256,192,89342,1,8,0:0:0:0:
256,192,89734,1,0,0:0:0:0:
256,192,90126,1,8,0:0:0:0:
256,192,90322,1,0,0:0:0:0:
256,192,90910,1,8,0:0:0:0:
256,192,91302,1,4,0:0:0:0:
256,192,91694,1,8,0:0:0:0:
256,192,91890,1,8,0:0:0:0:
256,192,92283,1,0,0:0:0:0:
256,192,92479,1,8,0:0:0:0:
256,192,92871,1,0,0:0:0:0:
256,192,93655,1,0,0:0:0:0:
256,192,93851,1,0,0:0:0:0:
256,192,94047,1,8,0:0:0:0:
256,192,94439,1,4,0:0:0:0:
256,192,94831,1,8,0:0:0:0:
256,192,95027,1,0,0:0:0:0:
256,192,95419,1,0,0:0:0:0:
256,192,95615,1,8,0:0:0:0:
256,192,96008,1,8,0:0:0:0:
256,192,96596,1,0,0:0:0:0:
256,192,97184,1,8,0:0:0:0:
256,192,97576,1,12,0:0:0:0:
256,192,98164,1,0,0:0:0:0:
256,192,98752,1,8,0:0:0:0:
256,192,99144,1,12,0:0:0:0:
256,192,99536,1,8,0:0:0:0:
256,192,99929,1,0,0:0:0:0:
256,192,100125,1,0,0:0:0:0:
256,192,100321,1,0,0:0:0:0:
256,192,100713,1,4,0:0:0:0:
256,192,101105,1,8,0:0:0:0:
256,192,101693,1,0,0:0:0:0:
256,192,101889,1,8,0:0:0:0:
256,192,102281,1,0,0:0:0:0:
256,192,102673,1,8,0:0:0:0:
256,192,102869,1,0,0:0:0:0:
256,192,103458,1,8,0:0:0:0:
256,192,103850,1,4,0:0:0:0:
256,192,104242,1,8,0:0:0:0:
256,192,104438,1,8,0:0:0:0:
256,192,104830,1,0,0:0:0:0:
256,192,105026,1,8,0:0:0:0:
256,192,105418,1,0,0:0:0:0:
256,192,106202,1,0,0:0:0:0:
256,192,106398,1,0,0:0:0:0:
256,192,106594,1,8,0:0:0:0:
256,192,106986,1,4,0:0:0:0:
256,192,107379,1,8,0:0:0:0:
256,192,107575,1,0,0:0:0:0:
256,192,107967,1,0,0:0:0:0:
256,192,108163,1,8,0:0:0:0:
256,192,108555,1,8,0:0:0:0:
256,192,109143,1,0,0:0:0:0:
256,192,109731,1,8,0:0:0:0:
256,192,110123,1,12,0:0:0:0:
256,192,110711,1,0,0:0:0:0:
256,192,111300,1,8,0:0:0:0:
256,192,111692,1,0,0:0:0:0:
256,192,112084,1,0,0:0:0:0:
256,192,112476,1,8,0:0:0:0:
256,192,112672,1,8,0:0:0:0:
256,192,112868,1,8,0:0:0:0:
256,192,113260,1,12,0:0:0:0:
256,192,114044,1,8,0:0:0:0:
256,192,114436,1,8,0:0:0:0:
256,192,114829,1,0,0:0:0:0:
256,192,115221,1,8,0:0:0:0:
256,192,115613,1,0,0:0:0:0:
256,192,115809,1,0,0:0:0:0:
256,192,116005,1,8,0:0:0:0:
256,192,116397,1,12,0:0:0:0:
256,192,117181,1,8,0:0:0:0:
256,192,117573,1,8,0:0:0:0:
256,192,117769,1,8,0:0:0:0:
256,192,117965,1,0,0:0:0:0:
256,192,118358,1,8,0:0:0:0:
256,192,118750,1,0,0:0:0:0:
256,192,119142,1,8,0:0:0:0:
256,192,119534,1,12,0:0:0:0:
256,192,119926,1,8,0:0:0:0:
256,192,120122,1,0,0:0:0:0:
256,192,120318,1,8,0:0:0:0:
256,192,120710,1,12,0:0:0:0:
256,192,121494,1,12,0:0:0:0:
256,192,121886,1,12,0:0:0:0:
256,192,122279,1,4,0:0:0:0:
256,192,122671,1,12,0:0:0:0:
256,192,123455,1,0,0:0:0:0:
256,192,123847,1,0,0:0:0:0:
256,192,124239,1,8,0:0:0:0:
256,192,124435,1,8,0:0:0:0:
256,192,124631,1,8,0:0:0:0:
256,192,125023,1,0,0:0:0:0:
256,192,125219,1,0,0:0:0:0:
256,192,125415,1,0,0:0:0:0:
256,192,125808,1,4,0:0:0:0:
256,192,126200,1,8,0:0:0:0:
256,192,126592,1,0,0:0:0:0:
256,192,126984,1,8,0:0:0:0:
256,192,127180,1,0,0:0:0:0:
256,192,127376,1,8,0:0:0:0:
256,192,127768,1,8,0:0:0:0:
256,192,128160,1,0,0:0:0:0:
256,192,128552,1,8,0:0:0:0:
256,192,128748,1,0,0:0:0:0:
256,192,128944,1,0,0:0:0:0:
256,192,129729,1,0,0:0:0:0:
256,192,130121,1,8,0:0:0:0:
256,192,130513,1,8,0:0:0:0:
256,192,130905,1,8,0:0:0:0:
256,192,131101,1,8,0:0:0:0:
256,192,131297,1,0,0:0:0:0:
256,192,131689,1,8,0:0:0:0:
256,192,132081,1,4,0:0:0:0:
256,192,132865,1,8,0:0:0:0:
256,192,133258,1,8,0:0:0:0:
256,192,133650,1,0,0:0:0:0:
256,192,134042,1,8,0:0:0:0:
256,192,134434,1,0,0:0:0:0:
256,192,134630,1,0,0:0:0:0:
256,192,134826,1,8,0:0:0:0:
256,192,135218,1,4,0:0:0:0:
256,192,135610,1,8,0:0:0:0:
256,192,136002,1,0,0:0:0:0:
256,192,136394,1,8,0:0:0:0:
256,192,136590,1,0,0:0:0:0:
256,192,136786,1,8,0:0:0:0:
256,192,137179,1,8,0:0:0:0:
256,192,137571,1,0,0:0:0:0:
256,192,137963,1,8,0:0:0:0:
256,192,138159,1,0,0:0:0:0:
256,192,138355,1,8,0:0:0:0:
256,192,139139,1,8,0:0:0:0:
256,192,139531,1,8,0:0:0:0:
256,192,139727,1,0,0:0:0:0:
256,192,139923,1,0,0:0:0:0:
256,192,140315,1,8,0:0:0:0:
256,192,140708,1,0,0:0:0:0:
256,192,140904,1,8,0:0:0:0:
256,192,141100,1,8,0:0:0:0:
256,192,141492,1,4,0:0:0:0:
256,192,141884,1,8,0:0:0:0:
256,192,142080,1,0,0:0:0:0:
256,192,142276,1,8,0:0:0:0:
256,192,142668,1,12,0:0:0:0:
256,192,143452,1,12,0:0:0:0:
256,192,143844,1,12,0:0:0:0:
256,192,144236,1,4,0:0:0:0:
256,192,144629,1,4,0:0:0:0:
256,192,145021,1,8,0:0:0:0:
256,192,145609,1,0,0:0:0:0:
256,192,145805,1,8,0:0:0:0:
256,192,146197,1,0,0:0:0:0:
256,192,146589,1,8,0:0:0:0:
256,192,147373,1,8,0:0:0:0:
256,192,147765,1,4,0:0:0:0:
256,192,148158,1,8,0:0:0:0:
256,192,148746,1,0,0:0:0:0:
256,192,148942,1,8,0:0:0:0:
256,192,149334,1,0,0:0:0:0:
256,192,149726,1,8,0:0:0:0:
256,192,150118,1,0,0:0:0:0:
256,192,150314,1,0,0:0:0:0:
256,192,150510,1,8,0:0:0:0:
256,192,150902,1,4,0:0:0:0:
256,192,151294,1,8,0:0:0:0:
256,192,151883,1,0,0:0:0:0:
256,192,152079,1,8,0:0:0:0:
256,192,152471,1,0,0:0:0:0:
256,192,152863,1,8,0:0:0:0:
256,192,153647,1,8,0:0:0:0:
256,192,154039,1,12,0:0:0:0:
256,192,154431,1,0,0:0:0:0:
256,192,154627,1,12,0:0:0:0:
256,192,155019,1,0,0:0:0:0:
256,192,155215,1,12,0:0:0:0:
256,192,155608,1,12,0:0:0:0:
256,192,156000,1,8,0:0:0:0:
256,192,156392,1,0,0:0:0:0:
256,192,156588,1,0,0:0:0:0:
256,192,156784,1,0,0:0:0:0:
256,192,157176,1,4,0:0:0:0:
256,192,157568,1,8,0:0:0:0:
256,192,158156,1,0,0:0:0:0:
256,192,158352,1,8,0:0:0:0:
256,192,158744,1,0,0:0:0:0:
256,192,159137,1,8,0:0:0:0:
256,192,159333,1,0,0:0:0:0:
256,192,159921,1,8,0:0:0:0:
256,192,160313,1,4,0:0:0:0:
256,192,160705,1,8,0:0:0:0:
256,192,160901,1,8,0:0:0:0:
256,192,161293,1,0,0:0:0:0:
256,192,161489,1,8,0:0:0:0:
256,192,161881,1,0,0:0:0:0:
256,192,162665,1,0,0:0:0:0:
256,192,162862,1,0,0:0:0:0:
256,192,163058,1,8,0:0:0:0:
256,192,163450,1,4,0:0:0:0:
256,192,163842,1,8,0:0:0:0:
256,192,164038,1,0,0:0:0:0:
256,192,164430,1,0,0:0:0:0:
256,192,164626,1,8,0:0:0:0:
256,192,165018,1,8,0:0:0:0:
256,192,165606,1,0,0:0:0:0:
256,192,166194,1,8,0:0:0:0:
256,192,166587,1,12,0:0:0:0:
256,192,167175,1,0,0:0:0:0:
256,192,167763,1,8,0:0:0:0:
256,192,168155,1,8,0:0:0:0:
256,192,168351,1,8,0:0:0:0:
256,192,168547,1,8,0:0:0:0:
256,192,168939,1,0,0:0:0:0:
256,192,169135,1,0,0:0:0:0:
256,192,169331,1,0,0:0:0:0:
256,192,169723,1,4,0:0:0:0:
256,192,170115,1,8,0:0:0:0:
256,192,170704,1,0,0:0:0:0:
256,192,170900,1,8,0:0:0:0:
256,192,171292,1,0,0:0:0:0:
256,192,171684,1,8,0:0:0:0:
256,192,171880,1,0,0:0:0:0:
256,192,172468,1,8,0:0:0:0:
256,192,172860,1,4,0:0:0:0:
256,192,173252,1,8,0:0:0:0:
256,192,173448,1,8,0:0:0:0:
256,192,173840,1,0,0:0:0:0:
256,192,174037,1,8,0:0:0:0:
256,192,174429,1,0,0:0:0:0:
256,192,175213,1,0,0:0:0:0:
256,192,175409,1,0,0:0:0:0:
256,192,175605,1,8,0:0:0:0:
256,192,175997,1,4,0:0:0:0:
256,192,176389,1,8,0:0:0:0:
256,192,176585,1,0,0:0:0:0:
256,192,176977,1,0,0:0:0:0:
256,192,177173,1,8,0:0:0:0:
256,192,177565,1,8,0:0:0:0:
256,192,178154,1,0,0:0:0:0:
256,192,178742,1,8,0:0:0:0:
256,192,179134,1,12,0:0:0:0:
256,192,179722,1,0,0:0:0:0:
256,192,180310,1,8,0:0:0:0:
256,192,180702,1,0,0:0:0:0:
256,192,180898,1,0,0:0:0:0:
256,192,181094,1,0,0:0:0:0:
256,192,181487,1,8,0:0:0:0:
256,192,181683,1,8,0:0:0:0:
256,192,181879,1,8,0:0:0:0:
256,192,182271,1,8,0:0:0:0:
256,192,182859,1,4,0:0:0:0:
256,192,183447,1,8,0:0:0:0:
256,192,184231,1,8,0:0:0:0:
256,192,184623,1,8,0:0:0:0:
256,192,184819,1,0,0:0:0:0:
256,192,185015,1,12,0:0:0:0:
256,192,185408,1,8,0:0:0:0:
256,192,185996,1,4,0:0:0:0:
256,192,186584,1,8,0:0:0:0:
256,192,186976,1,0,0:0:0:0:
256,192,187368,1,8,0:0:0:0:
256,192,187564,1,8,0:0:0:0:
256,192,187760,1,0,0:0:0:0:
256,192,188152,1,8,0:0:0:0:
256,192,188544,1,8,0:0:0:0:
256,192,189133,1,4,0:0:0:0:
256,192,189721,1,8,0:0:0:0:
256,192,190113,1,0,0:0:0:0:
256,192,190505,1,8,0:0:0:0:
256,192,190897,1,0,0:0:0:0:
256,192,191093,1,0,0:0:0:0:
256,192,191289,1,0,0:0:0:0:
256,192,191681,1,8,0:0:0:0:
256,192,192465,1,12,0:0:0:0:
256,192,193054,1,8,0:0:0:0:
256,192,193250,1,0,0:0:0:0:
256,192,193642,1,8,0:0:0:0:
256,192,194034,1,0,0:0:0:0:
256,192,194230,1,0,0:0:0:0:
256,192,194426,1,8,0:0:0:0:
256,192,194818,1,4,0:0:0:0:
256,192,195602,1,0,0:0:0:0:
256,192,195994,1,8,0:0:0:0:
256,192,196190,1,0,0:0:0:0:
256,192,196387,1,8,0:0:0:0:
256,192,196779,1,8,0:0:0:0:
256,192,197171,1,0,0:0:0:0:
256,192,197955,1,0,0:0:0:0:
256,192,198347,1,8,0:0:0:0:
256,192,198543,1,0,0:0:0:0:
256,192,198935,1,0,0:0:0:0:
256,192,199131,1,8,0:0:0:0:
256,192,199523,1,0,0:0:0:0:
256,192,199915,1,8,0:0:0:0:
256,192,200308,1,0,0:0:0:0:
256,192,200504,1,0,0:0:0:0:
256,192,200700,1,12,0:0:0:0:
256,192,201092,1,4,0:0:0:0:
256,192,201876,1,0,0:0:0:0:
256,192,202268,1,8,0:0:0:0:
256,192,202464,1,0,0:0:0:0:
256,192,202660,1,8,0:0:0:0:
256,192,203052,1,8,0:0:0:0:
256,192,203444,1,0,0:0:0:0:
256,192,204229,1,0,0:0:0:0:
256,192,204621,1,8,0:0:0:0:
256,192,204817,1,0,0:0:0:0:
256,192,205209,1,0,0:0:0:0:
256,192,205405,1,8,0:0:0:0:
256,192,205797,1,0,0:0:0:0:
256,192,205993,1,0,0:0:0:0:
256,192,206189,1,8,0:0:0:0:
256,192,206581,1,0,0:0:0:0:
256,192,206973,1,8,0:0:0:0:
256,192,207169,1,8,0:0:0:0:
256,192,207366,1,4,0:0:0:0:
256,192,207758,1,8,0:0:0:0:
256,192,208150,1,0,0:0:0:0:
256,192,208542,1,8,0:0:0:0:
256,192,208738,1,0,0:0:0:0:
256,192,208934,1,8,0:0:0:0:
256,192,209326,1,8,0:0:0:0:
256,192,209718,1,0,0:0:0:0:
256,192,210502,1,8,0:0:0:0:
256,192,210894,1,0,0:0:0:0:
256,192,211091,1,0,0:0:0:0:
256,192,211287,1,8,0:0:0:0:
256,192,211679,1,0,0:0:0:0:
256,192,212071,1,8,0:0:0:0:
256,192,212463,1,8,0:0:0:0:
256,192,212659,1,0,0:0:0:0:
256,192,212855,1,8,0:0:0:0:
256,192,213247,1,12,0:0:0:0:
256,192,213639,1,4,0:0:0:0:
256,192,214031,1,8,0:0:0:0:
256,192,214423,1,0,0:0:0:0:
256,192,214816,1,8,0:0:0:0:
256,192,215012,1,0,0:0:0:0:
256,192,215208,1,8,0:0:0:0:
256,192,215600,1,8,0:0:0:0:
256,192,215992,1,0,0:0:0:0:
256,192,216776,1,8,0:0:0:0:
256,192,217168,1,0,0:0:0:0:
256,192,217364,1,0,0:0:0:0:
256,192,217560,1,8,0:0:0:0:
256,192,217952,1,0,0:0:0:0:
256,192,218344,1,8,0:0:0:0:
256,192,218737,1,8,0:0:0:0:
256,192,218933,1,8,0:0:0:0:
256,192,219129,1,0,0:0:0:0:
256,192,219913,1,4,0:0:0:0:
256,192,220305,1,8,0:0:0:0:
256,192,220501,1,8,0:0:0:0:
256,192,221089,1,8,0:0:0:0:
256,192,221285,1,8,0:0:0:0:
256,192,221481,1,0,0:0:0:0:
256,192,221873,1,8,0:0:0:0:
256,192,222069,1,0,0:0:0:0:
256,192,222658,1,8,0:0:0:0:
256,192,223050,1,0,0:0:0:0:
256,192,223442,1,8,0:0:0:0:
256,192,223638,1,8,0:0:0:0:
256,192,224030,1,0,0:0:0:0:
256,192,224226,1,8,0:0:0:0:
256,192,224618,1,0,0:0:0:0:
256,192,225010,1,8,0:0:0:0:
256,192,225402,1,0,0:0:0:0:
256,192,225598,1,0,0:0:0:0:
256,192,225794,1,12,0:0:0:0:
256,192,226187,1,4,0:0:0:0:
256,192,226579,1,8,0:0:0:0:
256,192,226775,1,8,0:0:0:0:
256,192,227363,1,8,0:0:0:0:
256,192,227559,1,8,0:0:0:0:
256,192,227755,1,0,0:0:0:0:
256,192,228147,1,8,0:0:0:0:
256,192,228343,1,0,0:0:0:0:
256,192,228931,1,8,0:0:0:0:
256,192,229323,1,0,0:0:0:0:
256,192,229716,1,8,0:0:0:0:
256,192,229912,1,8,0:0:0:0:
256,192,230304,1,0,0:0:0:0:
256,192,230500,1,8,0:0:0:0:
256,192,230892,1,0,0:0:0:0:
256,192,231284,1,8,0:0:0:0:
256,192,231676,1,0,0:0:0:0:
256,192,231872,1,0,0:0:0:0:
256,192,232068,1,12,0:0:0:0:
256,192,232460,1,8,0:0:0:0:
256,192,233048,1,4,0:0:0:0:
256,192,233637,1,8,0:0:0:0:
256,192,234421,1,8,0:0:0:0:
256,192,234813,1,0,0:0:0:0:
256,192,235009,1,8,0:0:0:0:
256,192,235205,1,8,0:0:0:0:
256,192,235597,1,4,0:0:0:0:
256,192,246953,5,12,0:0:0:0:
256,192,247753,1,12,0:0:0:0:
256,192,248153,1,4,0:0:0:0:
256,192,248561,1,8,0:0:0:0:
256,192,248753,1,8,0:0:0:0:
256,192,249137,1,0,0:0:0:0:
256,192,249329,1,8,0:0:0:0:
256,192,249721,1,8,0:0:0:0:
256,192,250112,1,8,0:0:0:0:
256,192,250308,1,0,0:0:0:0:
256,192,250896,1,8,0:0:0:0:
256,192,251288,1,0,0:0:0:0:
256,192,251680,1,8,0:0:0:0:
256,192,251876,1,8,0:0:0:0:
256,192,252268,1,0,0:0:0:0:
256,192,252464,1,8,0:0:0:0:
256,192,252856,1,0,0:0:0:0:
256,192,253640,1,0,0:0:0:0:
256,192,253835,1,0,0:0:0:0:
256,192,254031,1,8,0:0:0:0:
256,192,254423,1,4,0:0:0:0:
256,192,254815,1,8,0:0:0:0:
256,192,255011,1,8,0:0:0:0:
256,192,255403,1,0,0:0:0:0:
256,192,255599,1,8,0:0:0:0:
256,192,255991,1,8,0:0:0:0:
256,192,256383,1,8,0:0:0:0:
256,192,256579,1,0,0:0:0:0:
256,192,257167,1,8,0:0:0:0:
256,192,257559,1,12,0:0:0:0:
256,192,258146,1,0,0:0:0:0:
256,192,258734,1,8,0:0:0:0:
256,192,259126,1,8,0:0:0:0:
256,192,259322,1,8,0:0:0:0:
256,192,259518,1,8,0:0:0:0:
256,192,259910,1,0,0:0:0:0:
256,192,260302,1,12,0:0:0:0:
256,192,260694,1,4,0:0:0:0:
256,192,261086,1,8,0:0:0:0:
256,192,261282,1,8,0:0:0:0:
256,192,261673,1,0,0:0:0:0:
256,192,261869,1,8,0:0:0:0:
256,192,262261,1,8,0:0:0:0:
256,192,262653,1,8,0:0:0:0:
256,192,262849,1,0,0:0:0:0:
256,192,263437,1,8,0:0:0:0:
256,192,263829,1,0,0:0:0:0:
256,192,264221,1,8,0:0:0:0:
256,192,264417,1,8,0:0:0:0:
256,192,264809,1,0,0:0:0:0:
256,192,265005,1,8,0:0:0:0:
256,192,265397,1,0,0:0:0:0:
256,192,266180,1,0,0:0:0:0:
256,192,266376,1,0,0:0:0:0:
256,192,266572,1,8,0:0:0:0:
256,192,266964,1,4,0:0:0:0:
256,192,267356,1,8,0:0:0:0:
256,192,267552,1,8,0:0:0:0:
256,192,267944,1,0,0:0:0:0:
256,192,268140,1,8,0:0:0:0:
256,192,268532,1,8,0:0:0:0:
256,192,268924,1,8,0:0:0:0:
256,192,269120,1,0,0:0:0:0:
256,192,269707,1,8,0:0:0:0:
256,192,270099,1,12,0:0:0:0:
256,192,270687,1,0,0:0:0:0:
256,192,271275,1,8,0:0:0:0:
256,192,271471,1,0,0:0:0:0:
256,192,271667,1,12,0:0:0:0:
256,192,272059,1,12,0:0:0:0:
256,192,272451,1,12,0:0:0:0:
256,192,272843,1,12,0:0:0:0:
256,192,273235,1,12,0:0:0:0:
256,192,274018,1,8,0:0:0:0:
256,192,274410,1,8,0:0:0:0:
256,192,274802,1,0,0:0:0:0:
256,192,275194,1,8,0:0:0:0:
256,192,275390,1,8,0:0:0:0:
256,192,275586,1,8,0:0:0:0:
256,192,275978,1,0,0:0:0:0:
256,192,276370,1,12,0:0:0:0:
256,192,276762,1,12,0:0:0:0:
256,192,277545,1,4,0:0:0:0:
256,192,278329,1,12,0:0:0:0:
256,192,278721,1,12,0:0:0:0:
256,192,279113,1,4,0:0:0:0:
256,192,279505,1,12,0:0:0:0:
256,192,279701,1,12,0:0:0:0:
