osu file format v6

[General]
AudioFilename: Nightwish - Planet Hell.mp3
AudioLeadIn: 0
PreviewTime: -1
Countdown: 1
SampleSet: None
StackLeniency: 0.7
Mode: 0
LetterboxInBreaks: 1

[Editor]
DistanceSpacing: 0.800000011920929
BeatDivisor: 6
GridSize: 32

[Metadata]
Title:Planet Hell
Artist:Nightwish
Creator:lantay77
Version:Normal
Source:
Tags:

[Difficulty]
HPDrainRate:5
CircleSize:5
OverallDifficulty:5
SliderMultiplier:1.4
SliderTickRate:1

[Events]
//Background and Video events
0,0,"nightwish-1024.jpg"
//Break Periods
2,56306,70794
2,98078,108183
2,192306,198576
2,209152,225009
2,258456,262741
//Storyboard Layer 0 (Background)
//Storyboard Layer 1 (Fail)
//Storyboard Layer 2 (Pass)
//Storyboard Layer 3 (Foreground)
//Storyboard Sound Samples
//Background Colour Transformations
3,100,163,162,255

[TimingPoints]
91.1610011928438,410.874477847018,4,0,0,100,1,0

[HitObjects]
256,192,9952,1,0
256,128,10363,1,0
256,64,10773,1,0
320,64,11184,1,0
384,64,11595,1,0
384,128,12006,1,0
384,192,12417,1,0
320,192,12828,1,0
256,192,13239,1,0
192,192,13650,1,0
128,192,14060,1,0
128,128,14471,1,0
128,64,14882,1,0
192,64,15293,1,0
256,64,15704,1,0
256,128,16115,1,0
256,192,16526,1,0
320,192,16937,6,0,B|384:128|384:64|384:64|224:64,1,280
160,64,18169,1,0
160,160,18580,2,0,B|256:160|320:160|320:160|320:32,1,280
320,160,19813,1,0
256,160,20224,1,0
192,160,20634,1,0
128,160,21045,1,0
128,96,21456,2,0,B|288:96|288:96|288:224|288:224|128:224|128:224,1,560
258,145,23511,1,0
302,145,23921,1,0
345,146,24332,1,0
389,146,24743,1,0
345,146,25154,1,0
318,146,25565,1,0
345,146,25976,1,0
385,147,26387,1,0
345,146,26798,1,0
310,146,27208,1,0
346,187,27619,1,0
127,193,28030,6,0,B|201:62|201:62|341:61|341:61|361:205|358:203|360:201|363:200|363:200|236:314,1,560
150,163,30084,1,0
401,121,30495,1,0
271,243,30906,1,0
237,139,31317,1,0
73,131,31728,1,0
121,249,32139,1,0
306,126,32550,1,0
254,282,32961,1,0
477,196,33371,1,0
150,87,33782,1,0
314,54,34193,1,0
164,180,34604,1,0
85,232,35015,6,0,B|115:238|133:240|167:234|204:227|234:208|234:210,1,140
385,53,35837,2,0,B|366:60|342:47|347:92|281:88|258:122|342:176|371:210|332:211,1,140
119,81,36658,1,0
253,213,37069,1,0
104,270,37480,1,0
297,143,37891,1,0
298,67,38302,1,0
213,67,38713,1,0
191,140,39124,1,0
367,225,39535,1,0
390,101,39945,1,0
95,20,40356,1,0
39,182,40767,1,0
256,192,41178,12,0,42822
123,68,43027,5,0
355,89,43232,1,0
264,160,43643,1,0
165,220,44054,1,0
336,235,44465,1,0
441,138,44876,1,0
187,51,45287,1,0
54,134,45698,1,0
176,154,46109,1,0
248,154,46519,1,0
305,151,46930,1,0
369,67,47341,2,0,B|204:69|206:70|206:70|116:181|116:181|276:237|276:237|356:146|356:146|384:158,1,560
256,192,49396,5,0
256,64,49806,1,0
128,192,50217,1,0
256,192,50628,1,0
384,192,51039,1,0
256,320,51450,1,0
256,192,51861,1,0
256,64,52272,1,0
128,192,52683,1,0
256,192,53093,1,0
256,192,53847,1,0
224,64,54326,2,0,B|384:64|384:64,1,280
256,192,55559,2,0,B|96:192,1,186.666666666667
256,192,71994,5,0
256,96,72336,1,0
160,64,72747,1,0
96,96,73637,1,0
96,192,73980,1,0
256,160,74390,1,0
352,64,75281,1,0
352,128,75623,1,0
352,192,76034,1,0
192,160,76445,1,0
192,64,76924,1,0
288,64,77335,1,0
288,160,77677,1,0
384,128,78636,5,0
384,160,78979,1,0
384,224,79389,1,0
224,128,80143,1,0
224,192,80554,1,0
224,224,80964,1,0
288,128,81786,1,0
288,192,82197,1,0
288,224,82608,1,0
384,192,83087,2,0,B|384:32|384:32|256:32|256:32|256:192,1,466.666666666667
96,160,85210,1,0
160,160,85553,1,0
320,160,85963,1,0
96,256,86785,1,0
192,256,87128,1,0
352,256,87538,1,0
64,96,88360,1,0
192,96,88771,1,0
320,96,89113,1,0
256,192,89456,12,0,90483
256,192,90894,5,0
256,192,91716,1,0
256,192,92127,1,0
256,192,92537,1,0
256,192,92948,1,0
256,192,93359,1,0
256,192,93770,1,0
256,192,94181,1,0
256,192,95071,1,0
256,192,95414,1,0
256,192,95756,1,0
256,192,96235,2,0,B|256:32|256:32|384:32|384:32,1,280
376,32,97057,2,0,B|378:190|379:190|379:190|255:190,1,280
80,82,109383,6,0,B|205:82,1,116.666666666667
77,168,110137,2,0,B|202:170|202:170|206:171,1,116.666666666667
74,248,110958,2,0,B|199:250|199:250|203:251,1,116.666666666667
326,66,112876,2,0,B|326:186|324:187,1,116.666666666667
401,65,113560,2,0,B|401:185|399:186,1,116.666666666667
256,63,114382,2,0,B|256:183|254:184,1,116.666666666667
332,223,115136,1,0
428,280,115957,2,0,B|281:280|282:279,1,140
429,350,116779,2,0,B|282:350|283:349,1,140
427,212,117532,2,0,B|280:212|281:211,1,140
256,341,119244,6,0,B|257:173|257:173|258:173,1,163.333333333333
256,341,120066,6,0,B|257:173|257:173|258:173,1,163.333333333333
256,341,120888,6,0,B|253:6|255:6,1,326.666666666667
256,12,122531,2,0,B|256:369|260:369,1,350
256,96,124586,1,0
256,192,124928,1,0
256,192,125339,1,0
256,192,126161,1,0
256,192,126572,1,0
256,192,126982,1,0
256,192,127873,1,0
256,192,128283,1,0
256,192,128626,1,0
256,96,129037,1,0
160,192,129516,1,0
256,288,129859,1,0
352,224,130269,1,0
352,96,131160,1,0
192,96,131502,1,0
96,96,131913,1,0
96,224,132803,1,0
192,224,133146,1,0
320,224,133556,1,0
256,96,134447,1,0
256,192,134857,1,0
224,288,135200,1,0
384,256,135611,1,0
384,128,136090,1,0
128,128,136501,1,0
160,224,136912,1,0
288,160,137734,1,0
192,160,138144,1,0
96,160,138555,1,0
192,32,139377,1,0
192,128,139720,1,0
192,224,140130,1,0
352,64,140952,1,0
352,160,141363,1,0
352,224,141774,1,0
64,160,142185,1,0
192,160,142596,1,0
320,160,143007,1,0
480,160,143486,1,0
224,320,144239,1,0
224,160,144718,1,0
224,32,145129,1,0
384,128,145951,1,0
192,128,146362,1,0
32,128,146773,1,0
32,288,147526,1,0
128,288,147937,1,0
288,288,148348,1,0
448,256,148759,1,0
416,160,149238,1,0
192,128,149580,1,0
128,256,149991,1,0
256,192,152046,12,0,158825
256,192,159168,5,0
256,128,159578,1,0
352,96,159921,1,0
256,64,160674,1,0
256,160,161085,1,0
224,256,161633,1,0
160,160,162386,1,0
256,160,162797,1,0
384,160,163139,1,0
256,288,163619,2,0,B|224:128|96:96|96:96|96:256|96:256|128:256,1,443.333333333333
256,192,165262,12,0,171836
256,192,172247,5,0
256,128,172658,1,0
256,64,173069,1,0
256,192,173891,1,0
256,256,174301,1,0
256,320,174644,1,0
64,192,175123,2,0,B|224:192|224:192|224:64,1,280
416,64,176767,2,0,B|416:288|416:288|160:288|160:288|192:288,1,490
160,224,178410,2,0,B|192:160|320:64,1,210
192,192,179917,1,0
192,192,180054,1,0
384,192,181492,1,0
384,192,181697,1,0
192,96,183135,1,0
192,96,183341,1,0
416,64,184162,2,0,B|384:128|288:160,1,233.333333333333
160,160,184984,1,0
224,96,186491,1,0
224,96,186628,1,0
352,224,188066,1,0
352,224,188203,1,0
160,224,189709,1,0
160,224,189846,1,0
256,192,190120,12,0,192106
96,128,199776,5,0
192,128,200187,1,0
288,128,200529,1,0
96,224,201419,1,0
480,224,203063,1,0
288,64,203884,1,0
128,64,204090,2,0,B|224:256|288:256,1,256.666666666667
256,192,207993,12,0,208267
256,192,208815,12,0,208952
256,192,226209,12,0,226414
256,192,226688,12,0,227030
256,192,227373,12,0,227510
160,128,229359,5,0
160,224,229769,1,0
160,320,230180,1,0
160,352,230591,1,0
256,64,232646,1,0
256,160,233262,1,0
256,224,233467,1,0
352,160,233878,1,0
160,128,234289,1,0
96,128,234700,1,0
96,192,235111,1,0
224,192,235453,1,0
256,64,235933,1,0
256,128,236480,1,0
256,192,236754,1,0
352,160,237165,1,0
192,128,237576,1,0
128,160,237987,1,0
192,256,238398,1,0
256,160,238809,1,0
192,64,239699,1,0
192,128,240041,1,0
192,160,240452,1,0
320,64,241274,1,0
320,96,241616,1,0
320,160,242027,1,0
160,192,242507,5,0
256,64,242917,5,0
256,96,243328,1,0
256,160,243739,1,0
320,192,244150,1,0
352,64,244561,1,0
448,64,244972,1,0
416,160,245383,1,0
256,192,245794,12,0,252436
256,64,252778,5,0
224,96,253189,1,0
224,160,253600,1,0
352,32,254422,1,0
384,64,254833,1,0
384,128,255175,1,0
192,64,255655,6,0,B,1,93.3333333333333
256,64,256134,2,0,B,1,93.3333333333333
64,256,256887,2,0,B,1,46.6666666666667
416,224,257298,2,0,B|352:224,1,46.6666666666667
256,32,257709,2,0,B|256:96,1,46.6666666666667
256,288,258120,2,0,B|256:224,1,46.6666666666667
256,192,263941,12,0,264214
256,192,264488,12,0,264831
256,192,267433,12,0,267844
256,192,268049,12,0,268529
256,192,270652,12,0,271062
256,192,271268,12,0,271679
