osu file format v13

[General]
AudioFilename: Planet Hell.mp3
AudioLeadIn: 0
PreviewTime: 28063
Countdown: 0
SampleSet: Normal
StackLeniency: 0.7
Mode: 0
LetterboxInBreaks: 0
WidescreenStoryboard: 0

[Editor]
Bookmarks: 1762,8337,14912,28063,34638,41214,54364,67515,80666,86830,93816,95460,108597,121747,134898
DistanceSpacing: 0.8
BeatDivisor: 4
GridSize: 4
TimelineZoom: 1.4

[Metadata]
Title:Planet Hell
TitleUnicode:Planet Hell
Artist:Nightwish
ArtistUnicode:Nightwish
Creator:Sieg
Version:Insane
Source:
Tags:once instrumental symphonic rock alexabm -bakari- hanjamon
BeatmapID:405955
BeatmapSetID:167077

[Difficulty]
HPDrainRate:6.5
CircleSize:4.3
OverallDifficulty:7.3
ApproachRate:8.3
SliderMultiplier:2
SliderTickRate:2

[Events]
//Background and Video events
0,0,"bg1.jpg",0,0
//Break Periods
//Storyboard Layer 0 (Background)
//Storyboard Layer 1 (Fail)
//Storyboard Layer 2 (Pass)
//Storyboard Layer 3 (Foreground)
//Storyboard Sound Samples
//Background Colour Transformations
3,100,163,162,255

[TimingPoints]
1762,410.958904109589,4,1,1,70,1,0
1967,-100,4,1,1,50,0,0
28063,-100,4,1,1,50,0,1
41214,-100,4,1,1,50,0,0
67515,-100,4,1,1,50,0,1
67618,-100,4,1,1,50,0,0
80666,-100,4,1,1,50,0,1
93816,-100,4,1,1,50,0,0
95460,-100,4,1,1,50,0,1
95563,-100,4,1,1,50,0,0
108597,410.958904109589,4,1,1,50,1,0
121747,-100,4,1,1,40,0,0
125035,-100,4,1,1,50,0,0
135001,-100,4,1,1,20,0,0

[Colours]
Combo1 : 178,190,181
Combo2 : 138,51,36
Combo3 : 204,85,0
SliderBorder : 55,55,55

[HitObjects]
42,65,1762,5,6,0:0:0:0:
84,178,1967,1,0,0:0:0:0:
79,217,2069,1,0,0:0:0:0:
74,257,2172,1,10,0:0:0:0:
197,252,2378,1,0,0:0:0:0:
192,291,2480,1,0,0:0:0:0:
187,331,2583,1,2,0:0:0:0:
304,112,2789,1,0,0:0:0:0:
320,306,2994,1,10,0:0:0:0:
233,138,3200,1,4,0:0:0:0:
363,249,3405,5,6,0:0:0:0:
394,270,3507,1,0,0:0:0:0:
432,281,3610,1,0,0:0:0:0:
471,280,3713,1,0,0:0:0:0:
508,267,3815,1,10,0:0:0:0:
455,114,4022,2,0,L|470:60,2,50,0|0|2,0:0|0:0|0:0,0:0:0:0:
362,342,4433,1,0,0:0:0:0:
256,204,4638,1,10,0:0:0:0:
150,342,4844,1,4,0:0:0:0:
25,262,5049,5,6,0:0:0:0:
63,276,5151,1,0,0:0:0:0:
101,277,5254,1,0,0:0:0:0:
140,266,5357,1,0,0:0:0:0:
172,244,5459,1,10,0:0:0:0:
72,112,5666,2,0,L|57:58,2,50,0|0|2,0:0|0:0|0:0,0:0:0:0:
150,342,6077,1,0,0:0:0:0:
241,223,6282,1,10,0:0:0:0:
204,77,6488,1,4,0:0:0:0:
396,117,6693,6,0,P|444:129|486:156,1,100,14|0,0:0|0:0,0:0:0:0:
177,178,7104,2,0,P|127:176|79:189,1,100,14|0,0:0|0:0,0:0:0:0:
324,347,7515,2,0,P|371:330|420:328,1,100,14|0,0:0|0:0,0:0:0:0:
272,127,7926,2,0,P|288:79|290:30,1,100,14|0,0:0|0:0,0:0:0:0:
293,266,8337,5,6,0:0:0:0:
147,335,8542,2,0,L|97:358,2,50,0|0|10,0:0|0:0|0:0,0:0:0:0:
67,196,8953,2,0,L|13:181,2,50,0|0|2,0:0|0:0|0:0,0:0:0:0:
221,242,9364,1,0,0:0:0:0:
376,283,9570,1,10,0:0:0:0:
221,242,9775,1,4,0:0:0:0:
67,196,9981,5,6,0:0:0:0:
67,196,10083,1,0,0:0:0:0:
67,196,10186,1,0,0:0:0:0:
67,196,10289,1,0,0:0:0:0:
67,196,10392,1,10,0:0:0:0:
191,95,10597,1,0,0:0:0:0:
153,273,10803,2,0,P|147:328|114:372,1,100,14|0,0:0|0:0,0:0:0:0:
95,100,11214,2,0,P|72:49|79:-5,1,100,14|0,0:0|0:0,0:0:0:0:
266,179,11625,6,0,P|316:156|371:163,1,100,4|0,0:0|0:0,0:0:0:0:
341,315,12035,1,10,0:0:0:0:
464,251,12241,1,0,0:0:0:0:
466,210,12344,1,0,0:0:0:0:
468,170,12446,1,2,0:0:0:0:
404,48,12652,1,0,0:0:0:0:
296,130,12857,1,10,0:0:0:0:
323,264,13063,1,4,0:0:0:0:
176,317,13268,6,0,P|122:289|64:289,1,100,14|0,0:0|0:0,0:0:0:0:
93,99,13679,2,0,P|39:127|-19:127,1,100,14|0,0:0|0:0,0:0:0:0:
261,27,14090,2,0,P|315:55|373:55,1,100,14|0,0:0|0:0,0:0:0:0:
324,264,14501,2,0,P|378:236|436:236,1,100,14|0,0:0|0:0,0:0:0:0:
237,184,14912,5,6,3:0:0:0:
324,264,15117,1,0,0:0:0:0:
319,303,15219,1,0,0:0:0:0:
314,343,15322,1,10,3:0:0:0:
474,287,15528,1,0,0:0:0:0:
469,326,15630,1,0,0:0:0:0:
464,366,15733,1,2,3:0:0:0:
452,188,15939,1,0,0:0:0:0:
396,60,16145,1,10,3:0:0:0:
261,27,16350,1,4,0:0:0:0:
237,184,16556,5,6,3:0:0:0:
230,223,16658,1,0,0:0:0:0:
223,261,16761,1,0,0:0:0:0:
216,300,16864,1,0,0:0:0:0:
209,339,16966,1,10,3:0:0:0:
73,353,17172,2,0,L|16:362,2,50,0|0|2,0:0|0:0|3:0,0:0:0:0:
209,339,17583,1,0,0:0:0:0:
336,310,17789,1,10,3:0:0:0:
461,278,17994,1,4,0:0:0:0:
380,121,18200,5,6,3:0:0:0:
342,114,18302,1,0,0:0:0:0:
303,108,18405,1,0,0:0:0:0:
264,100,18508,1,0,0:0:0:0:
225,93,18610,1,10,3:0:0:0:
91,65,18816,2,0,L|78:10,2,50,0|0|2,0:0|0:0|3:0,0:0:0:0:
116,172,19227,1,0,0:0:0:0:
108,281,19432,1,10,3:0:0:0:
49,374,19638,1,4,0:0:0:0:
275,361,19843,6,0,P|330:354|371:326,1,100,14|0,0:0|0:0,0:0:0:0:
229,116,20255,2,0,P|222:61|194:20,1,100,14|0,0:0|0:0,0:0:0:0:
168,246,20665,2,0,P|118:247|71:264,1,100,14|0,0:0|0:0,0:0:0:0:
353,154,21077,2,0,P|402:152|449:135,1,100,14|0,0:0|0:0,0:0:0:0:
321,248,21487,5,6,3:0:0:0:
229,116,21692,2,0,L|243:63,2,50,0|0|10,0:0|0:0|3:0,0:0:0:0:
44,61,22103,2,0,L|29:7,2,50,0|0|2,0:0|0:0|3:0,0:0:0:0:
82,164,22514,1,0,0:0:0:0:
109,270,22720,1,10,3:0:0:0:
86,377,22925,1,4,0:0:0:0:
239,293,23131,5,6,0:0:0:0:
265,262,23233,1,0,0:0:0:0:
296,238,23336,1,0,0:0:0:0:
332,221,23439,1,0,0:0:0:0:
370,213,23541,1,10,0:0:0:0:
429,328,23747,1,0,0:0:0:0:
478,207,23953,2,0,P|484:152|517:108,1,100,12|0,0:0|0:0,0:0:0:0:
211,66,24364,2,0,P|266:60|310:27,1,100,12|0,0:0|0:0,0:0:0:0:
288,244,24775,6,0,L|272:345,1,100,4|0,0:0|0:0,0:0:0:0:
298,159,25185,1,10,3:0:0:0:
165,293,25392,1,0,0:0:0:0:
126,282,25494,1,0,0:0:0:0:
98,253,25597,1,2,3:0:0:0:
210,104,25802,1,0,0:0:0:0:
235,272,26007,1,10,3:0:0:0:
139,109,26213,1,4,0:0:0:0:
98,253,26419,6,0,P|88:302|59:356,1,100,14|0,0:0|0:0,0:0:0:0:
23,117,26830,2,0,P|33:68|62:14,1,100,14|0,0:0|0:0,0:0:0:0:
263,58,27241,2,0,P|312:68|366:97,1,100,14|0,0:0|0:0,0:0:0:0:
249,326,27652,2,0,P|200:316|146:287,1,100,14|0,0:0|0:0,0:0:0:0:
355,256,28063,6,0,P|375:211|426:181,1,100,6|0,0:0|0:0,0:0:0:0:
487,71,28474,1,10,0:0:0:0:
356,42,28679,2,0,P|311:63|253:53,1,100,0|2,0:0|0:0,0:0:0:0:
250,270,29090,2,0,L|238:155,1,100,0|10,0:0|0:0,0:0:0:0:
165,68,29501,1,4,0:0:0:0:
81,238,29707,6,0,L|69:123,1,100,6|0,0:0|0:0,0:0:0:0:
165,68,30118,1,10,0:0:0:0:
242,194,30323,2,0,L|254:309,1,100,0|2,0:0|0:0,0:0:0:0:
129,371,30734,1,0,0:0:0:0:
146,173,30940,1,10,0:0:0:0:
193,335,31145,1,4,0:0:0:0:
82,211,31351,5,6,0:0:0:0:
56,180,31453,1,0,0:0:0:0:
43,142,31556,1,0,0:0:0:0:
43,102,31659,1,0,0:0:0:0:
55,65,31761,1,10,0:0:0:0:
180,64,31967,1,0,0:0:0:0:
217,78,32070,1,0,0:0:0:0:
256,71,32172,1,2,0:0:0:0:
398,33,32378,1,0,0:0:0:0:
251,154,32583,1,10,0:0:0:0:
393,116,32789,1,4,0:0:0:0:
234,276,32994,6,0,P|203:321|195:379,1,100,14|0,0:0|0:0,0:0:0:0:
173,169,33405,2,0,P|128:138|70:130,1,100,14|0,0:0|0:0,0:0:0:0:
279,106,33816,2,0,P|310:61|318:3,1,100,14|0,0:0|0:0,0:0:0:0:
340,214,34227,2,0,P|385:245|443:253,1,100,14|0,0:0|0:0,0:0:0:0:
173,169,34638,6,0,P|128:138|70:130,1,100,6|0,0:0|0:0,0:0:0:0:
80,260,35049,1,10,0:0:0:0:
180,350,35255,2,0,P|225:319|283:311,1,100,0|2,0:0|0:0,0:0:0:0:
438,326,35666,1,0,0:0:0:0:
273,237,35871,1,10,0:0:0:0:
410,258,36076,1,4,0:0:0:0:
288,104,36282,6,0,P|329:58|383:56,1,100,6|0,0:0|0:0,0:0:0:0:
428,163,36693,1,10,0:0:0:0:
344,260,36898,2,0,P|303:306|249:308,1,100,0|2,0:0|0:0,0:0:0:0:
111,304,37309,1,0,0:0:0:0:
171,203,37515,1,10,0:0:0:0:
274,152,37720,1,4,0:0:0:0:
100,144,37926,6,0,P|49:157|-2:148,1,100,6|0,0:0|0:0,0:0:0:0:
43,35,38337,1,10,0:0:0:0:
172,21,38542,1,0,0:0:0:0:
179,60,38644,1,0,0:0:0:0:
187,99,38747,1,2,0:0:0:0:
211,215,38953,1,0,0:0:0:0:
304,291,39159,1,10,0:0:0:0:
425,297,39364,1,4,0:0:0:0:
416,117,39569,6,0,P|426:68|455:14,1,100,14|0,0:0|0:0,0:0:0:0:
323,221,39980,2,0,P|313:270|284:324,1,100,14|0,0:0|0:0,0:0:0:0:
189,163,40392,2,0,P|199:114|228:60,1,100,14|0,0:0|0:0,0:0:0:0:
96,267,40803,2,0,P|86:316|57:370,1,100,14|0,0:0|0:0,0:0:0:0:
11,68,41214,5,4,0:0:0:0:
11,68,41316,1,0,0:0:0:0:
11,68,41419,1,0,0:0:0:0:
11,68,41522,1,0,0:0:0:0:
11,68,41625,1,8,0:0:0:0:
10,227,41830,2,0,L|5:282,1,50,0|0,0:0|0:0,0:0:0:0:
131,126,42138,2,0,L|136:71,1,50,0|0,0:0|0:0,0:0:0:0:
136,252,42446,2,0,L|127:367,1,100,8|0,0:0|0:0,0:0:0:0:
296,343,42857,5,2,0:0:0:0:
333,328,42959,1,0,0:0:0:0:
372,316,43062,1,0,0:0:0:0:
412,314,43165,1,0,0:0:0:0:
451,317,43268,1,8,0:0:0:0:
512,199,43474,2,0,L|504:127,1,50,0|0,0:0|0:0,0:0:0:0:
400,94,43782,2,0,L|404:143,1,50,0|0,0:0|0:0,0:0:0:0:
481,51,44089,1,8,0:0:0:0:
481,51,44296,1,8,0:0:0:0:
333,130,44501,5,6,0:0:0:0:
330,170,44603,1,0,0:0:0:0:
328,210,44706,1,0,0:0:0:0:
325,250,44809,1,0,0:0:0:0:
323,290,44911,1,8,0:0:0:0:
206,350,45118,2,0,L|209:296,1,50,0|0,0:0|0:0,0:0:0:0:
151,190,45426,2,0,L|154:136,1,50,0|0,0:0|0:0,0:0:0:0:
248,52,45733,1,8,0:0:0:0:
45,81,46144,5,2,0:0:0:0:
45,81,46248,1,0,0:0:0:0:
45,81,46351,1,0,0:0:0:0:
45,81,46452,1,0,0:0:0:0:
45,81,46556,1,8,0:0:0:0:
148,210,46761,2,0,L|195:236,1,50,0|0,0:0|0:0,0:0:0:0:
280,108,47069,2,0,L|311:151,1,50,0|0,0:0|0:0,0:0:0:0:
421,23,47378,2,0,L|445:128,1,100,4|0,0:0|0:0,0:0:0:0:
484,250,47789,5,4,0:0:0:0:
484,290,47891,1,0,0:0:0:0:
465,325,47994,1,0,0:0:0:0:
435,350,48097,1,0,0:0:0:0:
395,357,48199,1,10,0:0:0:0:
250,362,48406,2,0,L|195:357,1,50,0|0,0:0|0:0,0:0:0:0:
93,250,48714,2,0,L|148:255,1,50,0|0,0:0|0:0,0:0:0:0:
306,257,49022,2,0,P|355:229|363:174,1,100,10|0,0:0|0:0,0:0:0:0:
332,55,49433,5,2,0:0:0:0:
294,46,49535,1,0,0:0:0:0:
256,56,49638,1,0,0:0:0:0:
227,83,49741,1,0,0:0:0:0:
214,120,49843,1,10,0:0:0:0:
224,231,50049,2,0,L|231:290,1,50,0|0,0:0|0:0,0:0:0:0:
116,326,50357,2,0,L|109:267,1,50,0|0,0:0|0:0,0:0:0:0:
108,157,50665,1,10,0:0:0:0:
108,157,50871,1,8,0:0:0:0:
23,69,51077,5,6,0:0:0:0:
20,109,51179,1,0,0:0:0:0:
18,149,51282,1,0,0:0:0:0:
15,189,51385,1,0,0:0:0:0:
13,229,51487,1,10,0:0:0:0:
136,335,51693,2,0,L|139:281,1,50,0|0,0:0|0:0,0:0:0:0:
255,182,52001,2,0,L|252:231,1,50,0|0,0:0|0:0,0:0:0:0:
129,144,52309,2,0,L|136:36,1,100,10|0,0:0|0:0,0:0:0:0:
305,32,52720,5,2,0:0:0:0:
338,53,52822,1,0,0:0:0:0:
375,67,52925,1,0,0:0:0:0:
414,62,53028,1,0,0:0:0:0:
452,50,53131,1,10,0:0:0:0:
466,184,53337,2,0,L|463:238,1,50,0|0,0:0|0:0,0:0:0:0:
350,306,53645,2,0,L|347:360,1,50,0|0,0:0|0:0,0:0:0:0:
231,286,53953,1,4,0:0:0:0:
299,83,54364,6,0,L|301:23,2,50,6|0|0,3:0|0:0|0:0,0:0:0:0:
284,201,54775,1,10,3:0:0:0:
245,209,54877,1,0,0:0:0:0:
206,206,54980,1,0,0:0:0:0:
169,193,55083,1,0,0:0:0:0:
136,170,55185,1,2,3:0:0:0:
56,81,55392,2,0,L|58:21,2,50,0|0|10,0:0|0:0|3:0,0:0:0:0:
11,200,55803,1,0,0:0:0:0:
61,316,56008,6,0,L|59:376,2,50,2|0|0,3:0|0:0|0:0,0:0:0:0:
101,203,56419,1,10,3:0:0:0:
139,195,56521,1,0,0:0:0:0:
179,198,56624,1,0,0:0:0:0:
215,210,56727,1,0,0:0:0:0:
247,234,56829,1,2,3:0:0:0:
326,324,57035,2,0,L|324:384,2,50,0|0|10,0:0|0:0|3:0,0:0:0:0:
412,229,57446,1,0,0:0:0:0:
373,106,57652,6,0,L|372:35,2,50,2|0|0,3:0|0:0|0:0,0:0:0:0:
245,82,58063,1,10,3:0:0:0:
208,65,58166,1,0,0:0:0:0:
168,60,58268,1,0,0:0:0:0:
131,75,58371,1,0,0:0:0:0:
99,100,58474,2,0,L|119:205,1,100,2|0,3:0|0:0,0:0:0:0:
268,225,58885,2,0,L|279:281,2,50,10|0|0,3:0|0:0|0:0,0:0:0:0:
417,199,59296,5,2,3:0:0:0:
456,203,59398,1,0,0:0:0:0:
490,223,59501,1,0,0:0:0:0:
509,258,59604,1,0,0:0:0:0:
507,298,59707,1,10,3:0:0:0:
385,340,59912,1,0,0:0:0:0:
298,265,60118,1,2,3:0:0:0:
285,227,60220,1,0,0:0:0:0:
277,187,60323,1,0,0:0:0:0:
284,147,60426,1,0,0:0:0:0:
307,114,60529,1,10,3:0:0:0:
424,74,60734,1,0,0:0:0:0:
317,29,60940,5,6,3:0:0:0:
282,47,61042,1,0,0:0:0:0:
245,61,61145,1,0,0:0:0:0:
207,69,61248,1,0,0:0:0:0:
167,70,61350,1,10,3:0:0:0:
127,65,61453,1,0,0:0:0:0:
89,55,61556,1,0,0:0:0:0:
53,39,61659,1,0,0:0:0:0:
15,26,61761,2,0,L|0:81,2,50,2|0|0,3:0|0:0|0:0,0:0:0:0:
134,188,62172,2,0,L|113:243,2,50,10|0|0,3:0|0:0|0:0,0:0:0:0:
336,188,62583,6,0,L|317:246,2,50,2|0|0,3:0|0:0|0:0,0:0:0:0:
421,66,62994,1,10,3:0:0:0:
384,49,63097,1,0,0:0:0:0:
344,44,63199,1,0,0:0:0:0:
307,59,63302,1,0,0:0:0:0:
275,84,63405,2,0,P|223:103|164:93,1,100,2|0,3:0|0:0,0:0:0:0:
51,95,63816,2,0,L|40:39,2,50,10|0|0,3:0|0:0|0:0,0:0:0:0:
93,228,64227,5,6,3:0:0:0:
54,239,64330,1,0,0:0:0:0:
28,270,64433,1,0,0:0:0:0:
164,288,64638,1,10,3:0:0:0:
200,272,64740,1,0,0:0:0:0:
240,269,64843,1,0,0:0:0:0:
279,278,64946,1,0,0:0:0:0:
312,299,65048,1,2,3:0:0:0:
421,361,65255,1,0,0:0:0:0:
459,351,65357,1,0,0:0:0:0:
490,326,65460,1,10,3:0:0:0:
489,215,65666,1,0,0:0:0:0:
400,147,65871,6,0,L|410:88,2,50,2|0|0,3:0|0:0|0:0,0:0:0:0:
326,240,66282,1,10,3:0:0:0:
296,267,66384,1,0,0:0:0:0:
259,282,66487,1,0,0:0:0:0:
220,285,66590,1,0,0:0:0:0:
180,278,66693,1,2,3:0:0:0:
48,282,66898,2,0,L|46:342,2,50,0|0|14,0:0|0:0|3:0,0:0:0:0:
35,152,67310,1,0,0:0:0:0:
157,33,67515,6,0,L|287:46,1,100,4|0,0:0|0:0,0:0:0:0:
295,49,67822,1,0,0:0:0:0:
334,54,67926,1,10,0:0:0:0:
461,172,68131,1,0,0:0:0:0:
422,167,68233,1,0,0:0:0:0:
382,162,68336,1,2,0:0:0:0:
232,147,68542,1,0,0:0:0:0:
83,123,68748,1,10,0:0:0:0:
61,270,68954,1,4,0:0:0:0:
208,294,69159,5,6,0:0:0:0:
246,302,69261,1,0,0:0:0:0:
285,310,69363,1,0,0:0:0:0:
324,318,69466,1,0,0:0:0:0:
362,327,69570,1,10,0:0:0:0:
451,146,69775,2,0,L|459:91,2,50,0|0|2,0:0|0:0|0:0,0:0:0:0:
433,337,70186,1,0,0:0:0:0:
376,146,70391,1,10,0:0:0:0:
495,300,70597,1,4,0:0:0:0:
309,211,70802,5,4,0:0:0:0:
296,174,70904,1,0,0:0:0:0:
294,135,71007,1,0,0:0:0:0:
306,97,71110,1,0,0:0:0:0:
327,64,71214,1,10,0:0:0:0:
115,46,71419,2,0,L|57:54,2,50,0|0|2,0:0|0:0|0:0,0:0:0:0:
258,37,71830,1,0,0:0:0:0:
376,146,72035,1,10,0:0:0:0:
309,299,72241,1,4,0:0:0:0:
150,346,72446,6,0,P|102:334|60:307,1,100,14|0,0:0|0:0,0:0:0:0:
67,74,72857,2,0,P|115:86|157:113,1,100,14|0,0:0|0:0,0:0:0:0:
291,324,73268,2,0,P|243:312|201:285,1,100,14|0,0:0|0:0,0:0:0:0:
208,52,73679,2,0,P|256:64|298:91,1,100,14|0,0:0|0:0,0:0:0:0:
441,195,74090,5,4,0:0:0:0:
341,280,74296,1,0,0:0:0:0:
311,307,74399,1,0,0:0:0:0:
283,336,74501,1,10,0:0:0:0:
180,233,74707,1,0,0:0:0:0:
144,252,74810,1,0,0:0:0:0:
110,273,74912,1,2,0:0:0:0:
8,143,75118,2,0,P|50:113|101:94,1,100,0|10,0:0|0:0,0:0:0:0:
245,68,75528,1,4,0:0:0:0:
413,42,75734,5,14,0:0:0:0:
437,73,75837,1,0,0:0:0:0:
450,110,75939,1,0,0:0:0:0:
451,150,76042,1,0,0:0:0:0:
441,188,76145,1,10,0:0:0:0:
383,310,76350,1,0,0:0:0:0:
242,263,76556,2,0,P|210:304|203:362,1,100,12|0,0:0|0:0,0:0:0:0:
201,144,76967,2,0,P|182:96|135:61,1,100,12|0,0:0|0:0,0:0:0:0:
324,168,77378,6,0,P|375:175|429:152,1,100,12|0,0:0|0:0,0:0:0:0:
362,57,77788,1,10,0:0:0:0:
236,93,77994,1,0,0:0:0:0:
234,134,78097,1,0,0:0:0:0:
232,174,78199,1,2,0:0:0:0:
226,341,78405,1,0,0:0:0:0:
156,169,78610,1,10,0:0:0:0:
294,305,78816,1,4,0:0:0:0:
98,218,79021,6,0,P|44:190|-14:190,1,100,14|0,0:0|0:0,0:0:0:0:
156,79,79432,2,0,P|102:107|44:107,1,100,14|0,0:0|0:0,0:0:0:0:
309,136,79843,2,0,P|363:164|421:164,1,100,14|0,0:0|0:0,0:0:0:0:
226,342,80254,2,0,P|280:314|338:314,1,100,14|0,0:0|0:0,0:0:0:0:
223,203,80666,6,0,L|232:95,1,100,6|0,0:0|0:0,0:0:0:0:
362,82,81077,1,10,0:0:0:0:
389,225,81282,2,0,P|434:204|492:214,1,100,0|2,0:0|0:0,0:0:0:0:
226,341,81693,2,0,P|185:311|126:310,1,100,0|10,0:0|0:0,0:0:0:0:
15,334,82104,1,4,0:0:0:0:
57,197,82310,6,0,P|64:148|54:100,1,100,6|0,0:0|0:0,0:0:0:0:
183,40,82721,1,10,0:0:0:0:
375,89,82926,2,0,P|323:87|275:119,1,100,0|2,0:0|0:0,0:0:0:0:
203,201,83337,1,0,0:0:0:0:
56,153,83542,1,10,0:0:0:0:
80,316,83748,1,4,0:0:0:0:
259,349,83954,5,6,0:0:0:0:
299,359,84056,1,0,0:0:0:0:
338,354,84159,1,0,0:0:0:0:
376,342,84262,1,0,0:0:0:0:
406,317,84364,1,10,0:0:0:0:
474,213,84570,1,0,0:0:0:0:
468,173,84673,1,0,0:0:0:0:
462,133,84775,1,2,0:0:0:0:
389,31,84981,1,0,0:0:0:0:
211,71,85186,1,10,0:0:0:0:
366,110,85392,1,4,0:0:0:0:
187,152,85597,6,0,P|135:157|84:184,1,100,14|0,0:0|0:0,0:0:0:0:
24,332,86008,2,0,P|76:328|127:300,1,100,14|0,0:0|0:0,0:0:0:0:
256,192,86419,2,0,L|256:292,1,100,14|0,0:0|0:0,0:0:0:0:
393,307,86830,2,0,P|438:328|487:332,1,100,14|0,0:0|0:0,0:0:0:0:
419,177,87241,6,0,P|374:156|325:151,1,100,6|0,0:0|0:0,0:0:0:0:
256,270,87652,1,10,0:0:0:0:
133,139,87858,2,0,P|102:94|94:36,1,100,0|2,0:0|0:0,0:0:0:0:
222,46,88269,1,0,0:0:0:0:
275,181,88474,1,10,0:0:0:0:
370,29,88679,1,4,0:0:0:0:
426,169,88885,6,0,P|457:214|465:272,1,100,6|0,0:0|0:0,0:0:0:0:
365,338,89296,1,10,0:0:0:0:
237,315,89501,2,0,P|168:309|123:337,1,100,0|2,0:0|0:0,0:0:0:0:
18,368,89912,1,0,0:0:0:0:
89,229,90118,1,10,0:0:0:0:
36,89,90323,1,4,0:0:0:0:
204,46,90529,6,0,L|305:28,1,100,4|0,0:0|0:0,0:0:0:0:
424,54,90940,1,10,0:0:0:0:
437,179,91145,1,0,0:0:0:0:
444,218,91247,1,0,0:0:0:0:
452,257,91350,1,2,0:0:0:0:
322,327,91556,1,0,0:0:0:0:
260,159,91762,1,10,0:0:0:0:
145,295,91967,1,4,0:0:0:0:
323,209,92172,6,0,P|372:219|426:248,1,100,14|0,0:0|0:0,0:0:0:0:
196,347,92583,2,0,P|147:357|93:386,1,100,14|0,0:0|0:0,0:0:0:0:
173,177,92995,2,0,P|183:128|212:74,1,100,14|0,0:0|0:0,0:0:0:0:
445,155,93406,2,0,P|396:145|342:116,1,100,14|0,0:0|0:0,0:0:0:0:
210,88,93816,5,8,0:0:0:0:
205,127,93918,1,8,0:0:0:0:
200,167,94021,1,8,0:0:0:0:
196,207,94124,1,8,0:0:0:0:
191,246,94226,1,8,0:0:0:0:
76,347,94433,1,8,0:0:0:0:
80,307,94535,1,8,0:0:0:0:
85,267,94638,1,8,0:0:0:0:
90,228,94741,1,8,0:0:0:0:
94,188,94843,1,8,0:0:0:0:
33,65,95049,1,2,0:0:0:0:
33,65,95255,1,4,0:0:0:0:
171,37,95460,5,12,0:0:0:0:
208,22,95562,1,0,0:0:0:0:
247,17,95665,1,2,0:0:0:0:
287,22,95768,1,0,0:0:0:0:
324,35,95870,1,10,0:0:0:0:
357,58,95973,1,0,0:0:0:0:
384,87,96076,1,2,0:0:0:0:
403,122,96179,1,0,0:0:0:0:
411,164,96282,2,0,P|446:209|499:214,1,100,10|2,0:0|0:0,0:0:0:0:
331,368,96693,2,0,P|331:306|304:252,1,100,10|2,0:0|0:0,0:0:0:0:
274,108,97104,5,14,0:0:0:0:
225,111,97206,1,0,0:0:0:0:
178,130,97309,1,2,0:0:0:0:
105,305,97515,2,0,P|166:305|220:278,1,100,10|2,0:0|0:0,0:0:0:0:
365,191,97926,2,0,P|303:190|249:217,1,100,10|2,0:0|0:0,0:0:0:0:
31,249,98337,2,0,P|11:196|20:126,1,100,10|2,0:0|0:0,0:0:0:0:
144,82,98748,5,12,0:0:0:0:
157,119,98850,1,0,0:0:0:0:
180,152,98953,1,2,0:0:0:0:
211,178,99056,1,0,0:0:0:0:
247,193,99158,1,10,0:0:0:0:
287,198,99261,1,0,0:0:0:0:
327,196,99364,1,2,0:0:0:0:
366,185,99467,1,0,0:0:0:0:
402,169,99570,2,0,L|421:295,1,100,10|2,0:0|0:0,0:0:0:0:
495,121,99981,2,0,L|476:-5,1,100,10|2,0:0|0:0,0:0:0:0:
331,94,100392,5,14,0:0:0:0:
283,109,100494,1,0,0:0:0:0:
236,125,100597,1,2,0:0:0:0:
93,179,100803,2,0,L|74:305,1,100,10|2,0:0|0:0,0:0:0:0:
15,121,101214,2,0,L|34:-5,1,100,10|2,0:0|0:0,0:0:0:0:
236,125,101625,2,0,P|281:105|330:109,1,100,12|2,0:0|0:0,0:0:0:0:
303,283,102035,6,0,P|257:303|202:296,1,100,4|0,0:0|0:0,0:0:0:0:
169,287,102344,1,0,0:0:0:0:
133,268,102446,1,10,3:0:0:0:
71,144,102652,1,0,0:0:0:0:
67,104,102755,1,0,0:0:0:0:
64,64,102857,1,2,3:0:0:0:
198,52,103063,2,0,L|210:174,1,100,0|10,0:0|3:0,0:0:0:0:
175,275,103474,1,0,0:0:0:0:
291,338,103679,6,0,L|413:326,1,100,2|0,3:0|0:0,0:0:0:0:
430,323,103988,1,0,0:0:0:0:
469,319,104090,1,10,3:0:0:0:
476,155,104296,2,0,L|473:95,2,50,0|0|2,0:0|0:0|3:0,0:0:0:0:
471,319,104707,1,0,0:0:0:0:
360,268,104912,1,10,3:0:0:0:
308,154,105118,1,0,0:0:0:0:
219,36,105323,6,0,P|168:56|142:98,1,100,2|0,3:0|0:0,0:0:0:0:
141,132,105631,1,0,0:0:0:0:
150,170,105734,1,10,3:0:0:0:
142,319,105940,2,0,L|87:331,2,50,0|0|2,0:0|0:0|3:0,0:0:0:0:
259,310,106351,1,0,0:0:0:0:
378,323,106556,1,14,3:0:0:0:
484,373,106761,1,0,0:0:0:0:
497,217,106967,6,0,L|481:106,1,100,6|0,3:0|0:0,0:0:0:0:
374,42,107378,1,12,0:0:0:0:
367,180,107583,2,0,P|333:238|198:248,1,200,4|0,0:0|0:0,0:0:0:0:
259,154,108200,1,4,0:0:0:0:
181,19,108597,5,12,0:0:0:0:
189,58,108699,1,0,0:0:0:0:
187,97,108802,1,2,0:0:0:0:
176,135,108905,1,0,0:0:0:0:
156,168,109007,1,10,0:0:0:0:
128,197,109110,1,0,0:0:0:0:
94,216,109213,1,2,0:0:0:0:
56,227,109316,1,0,0:0:0:0:
16,227,109419,2,0,L|25:328,1,100,10|2,0:0|0:0,0:0:0:0:
159,346,109830,2,0,P|175:303|219:268,1,100,10|2,0:0|0:0,0:0:0:0:
379,325,110240,5,14,0:0:0:0:
339,295,110342,1,0,0:0:0:0:
319,249,110445,1,2,0:0:0:0:
417,107,110651,2,0,P|381:136|326:144,1,100,10|2,0:0|0:0,0:0:0:0:
215,14,111062,2,0,P|234:56|228:112,1,100,10|2,0:0|0:0,0:0:0:0:
74,184,111473,2,0,P|119:177|171:197,1,100,10|2,0:0|0:0,0:0:0:0:
272,330,111884,5,12,0:0:0:0:
311,338,111986,1,0,0:0:0:0:
350,336,112089,1,0,0:0:0:0:
388,325,112192,1,0,0:0:0:0:
422,306,112294,1,10,0:0:0:0:
450,277,112397,1,0,0:0:0:0:
469,243,112500,1,0,0:0:0:0:
480,205,112603,1,0,0:0:0:0:
462,169,112706,2,0,P|439:120|443:71,1,100,10|2,0:0|0:0,0:0:0:0:
290,34,113117,2,0,P|247:64|230:113,1,100,10|2,0:0|0:0,0:0:0:0:
181,277,113528,5,14,0:0:0:0:
141,305,113630,1,0,0:0:0:0:
91,307,113733,1,2,0:0:0:0:
90,126,113939,2,0,P|129:96|178:94,1,100,10|2,0:0|0:0,0:0:0:0:
355,93,114350,2,0,P|362:142|390:182,1,100,10|2,0:0|0:0,0:0:0:0:
415,357,114761,2,0,P|382:319|336:301,1,100,12|2,0:0|0:0,0:0:0:0:
165,294,115172,6,0,P|138:243|141:184,1,100,4|0,0:0|0:0,0:0:0:0:
142,161,115481,1,0,0:0:0:0:
158,124,115583,1,10,3:0:0:0:
296,41,115788,2,0,L|352:26,2,50,0|0|2,0:0|0:0|3:0,0:0:0:0:
158,124,116199,2,0,L|55:157,1,100,0|10,0:0|3:0,0:0:0:0:
39,282,116611,1,0,0:0:0:0:
165,295,116816,6,0,P|223:294|271:325,1,100,2|0,3:0|0:0,0:0:0:0:
288,340,117125,1,0,0:0:0:0:
308,374,117227,1,10,3:0:0:0:
424,334,117432,2,0,L|460:370,2,50,0|0|2,0:0|0:0|3:0,0:0:0:0:
359,224,117843,2,0,P|335:175|334:119,1,100,0|10,0:0|3:0,0:0:0:0:
256,42,118255,1,0,0:0:0:0:
179,130,118460,6,0,P|175:179|153:224,1,100,14|4,3:0|0:0,0:0:0:0:
128,255,118768,1,0,0:0:0:0:
93,275,118871,1,0,0:0:0:0:
27,158,119076,2,0,L|44:42,1,100,12|0,0:0|0:0,0:0:0:0:
172,47,119488,1,0,0:0:0:0:
256,144,119693,1,12,0:0:0:0:
340,47,119898,1,0,0:0:0:0:
470,59,120103,6,0,L|485:158,1,100,12|8,0:0|0:0,0:0:0:0:
383,232,120514,1,4,0:0:0:0:
131,280,120720,2,0,P|165:222|300:212,1,200,12|4,0:0|0:0,0:0:0:0:
239,306,121337,1,8,0:0:0:0:
326,124,121747,5,14,0:0:0:0:
355,83,121849,1,0,0:0:0:0:
398,58,121952,1,2,0:0:0:0:
447,54,122055,1,0,0:0:0:0:
493,71,122157,1,10,0:0:0:0:
433,163,122364,1,2,0:0:0:0:
328,45,122569,5,14,0:0:0:0:
286,70,122671,1,0,0:0:0:0:
237,76,122774,1,2,0:0:0:0:
189,62,122877,1,0,0:0:0:0:
151,30,122979,1,10,0:0:0:0:
79,163,123186,1,2,0:0:0:0:
0,75,123391,5,14,0:0:0:0:
46,56,123493,1,0,0:0:0:0:
96,57,123596,1,2,0:0:0:0:
141,79,123699,1,0,0:0:0:0:
172,117,123801,1,10,0:0:0:0:
260,192,124007,1,2,0:0:0:0:
352,230,124213,5,10,0:0:0:0:
363,192,124316,1,0,0:0:0:0:
345,155,124418,1,2,0:0:0:0:
167,155,124624,1,10,0:0:0:0:
149,192,124727,1,0,0:0:0:0:
160,230,124829,1,2,0:0:0:0:
201,369,125035,6,0,P|299:318|397:336,1,200,14|10,0:0|0:0,0:0:0:0:
488,363,125651,1,2,0:0:0:0:
487,256,125856,1,10,0:0:0:0:
446,226,125960,1,0,0:0:0:0:
412,191,126062,1,2,0:0:0:0:
389,150,126165,1,0,0:0:0:0:
382,102,126267,1,10,0:0:0:0:
391,57,126370,1,0,0:0:0:0:
417,19,126473,1,2,0:0:0:0:
297,21,126679,6,0,P|251:37|182:28,1,100,14|0,0:0|0:0,0:0:0:0:
83,88,127090,1,10,0:0:0:0:
144,261,127295,2,0,P|153:213|197:158,1,100,0|10,0:0|0:0,0:0:0:0:
246,79,127706,1,2,0:0:0:0:
286,52,127808,1,0,0:0:0:0:
332,39,127911,1,10,0:0:0:0:
380,40,128014,1,0,0:0:0:0:
424,55,128116,1,2,0:0:0:0:
461,86,128220,1,0,0:0:0:0:
489,125,128323,6,0,P|500:250|433:317,1,200,14|10,0:0|0:0,0:0:0:0:
356,355,128939,1,2,0:0:0:0:
259,302,129145,1,10,0:0:0:0:
220,277,129247,1,0,0:0:0:0:
179,258,129350,1,2,0:0:0:0:
136,255,129452,1,0,0:0:0:0:
93,260,129555,1,10,0:0:0:0:
52,273,129657,1,0,0:0:0:0:
15,295,129760,1,2,0:0:0:0:
42,66,129967,6,0,L|49:181,1,100,14|0,0:0|0:0,0:0:0:0:
169,224,130378,1,10,0:0:0:0:
300,233,130583,2,0,L|307:348,1,100,0|10,0:0|0:0,0:0:0:0:
442,351,130994,1,0,0:0:0:0:
418,309,131096,1,0,0:0:0:0:
405,262,131199,1,10,0:0:0:0:
406,214,131302,1,0,0:0:0:0:
419,168,131404,1,0,0:0:0:0:
444,128,131507,1,0,0:0:0:0:
477,93,131610,6,0,P|379:24|298:54,1,200,14|10,0:0|0:0,0:0:0:0:
241,148,132227,1,2,0:0:0:0:
204,261,132431,1,10,0:0:0:0:
191,306,132535,1,0,0:0:0:0:
167,344,132637,1,2,0:0:0:0:
126,361,132740,1,0,0:0:0:0:
83,362,132842,1,10,0:0:0:0:
45,346,132945,1,0,0:0:0:0:
17,314,133048,1,2,0:0:0:0:
2,189,133254,6,0,L|13:75,1,100,14|0,0:0|0:0,0:0:0:0:
128,28,133665,1,10,0:0:0:0:
248,81,133870,2,0,P|303:100|363:88,1,100,0|10,0:0|0:0,0:0:0:0:
457,83,134281,1,2,0:0:0:0:
470,124,134383,1,0,0:0:0:0:
472,169,134486,1,10,0:0:0:0:
460,212,134589,1,0,0:0:0:0:
438,250,134691,1,2,0:0:0:0:
407,281,134794,1,0,0:0:0:0:
367,301,134898,1,4,0:0:0:0:
256,192,135001,12,4,136542,2:1:0:0:
