osu file format v7

[General]
AudioFilename: Nightwish-Moondance.mp3
AudioLeadIn: 0
PreviewTime: 18689
Countdown: 1
SampleSet: Soft
StackLeniency: 0.7
Mode: 0
LetterboxInBreaks: 1

[Editor]
DistanceSpacing: 0.800000011920929
BeatDivisor: 4
GridSize: 8

[Metadata]
Title:Moondance
Artist:Nightwish
Creator:Kurai_
Version:Swanheart
Source:
Tags:Inozuma

[Difficulty]
HPDrainRate:3
CircleSize:4
OverallDifficulty:3
SliderMultiplier:1.4
SliderTickRate:1

[Events]
//Background and Video events
0,0,"Swanheart.jpg"
//Break Periods
2,46352,50407
2,100860,108983
//Storyboard Layer 0 (Background)
//Storyboard Layer 1 (Fail)
//Storyboard Layer 2 (Pass)
//Storyboard Layer 3 (Foreground)
//Storyboard Sound Samples
//Background Colour Transformations
3,100,0,0,0

[TimingPoints]
457,542.986425339367,4,2,1,100,1,0
15660,633.1,4,2,1,100,1,0
16293,1037.97876347192,4,2,1,100,1,0
18887,835.220779220779,4,2,1,100,1,0
19305,406.779661016949,4,1,1,100,1,0
44525,-200,4,2,1,51,0,0
98220,-200,4,2,1,40,0,0
99033,-200,4,2,1,28,0,0
99847,-200,4,2,1,21,0,0
100660,-200,4,2,1,16,0,0
101474,-200,4,2,1,12,0,0
102288,-200,4,2,1,6,0,0
103101,-200,4,2,1,1,0,0
110423,406.641816333446,4,1,1,100,1,1
128315,406.710726995424,4,1,1,100,1,0
154723,406.779661016949,4,1,1,100,1,0
168986,406.710726995424,4,1,1,100,1,0

[Colours]
Combo1 : 128,255,255
Combo2 : 0,213,213
Combo3 : 0,130,130

[HitObjects]
256,192,18887,1,0
120,192,19305,6,0,B|40:128,2,70,0|0|8
120,192,20118,6,0,B|184:120,2,70,0|0|8
120,192,20932,6,0,B|120:264,4,70,0|8|8|8|8
336,256,22559,5,0
336,32,23372,1,0
112,32,24186,1,0
112,144,24593,1,0
224,144,24999,1,4
456,136,25813,5,0
232,136,26627,1,0
456,136,27440,1,0
232,136,28254,1,4
456,136,29067,5,0
344,328,29881,1,0
120,328,30694,1,0
16,128,31508,1,4
240,128,32321,6,0,B|304:48,2,70,0|0|8
240,128,33135,6,0,B|312:192,2,70,0|0|8
240,128,33949,6,0,B|168:128,4,70,0|8|8|0|8
464,136,35576,5,0
240,136,36389,1,0
384,296,37203,1,8
296,224,37610,1,8
392,168,38016,1,8
176,104,38830,6,0,B|112:24,2,70,0|0|8
176,104,39643,6,0,B|104:168,2,70,0|0|8
176,104,40457,6,0,B|248:104,4,70,0|8|8|8|8
456,104,42084,5,0
256,200,42898,1,0
88,56,43711,1,0
200,56,44118,1,0
304,56,44525,2,0,B|368:56|432:96|232:152|272:208|392:248,1,280
256,320,51847,6,0,B|192:320|120:304|88:248|56:176|56:120|72:72|104:32|128:16|192:128,1,490
256,112,55101,2,0,B|256:192|296:240|392:256,1,210
376,184,56728,2,0,B|384:256|336:336|256:352,1,210
216,304,58355,2,0,B|160:320|104:304|104:304|80:240|112:176|112:176|168:152|224:176|224:176|288:160|344:176|344:176|360:248|352:312|352:312|296:328|232:304|232:304|232:176,1,840
232,136,63643,5,0
288,184,64050,1,0
344,232,64457,1,0
352,160,64864,6,0,B|448:160|496:104|464:16|320:40|240:48|192:56|152:120|216:192,1,490
280,192,68118,2,0,B|288:256|256:312|160:320|80:296|144:304,1,210
128,232,69745,2,0,B|64:168|40:96|64:64|96:40,1,210
144,88,71372,2,0,B|184:32|232:8|280:16|352:16|392:56|416:104|416:168|416:232|360:264|288:256,1,490
256,280,74627,5,0
112,280,75440,1,0
112,136,76254,1,0
248,136,77067,1,4
384,160,77881,6,0,B|504:232|488:392|312:384|376:256|496:224,1,350
488,168,80321,2,0,B|512:104|472:80,1,70
424,96,81135,6,4,B|296:64|224:64|192:96|168:128|200:208|216:224,1,350
256,272,83576,5,8
256,272,83982,1,8
320,248,84389,6,0,B|368:208|416:144|400:56|304:32|312:152|432:248,1,350
464,296,86830,2,0,B|440:336|384:336,1,70
336,312,87643,2,0,B|296:280|328:224|376:208|336:152|296:144|240:144|216:176|240:232|248:296|192:312|24:120,1,490
112,112,90898,6,0,B|200:88|216:168|304:160|312:64|384:72|376:136,1,280
432,224,93338,2,0,B|424:288|376:304,1,70
336,312,94152,2,0,B|264:312|200:264|160:184|160:168,1,210
224,152,95779,6,0,B|256:192|296:160,1,70
312,104,96593,2,0,B|344:64|392:112,1,70
376,168,97406,2,0,B|376:224|352:264|296:264|144:264|96:240|104:136|184:144|288:184|328:160|336:88|256:72|120:104,1,560
256,192,110423,6,0,B|400:192,1,140,0|4
400,120,111236,2,0,B|256:120,1,140,0|4
192,120,112049,2,0,B|192:264,1,140,0|4
256,192,112862,2,0,B|400:192,1,140
400,120,113676,2,0,B|240:120,1,140
192,120,114489,6,0,B|120:120,2,70,0|8|8
256,192,115302,2,0,B|256:48,1,140
392,88,116115,2,0,B|312:88,2,70,0|8|8
392,200,116929,6,0,B|392:344,1,140
248,296,117742,1,8
144,248,118149,1,8
232,176,118555,1,8
312,96,118962,1,8
424,96,119369,6,0,B|424:240,1,140
312,216,120182,2,0,B|168:168,1,140
264,96,120995,2,0,B|344:32,2,70,8|8|8
376,120,121808,6,0,B|424:256,1,140,0|4
328,312,122622,1,0
256,224,123028,1,0
176,144,123435,1,0
272,88,123842,1,8
408,72,124248,6,8,B|376:216,1,140
272,160,125062,1,0
160,160,125468,2,8,B|120:312,1,140
256,288,126282,2,0,B|288:144,1,140
256,192,127095,12,0,128315
