osu file format v7

[General]
AudioFilename: Nightwish-Moondance.mp3
AudioLeadIn: 1004
PreviewTime: 18689
Countdown: 1
SampleSet: Soft
StackLeniency: 0.4
Mode: 0
LetterboxInBreaks: 0

[Editor]
DistanceSpacing: 1
BeatDivisor: 4
GridSize: 8

[Metadata]
Title:Moondance
Artist:Nightwish
Creator:Kurai_
Version:FantasMic
Source:
Tags:Inozuma

[Difficulty]
HPDrainRate:6
CircleSize:5
OverallDifficulty:7
SliderMultiplier:1.4
SliderTickRate:2

[Events]
//Background and Video events
0,0,"FantasMic.jpg"
//Break Periods
2,44725,57455
2,106555,109523
//Storyboard Layer 0 (Background)
//Storyboard Layer 1 (Fail)
//Storyboard Layer 2 (Pass)
//Storyboard Layer 3 (Foreground)
//Storyboard Sound Samples
//Background Colour Transformations
3,100,0,0,0

[TimingPoints]
457,542.986425339367,4,2,1,100,1,0
15660,633.1,4,2,1,100,1,0
16293,1037.97876347192,4,2,1,100,1,0
18887,835.220779220779,4,2,1,100,1,0
19305,406.779661016949,4,1,1,100,1,0
44525,-200,4,2,1,51,0,0
98220,-200,4,2,1,40,0,0
99033,-200,4,2,1,28,0,0
99847,-200,4,2,1,21,0,0
100660,-200,4,2,1,16,0,0
101474,-200,4,2,1,12,0,0
102288,-200,4,2,1,6,0,0
103101,-200,4,2,1,1,0,0
110423,406.641816333446,4,1,1,100,1,1
128315,406.710726995424,4,1,1,100,1,0
154723,406.779661016949,4,1,1,100,1,0
168986,406.710726995424,4,1,1,100,1,0

[Colours]
Combo1 : 0,155,155
Combo2 : 0,255,255
Combo3 : 128,255,255

[HitObjects]
256,192,457,2,0,B|256:112,1,70,2|0
256,48,999,1,0
256,192,1271,5,0
256,192,1361,1,0
256,192,1452,1,0
256,192,1542,2,0,B|256:272,1,70
256,336,2085,1,0
256,192,2357,5,0
256,192,2447,1,0
256,192,2538,1,0
256,192,2628,2,0,B|176:192,1,70,2|0
256,192,3171,2,2,B|336:192,1,70,2|0
256,192,3714,2,0,B|176:192,2,70,2|0|4
256,48,4529,5,0
256,128,4800,2,0,B|256:208,1,70,2|0
256,272,5343,1,2
336,272,5615,2,0,B|336:192,1,70
336,176,6022,1,0
336,144,6158,1,2
336,112,6294,1,0
336,80,6429,1,2
256,80,6701,5,0
256,160,6972,2,0,B|256:240,1,70,2|0
256,304,7515,1,2
176,304,7787,2,0,B|176:224,1,70
176,160,8330,2,0,B|176:80,1,70,0|4
48,192,8873,5,0
48,192,8963,1,0
48,192,9054,1,0
48,192,9144,2,0,B|128:192,2,70,2|0|0
192,192,9959,5,0
192,192,10049,1,0
192,192,10140,1,0
192,192,10230,2,0,B|272:192,2,70,2|0|0
336,192,11045,5,0
336,192,11135,1,0
336,192,11226,1,0
336,192,11316,2,0,B|416:192,2,70,2|0|2
256,192,12131,2,0,B|176:192,2,70,0|2|0
256,192,12945,1,4
256,272,13217,5,0
336,272,13488,2,0,B|416:272,1,70,2|0
256,352,14031,5,2
176,352,14303,2,0,B|96:352,1,70,0|2
96,320,14710,1,0
96,288,14846,1,2
96,256,14981,1,0
96,224,15117,1,2
96,144,15389,5,0
176,176,15660,2,0,B|224:208|288:208|352:176,1,140
256,192,17071,12,0,18887
96,96,19305,6,0,B|48:96|48:144,1,70
48,208,19711,1,8
304,160,20118,6,0,B|256:160|256:208,1,70
256,272,20525,1,8
480,224,20932,6,0,B|432:224|432:272,1,70
432,336,21338,1,8
368,320,21542,2,0,B|288:320,1,70
298,256,21949,2,8,B|368:256,1,70
368,192,22355,1,0
368,128,22559,6,0,B|368:80|320:32|256:48,1,140,0|8
208,48,23169,1,0
144,64,23372,1,0
112,80,23474,1,0
96,112,23576,1,0
96,144,23677,1,0
112,176,23779,1,8
176,192,23982,6,0,B|256:192,1,70,0|8
288,128,24389,2,0,B|320:192,1,70,0|8
384,208,24796,2,0,B|352:288,1,70,0|8
336,336,25203,2,0,B|256:336,2,70,8|12|8
416,336,25813,6,0,B|432:304|416:256,1,70
400,208,26220,1,8
256,288,26627,6,0,B|272:256|256:208,1,70
240,160,27033,1,8
96,240,27440,6,0,B|112:208|96:160,1,70
80,112,27847,1,8
144,96,28050,2,0,B|176:80|224:96,1,70
272,112,28457,2,0,B|304:128|352:112,2,70,8|8|0
224,160,29067,6,0,B|192:208|208:272|256:288,1,140,0|8
304,304,29677,1,0
368,320,29881,1,0
400,320,29982,1,0
432,304,30084,1,0
448,272,30186,1,0
448,240,30288,1,8
416,176,30491,6,0,B|336:176,1,70,0|8
304,112,30898,2,0,B|272:176,1,70,0|8
208,192,31304,2,0,B|240:256,1,70,0|8
240,320,31711,2,0,B|320:320,2,70,8|12|8
160,320,32321,6,0,B|144:288|144:240,1,70,2|0
144,184,32728,1,8
80,216,32932,1,0
288,256,33135,6,0,B|272:224|272:176,1,70,2|0
272,120,33542,1,8
208,152,33745,1,0
416,192,33949,6,0,B|400:160|400:112,1,70,2|0
400,56,34355,1,8
336,88,34559,1,0
272,128,34762,1,2
208,96,34966,1,8
144,64,35169,1,8
112,128,35372,5,0
80,192,35576,2,0,B|80:256|128:288|176:288,1,140,2|8
224,288,36186,1,0
288,272,36389,1,0
320,256,36491,1,0
336,224,36593,1,0
336,192,36694,1,0
320,160,36796,1,8
256,192,36999,6,0,B|176:192,1,70,0|8
112,192,37406,2,0,B|144:128,1,70,0|8
144,64,37813,2,0,B|224:64,1,70,0|8
288,64,38220,2,8,B|256:128,2,70,8|12|8
368,96,38830,5,2
368,128,38932,1,0
384,160,39033,1,2
448,128,39237,1,8
448,128,39440,1,0
240,160,39643,5,2
240,192,39745,1,0
256,224,39847,1,2
320,192,40050,1,8
320,192,40254,1,0
112,224,40457,5,2
112,256,40559,1,0
128,288,40660,1,2
192,272,40864,2,0,B|208:304|256:320,1,70,8|0
320,320,41271,1,0
384,288,41474,1,0
416,224,41677,1,8
400,160,41881,1,0
352,208,42084,6,0,B|328:200|296:224|272:192,1,70
240,152,42491,2,0,B|192:168|160:200|144:248,1,140,8|0
144,272,42999,1,0
160,304,43101,1,0
192,320,43203,1,0
224,320,43304,1,8
296,320,43508,5,0
376,336,43711,1,4
296,184,43915,5,0
224,184,44118,1,4
296,48,44321,5,0
368,32,44525,1,4
32,64,58355,6,0,L|32:144,1,70,2|0
96,64,59169,2,0,L|96:144,1,70,2|0
160,64,59982,2,0,L|160:144,1,70,2|0
224,64,60796,2,0,L|224:144,1,70,2|0
288,64,61610,6,0,L|288:144,1,70,2|0
352,64,62423,2,0,L|352:144,1,70,2|0
416,64,63237,2,0,L|416:144,1,70,2|0
480,64,64050,2,0,L|480:144,1,70,2|0
480,192,64864,6,0,L|480:272,1,70
480,262,65474,1,2
416,192,65677,2,0,L|416:272,1,70
416,262,66288,1,2
352,192,66491,2,0,L|352:272,1,70
352,262,67101,1,2
288,192,67304,2,0,L|288:272,1,70
288,262,67915,1,2
224,192,68118,6,0,L|224:272,1,70
224,262,68728,1,2
160,192,68932,2,0,L|160:272,1,70
160,262,69542,1,2
96,192,69745,2,0,L|96:272,1,70
96,262,70355,1,2
32,192,70559,2,0,L|32:272,1,70
32,262,71169,1,2
32,336,71372,6,0,L|32:384,3,35,2|2|0|0
96,336,72186,2,0,L|96:384,3,35,2|2|0|0
160,336,72999,2,0,L|160:384,3,35,2|2|0|0
224,336,73813,2,0,L|224:384,3,35,2|2|0|0
288,336,74627,6,0,L|288:384,3,35,2|2|0|0
352,336,75440,2,0,L|352:384,3,35,2|2|0|0
416,336,76254,2,0,L|416:384,3,35,2|2|0|0
480,336,77067,2,0,L|480:384,3,35,2|2|0|0
480,272,77881,6,2,B|432:192|352:176|288:192,1,210
304,256,79508,6,2,B|240:272|144:256|112:176,1,210
48,160,81135,6,2,B|80:96|160:64|240:112,1,210
208,176,82762,6,2,B|272:192|352:176|400:112,1,210
368,48,84389,5,2
304,80,84593,1,2
288,144,84796,1,2
304,208,84999,1,0
320,272,85203,5,2
288,336,85406,1,2
224,320,85610,1,2
160,320,85813,1,0
96,336,86016,5,2
32,320,86220,1,2
0,256,86423,1,2
32,192,86627,1,0
48,128,86830,5,2
32,64,87033,1,2
96,80,87237,1,2
160,64,87440,1,0
224,80,87643,5,2
272,128,87847,1,2
336,144,88050,1,2
384,96,88254,1,0
448,112,88457,5,2
464,176,88660,1,2
448,240,88864,1,2
448,304,89067,1,0
400,352,89271,5,2
336,336,89474,1,2
272,352,89677,1,2
208,336,89881,1,0
144,352,90084,5,2
80,352,90288,1,2
32,304,90491,1,2
80,256,90694,1,0
48,192,90898,6,0,B|80:128|160:112,1,140,2|0
192,176,92118,1,2
224,240,92525,2,0,B|304:224|352:176,1,140,2|0
304,128,93745,1,2
256,80,94152,2,0,B|304:32|400:48,1,140,2|0
416,112,95372,1,2
432,192,95779,2,0,B|448:272|400:336,1,140,2|0
336,320,96999,1,2
256,320,97406,5,0
256,320,97610,1,2
256,320,97813,1,2
256,320,98016,1,2
256,240,98220,5,0
256,240,98423,1,2
256,240,98627,1,2
256,240,98830,1,2
256,160,99033,5,0
256,160,99237,1,2
256,160,99440,1,2
256,160,99643,1,2
256,80,99847,5,0
256,80,100050,1,2
256,80,100254,1,2
256,80,100457,1,2
176,80,100660,5,0
176,80,100864,1,2
176,80,101067,1,2
176,80,101271,1,2
176,160,101474,5,0
176,160,101677,1,2
176,160,101881,1,2
176,160,102084,1,2
176,240,102288,5,0
176,240,102491,1,2
176,240,102694,1,2
176,240,102898,1,2
176,320,103101,5,0
176,320,103304,1,2
176,320,103508,1,2
176,320,103711,1,2
256,192,103915,12,0,106355
256,320,110423,5,4
256,320,110626,1,0
256,192,110829,1,4
256,192,111032,1,0
256,64,111236,1,4
256,64,111439,1,0
400,64,111642,6,8,B|448:80|464:144|448:192,1,140,8|0
384,176,112252,1,0
320,160,112456,2,8,B|288:208|304:272|352:288,1,140,8|0
400,320,113066,1,0
344,360,113269,1,8
272,352,113472,1,0
208,336,113676,2,0,B|144:288,1,70,0|0
192,240,114082,1,8
128,224,114286,1,0
64,256,114489,5,0
48,224,114591,1,0
48,192,114692,1,0
64,160,114794,1,0
96,144,114896,2,0,B|128:112|192:112|192:120,1,70,8|0
208,168,115302,2,8,B|224:200|320:200|336:168,1,140,0|8
352,96,115912,1,0
392,40,116115,2,0,B|456:88,1,70,0|0
408,136,116522,2,0,B|472:184,1,70,8|0
416,224,116929,2,0,B|368:288,1,70,0|0
336,224,117335,2,0,B|288:288,1,70,8|0
256,224,117742,5,0
224,208,117844,1,0
192,208,117945,1,0
160,224,118047,1,0
144,256,118149,2,8,B|112:304|144:368|208:368,1,140,8|0
256,352,118759,1,0
304,304,118962,1,8
320,240,119165,1,0
256,192,119369,5,4
256,192,119572,1,0
160,96,119775,1,4
160,96,119979,1,0
352,96,120182,1,4
352,96,120385,1,0
448,192,120589,6,8,B|448:240|400:288|352:288,1,140
336,224,121199,1,0
304,160,121402,2,8,B|265:160|217:208|217:256,2,140
368,144,122418,1,0
416,96,122622,1,8
400,32,122825,1,0
336,16,123028,1,8
272,32,123232,1,0
208,48,123435,5,0
176,64,123537,1,0
160,96,123638,1,0
160,128,123740,1,0
176,160,123842,2,8,B|224:144|272:144|304:208,1,140
240,240,124452,2,0,B|176:272,1,70,0|0
224,320,124858,2,0,B|160:352,1,70,0|8
112,304,125265,2,0,B|48:272,1,70,0|0
96,224,125672,2,0,B|32:192,2,70,0|8|0
160,256,126282,2,8,B|208:256|256:208|256:160,1,140
256,144,126790,5,0
272,112,126891,1,0
304,96,126993,1,0
336,96,127095,2,8,B|384:112|448:96|464:48,2,140
272,80,128111,1,0
208,48,128315,6,0,B|208:128,1,70,8|0
144,128,128721,2,0,B|192:192,1,70,0|0
160,240,129128,2,0,B|240:240,1,70,8|0
240,304,129535,2,0,B|304:256,1,70,0|0
352,208,129941,6,0,B|432:208,1,70,0|0
448,144,130348,1,0
464,112,130450,1,0
464,80,130551,1,0
400,80,130755,2,8,B|336:80|288:112|272:160,1,140,0|8
240,192,131365,1,0
208,256,131568,2,8,B|192:304|128:336|80:320,1,140
96,208,132382,1,0
96,96,132788,1,0
304,48,133195,6,0,B|304:128,1,70,8|0
368,128,133602,2,0,B|320:192,1,70,0|0
352,240,134008,2,0,B|272:240,1,70,8|0
272,304,134415,2,0,B|208:256,1,70,0|0
160,208,134822,6,0,B|80:208,1,70,0|0
64,144,135229,1,0
48,112,135330,1,0
48,80,135432,1,0
112,80,135635,2,8,B|176:80|224:112|240:160,1,140,8|8
272,192,136245,1,0
312,248,136449,2,0,B|416:248,2,70
344,184,137059,2,0,B|344:88,1,70
344,48,137465,2,0,B|264:48,1,70
145,87,138076,6,0,B|218:121,1,70,8|0
245,63,138482,2,0,B|283:133,1,70,0|0
340,125,138889,2,0,B|306:197,1,70,8|0
364,224,139296,2,0,B|293:262,1,70,0|0
229,285,139702,6,0,B|196:358,1,70,0|0
131,345,140109,1,0
95,346,140211,1,0
66,333,140312,1,0
93,275,140516,2,8,B|120:217|169:187|220:192,1,140
262,177,141126,1,0
334,175,141329,2,8,B|384:181|440:136|446:86,3,140
331,86,142956,6,8,B|268:57|200:120,1,140,0|8
152,168,143566,1,0
208,208,143770,1,8
152,248,143973,1,8
208,288,144176,1,8
312,192,144583,2,8,B|336:162|381:161,1,70
392,232,144990,6,8,B|436:234|478:189,1,70
456,136,145396,2,8,B|472:72|424:24|376:32,1,140
392,104,146006,1,0
320,104,146210,1,8
184,104,146616,2,0,B|80:88|40:168|80:256|216:232,1,280
272,120,147837,6,0,B|314:74,2,35
280,192,148243,2,0,B|238:238,2,35
352,192,148650,1,0
344,264,148853,1,0
416,248,149057,1,0
416,112,149463,5,0
360,72,149667,1,0
296,40,149870,1,0
232,64,150074,1,0
176,104,150277,1,0
176,248,150684,1,4
32,128,151090,5,4
224,128,151497,1,4
224,320,151904,1,4
32,320,152310,1,4
224,320,152717,1,4
416,320,153124,1,4
416,128,153531,1,4
320,176,153937,5,0
256,152,154141,1,0
192,128,154344,1,0
80,192,154723,1,0
200,256,155129,1,0
344,256,155536,5,0
416,256,155739,1,0
416,184,155943,1,0
416,112,156146,2,0,B|408:67|351:64,2,70
352,136,156756,1,0
296,96,156960,1,0
240,136,157163,1,0
184,96,157367,1,0
128,136,157570,2,0,B|64:136|64:224|144:216,1,140
256,280,158384,5,0
296,224,158587,1,0
360,192,158790,2,0,B|416:168|416:112|360:88,1,140
224,48,159604,1,0
200,184,160011,5,0
144,144,160214,1,0
88,184,160417,1,0
144,224,160621,1,0
200,264,160824,1,0
256,216,161028,2,0,B|320:160,1,70
256,288,161638,2,0,B|304:288,2,35
256,176,162045,2,0,B|304:176,2,35
200,136,162451,6,0,B|184:104|136:104,1,70
72,112,162858,1,0
40,176,163061,1,0
72,240,163265,2,0,B|88:272|136:288,1,70
192,280,163672,2,0,B|224:264|272:296,3,70
320,320,164485,5,0
384,352,164689,1,0
448,320,164892,1,0
448,248,165095,1,0
392,208,165299,1,0
256,200,165706,1,0
256,200,165909,5,0
256,272,166112,2,0,B|256:344,1,70
256,272,166519,2,0,B|184:272,1,70
256,272,166926,2,0,B|256:192,1,70
256,128,167333,1,0
256,56,167536,1,0
328,56,167739,2,0,B|432:80|440:240|320:280,1,280
192,312,168986,6,0,B|104:312,1,70
120,240,169392,1,0
192,240,169596,1,0
192,168,169799,2,0,B|96:168,1,70
128,96,170206,1,0
200,96,170409,6,4,B|264:48,1,70
288,120,170816,2,4,B|352:184,1,70
272,200,171222,1,4
272,200,171426,1,4
272,272,171629,1,8
272,272,171833,1,8
176,168,172239,6,0,B|192:216|144:264|160:216,1,70
112,184,172646,2,0,B|76:189|35:159,1,70
48,96,173053,5,0
80,80,173154,1,0
112,72,173256,1,0
144,72,173358,1,0
176,80,173459,1,8
320,80,173866,5,0
390,96,174069,1,0
373,166,174273,1,0
303,150,174476,1,0
287,220,174680,1,0
357,236,174883,1,8
336,304,175086,2,0,B|240:288,1,70
200,280,175493,5,0
128,264,175696,1,0
64,240,175900,2,0,B|80:192|128:192,1,70
184,208,176306,1,0
160,144,176510,1,0
96,128,176713,2,0,B|96:96|144:80,1,70
208,64,177120,5,0
248,120,177323,1,0
296,64,177526,1,0
336,120,177730,1,0
384,64,177933,2,0,B|432:80|432:160|368:184,1,140
248,200,178747,6,0,B|328:200,1,70
296,264,179153,2,0,B|216:264,1,70
200,328,179560,2,0,B|296:328,1,70
344,328,179967,2,0,B|400:328|416:272,1,70
408,232,180373,5,0
413,163,180577,1,0
346,180,180780,1,0
352,111,180984,1,0
285,129,181187,1,0
290,60,181390,1,0
224,77,181594,1,8
96,96,182000,6,0,B|48:96|48:144,1,70
48,208,182407,1,8
304,160,182814,6,0,B|256:160|256:208,1,70
256,272,183220,1,8
480,224,183627,6,0,B|432:224|432:272,1,70
432,336,184034,1,8
368,320,184237,2,0,B|288:320,1,70
298,256,184644,2,8,B|368:256,1,70
368,192,185051,1,0
368,128,185254,6,0,B|368:80|320:32|256:48,1,140,0|8
208,48,185864,1,0
144,64,186067,1,0
112,80,186169,1,0
96,112,186271,1,0
96,144,186372,1,0
112,176,186474,1,8
176,192,186677,6,0,B|256:192,1,70,0|8
288,128,187084,2,0,B|320:192,1,70,0|8
384,208,187491,2,0,B|352:288,1,70,0|8
336,336,187898,1,2
336,336,188101,1,0
416,336,188508,6,0,B|432:304|416:256,1,70
400,208,188914,1,8
256,288,189321,6,0,B|272:256|256:208,1,70
240,160,189728,1,8
96,240,190135,6,0,B|112:208|96:160,1,70
80,112,190541,1,8
144,96,190745,2,0,B|176:80|224:96,1,70
272,112,191151,2,0,B|304:128|352:112,2,70,8|8|0
224,160,191761,6,0,B|192:208|208:272|256:288,1,140,0|8
304,304,192371,1,0
368,320,192575,1,0
400,320,192676,1,0
432,304,192778,1,0
448,272,192880,1,0
448,240,192982,1,8
416,176,193185,6,0,B|336:176,1,70,0|8
304,112,193592,2,0,B|272:176,1,70
208,192,193998,2,0,B|240:256,1,70,0|8
240,320,194405,1,2
240,320,194608,1,0
416,336,195015,6,0,B|432:304|416:256,1,70
400,208,195422,1,8
317,265,195828,6,0,B|309:230|266:204,1,70
223,177,196235,1,8
164,331,196642,6,0,B|155:296|112:270,1,70
69,243,197049,1,8
108,190,197252,2,0,B|122:157|169:139,1,70
216,120,197659,2,0,B|251:112|278:69,2,70,8|8|0
210,188,198269,6,0,B|217:245|270:284|317:265,1,140,0|8
364,246,198879,1,0
424,218,199082,1,0
448,197,199184,1,0
462,164,199286,1,0
454,129,199387,1,0
433,105,199489,1,8
368,76,199692,6,0,B|306:128,1,70,0|8
241,99,200099,2,0,B|257:169,1,70
219,222,200506,2,0,B|284:251,1,70,0|8
326,300,200912,1,2
326,300,201116,1,0
336,244,201522,6,0,B|318:213|269:200,1,70
220,187,201929,1,8
209,352,202336,6,0,B|190:321|142:308,1,70
93,296,202743,1,8
114,233,202946,2,0,B|118:198|158:166,1,70
197,135,203353,2,0,B|228:116|241:67,2,70,8|8|0
211,201,203963,6,0,B|234:254|296:275|336:244,1,140,0|8
456,192,204776,2,0,B|456:112|400:88|344:112|344:216,1,210
344,264,205589,1,0
312,328,205793,1,0
248,360,205996,1,0
184,328,206200,1,0
168,256,206403,2,0,B|176:208|131:169|121:191,1,70
96,240,206810,2,0,B|108:276|67:326,1,70
96,168,207420,5,8
120,144,207521,1,0
152,144,207623,1,4
