osu file format v9

[General]
AudioFilename: Nightwish - Last Ride Of The Day.mp3
AudioLeadIn: 0
PreviewTime: 80154
Countdown: 0
SampleSet: Normal
StackLeniency: 0.5
Mode: 0
LetterboxInBreaks: 1

[Editor]
DistanceSpacing: 0.8
BeatDivisor: 4
GridSize: 4

[Metadata]
Title:Last Ride Of The Day
Artist:Nightwish
Creator:Mercurius
Version:Insane
Source:
Tags:Finland Symphonic Power Metal Imaginaerum

[Difficulty]
HPDrainRate:7
CircleSize:4
OverallDifficulty:8
ApproachRate:8
SliderMultiplier:1.8
SliderTickRate:2

[Events]
//Background and Video events
0,0,"Nightwish - Last Ride Of The Day.jpg"
//Break Periods
2,106650,118638
//Storyboard Layer 0 (Background)
//Storyboard Layer 1 (Fail)
//Storyboard Layer 2 (Pass)
//Storyboard Layer 3 (Foreground)
//Storyboard Sound Samples
//Background Colour Transformations
3,100,158,158,158

[TimingPoints]
3117,370.37037037037,4,1,0,70,1,0
3117,-200,4,1,0,70,0,0
3217,-200,4,1,0,70,0,0
20894,-100,4,1,0,70,0,0
38579,-100,4,2,0,70,0,0
38672,-200,4,2,0,70,0,0
47839,-100,4,1,0,70,0,0
55246,-100,4,1,0,85,0,0
80154,-100,4,1,0,100,0,1
91913,-100,4,1,0,100,0,0
92005,-100,4,1,0,100,0,1
106450,-100,4,1,0,100,0,0
121542,-100,4,2,0,70,0,0
121635,-200,4,2,0,70,0,0
126079,-100,4,2,0,70,0,0
126172,-100,4,1,0,70,0,0
129691,-100,4,1,0,85,0,0
145339,-83.3333333333333,4,1,0,100,0,1
157098,-83.3333333333333,4,1,0,100,0,0
157191,-83.3333333333333,4,1,0,100,0,1
171728,-100,4,2,0,5,0,1
171913,-100,4,1,0,70,0,1
174968,-83.3333333333333,4,1,0,100,0,0

[Colours]
Combo1 : 185,185,255
Combo2 : 0,0,251
Combo3 : 134,134,255

[HitObjects]
112,52,3117,1,4
160,104,3487,2,0,B|103:174,1,90
232,240,4598,1,0
232,312,4783,1,0
296,276,4968,1,0
316,132,5709,5,0
388,140,6079,2,0,B|467:98,2,90,2|0|0
316,132,7191,1,0
172,152,7931,6,0,B|216:172|237:211,1,90
96,244,9042,1,0
156,284,9228,1,0
196,344,9413,1,0
288,236,10154,5,0
344,188,10524,2,0,B|430:213,2,90,2|0|0
376,172,11450,2,0,B|247:130,1,135,0|4
247,130,12191,5,4
148,84,12561,1,0
104,184,12931,1,0
104,184,13117,1,4
201,231,13487,2,0,B|308:220|355:302,1,180
355,302,14598,5,0
448,192,14968,1,2
336,100,15339,1,0
244,212,15709,1,0
355,302,16079,1,0
336,100,16450,5,4
336,100,16635,2,0,B|244:100,1,90,4|0
126,168,17376,1,0
126,168,17561,2,0,B|216:168,1,90,4|0
412,232,18302,6,0,B|322:232,1,90,0|4
286,232,18857,1,4
250,232,19042,1,4
192,272,19413,1,2
104,160,19783,1,0
224,80,20154,1,0
308,196,20524,1,0
396,80,20894,6,0,B|348:76|312:104,1,90,4|0
215,200,21265,2,0,B|263:204|300:176,1,90
196,80,21635,2,0,B|96:68|28:132,2,180
260,120,22561,1,0
316,168,22746,1,0
424,264,23116,5,0
424,264,23302,2,0,B|380:276|344:328,1,90
250,355,23672,2,0,B|292:276,1,90
292,275,24042,1,0
223,245,24228,6,0,B|204:176|125:165,1,135,4|0
88,164,24598,2,0,B|163:160|195:94,1,135,4|0
180,60,24968,2,0,B|268:120,1,90,4|0
352,220,25339,5,4
320,156,25524,1,0
364,100,25709,1,0
320,156,25894,2,0,B|260:232,1,90
224,164,26265,1,0
303,284,26450,2,0,B|224:340|132:317,1,180
108,292,26913,1,0
84,264,27005,1,0
36,212,27191,1,0
137,98,27561,6,0,B|136:144|96:175,1,90
212,92,27931,1,0
272,48,28116,1,0
344,64,28302,2,0,B|316:160,1,90
295,220,28672,2,4,B|307:315|403:351,2,180
428,168,29783,5,4
368,208,29968,1,0
296,220,30154,2,0,B|276:316,1,90
212,280,30524,1,0
184,260,30616,1,0
148,252,30709,1,0
100,200,30894,5,0
196,96,31265,1,0
148,148,31450,1,0
100,200,31635,1,0
240,164,32005,6,0,B|352:164,1,90
402,92,32376,2,0,B|312:92,1,90
312,236,32746,1,0
384,252,32931,1,0
242,252,33116,2,4,B|140:268|104:353,1,180
56,220,33857,6,0,B|32:156,1,45,4|0
96,196,34042,2,0,B|96:144,1,45
144,204,34228,1,4
264,128,34413,1,0
273,272,34598,2,0,B|320:292|361:277,1,90
449,163,34968,2,0,B|400:148|361:162,1,90
223,212,35339,2,0,B|140:256|48:231,2,180
236,180,36172,1,0
252,148,36265,1,0
352,104,36450,5,4
336,136,36542,1,0
320,168,36635,1,0
308,312,36820,2,0,B|372:292|384:232,1,90
236,292,37191,2,0,B|210:295|193:303,2,45
236,292,37561,5,4
132,196,37746,1,0
160,56,37931,1,0
264,156,38116,1,0
408,168,38302,1,4
268,204,38487,1,0
160,56,38672,5,0
160,56,39042,2,0,B|160:144,1,90
64,252,40154,1,0
128,284,40339,1,0
192,316,40524,1,0
256,188,41265,5,0
316,148,41635,2,0,B|360:168|404:154,1,90,2|0
195,148,42376,2,0,B|152:168|107:154,1,90,2|0
256,188,43116,1,0
212,324,43487,6,0,B|256:348|298:324,1,90,0|0
192,136,44598,1,0
256,104,44783,1,0
320,136,44968,1,0
452,192,45709,5,0
404,244,46079,2,0,B|312:244,1,90,2|0
184,184,46820,2,0,B|274:184,1,90,2|0
274,184,47561,1,0
360,68,47931,5,0
288,68,48116,1,0
224,32,48302,2,0,B|212:84|156:108,1,90,0|0
56,188,48672,5,0
128,188,48857,1,0
192,224,49042,2,0,B|204:172|260:148,2,90,2|0|0
176,292,49598,1,0
232,336,49783,6,0,B|332:284,1,90
280,48,50154,2,0,B|180:100,1,90,2|0
332,152,50524,2,0,B|424:176|448:276,2,180
332,152,51357,1,0
332,152,51450,1,0
192,124,51635,1,0
240,260,51820,1,0
100,228,52005,6,0,B|56:200|52:144,1,90,0|0
268,20,52376,2,0,B|312:48|316:104,1,90
300,346,52746,2,0,B|216:292|215:196,2,180,0|2|0
372,332,53672,1,0
416,276,53857,1,0
388,208,54042,6,0,B|388:116,1,90,0|2
272,32,54413,1,0
272,32,54598,2,0,B|272:128,1,90
268,192,54968,1,0
236,208,55061,1,0
204,224,55154,1,0
200,296,55339,5,4
100,192,55524,1,0
200,88,55709,1,4
300,192,55894,1,0
200,88,56079,1,4
100,192,56265,1,0
200,296,56450,5,4
300,192,56635,1,0
400,88,56820,2,0,B|444:112|447:159,1,90
424,188,57098,1,0
408,220,57191,2,0,B|476:292,1,90
328,304,57561,2,0,B|266:238,1,90,2|0
288,96,57931,6,0,B|320:60,1,45,0|0
248,76,58116,2,0,B|260:24,1,45
196,72,58302,1,0
120,196,58487,1,0
263,213,58672,6,0,B|244:304|149:343,2,180,2|0|0
336,224,59598,1,0
408,204,59783,2,0,B|372:136|396:68,1,135
412,40,60154,2,0,B|344:100|242:84,1,180
208,76,60616,1,0
176,60,60709,1,0
112,28,60894,5,4
20,140,61079,1,0
80,96,61265,2,0,B|116:128|108:177,1,90
67,315,61635,2,0,B|44:272|60:228,1,90
109,176,62005,2,0,B|192:84|300:104,1,180,2|0
304,100,62468,1,0
340,108,62561,1,0
376,120,62654,1,0
404,140,62746,1,0
324,252,62931,1,0
324,252,63116,1,2
196,184,63487,5,0
204,328,63857,1,0
76,260,64228,1,0
196,184,64598,5,0
204,328,64783,1,0
324,252,64968,1,0
196,184,65154,1,0
76,260,65339,1,4
318,100,65709,6,0,B|276:48|200:48,1,135,0|0
164,52,66079,1,0
120,124,66265,1,0
92,148,66357,1,0
64,172,66450,2,0,B|112:184|136:228,1,90,2|0
96,288,66820,2,0,B|192:344,1,90
337,261,67191,2,0,B|260:216,1,90
308,96,67561,5,2
340,112,67654,1,0
372,128,67746,1,0
243,127,67931,2,0,B|168:128|126:71,1,135
104,44,68302,1,0
140,184,68487,1,0
276,228,68672,2,0,B|368:272,1,90
236,340,69042,2,0,B|156:284|64:312,2,180,0|0|4
236,340,69968,5,0
304,316,70154,1,0
372,292,70339,1,0
440,268,70524,1,0
372,292,70709,2,0,B|412:376,1,90
340,228,71079,2,0,B|300:144,1,90
301,146,71357,1,0
301,146,71450,1,0
333,81,71635,6,0,B|376:104|376:160,1,90
232,136,72005,2,0,B|189:113|189:57,1,90,2|0
136,196,72376,2,0,B|168:288|92:360,2,180,0|0|4
120,164,73209,1,0
248,96,73394,1,0
252,132,73487,1,4
392,168,73672,1,4
284,264,73857,1,0
316,280,73950,1,0
348,296,74042,1,0
348,296,74228,6,0,B|320:328|264:332,1,90
116,235,74598,2,0,B|152:204|198:204,1,90
272,204,74968,1,0
340,184,75154,1,0
392,136,75339,1,0
420,68,75524,1,0
280,40,75709,5,0
220,80,75894,1,0
148,96,76079,1,0
76,88,76265,1,0
20,132,76450,2,0,B|86:192,1,90
152,164,76820,2,0,B|220:222,1,90
280,260,77191,5,0
280,260,77283,1,0
280,260,77376,1,0
384,232,77561,1,0
384,232,77654,1,0
384,232,77746,1,0
436,136,77931,1,0
436,136,78024,1,0
436,136,78117,1,0
384,40,78302,1,0
384,40,78394,1,0
384,40,78487,1,0
276,48,78672,6,0,B|252:88,3,45
276,112,79042,2,0,B|288:164,3,45
256,176,79413,1,0
244,208,79505,1,0
244,244,79598,1,0
216,268,79691,1,0
180,264,79783,1,0
144,276,79876,1,0
112,264,79968,1,0
88,236,80061,1,0
92,199,80154,6,0,B|116:156|104:112,1,90,4|0
419,184,80524,2,0,B|396:228|407:271,1,90
268,232,80894,2,0,B|224:310,1,90
244,152,81265,2,0,B|287:73,1,90,0|0
184,208,81635,2,0,B|81:219|51:312,2,180,2|0|0
256,200,82561,1,0
328,224,82746,1,0
376,280,82931,1,0
339,344,83117,6,0,B|288:344|260:308,1,90,2|0
320,100,83487,2,0,B|375:100|400:131,2,90
248,80,84042,1,0
108,48,84228,2,0,B|184:112,1,90
152,176,84598,2,0,B|250:203|250:309,1,180,2|0
392,340,85154,1,0
250,309,85339,1,0
108,340,85709,5,0
250,309,85894,1,0
348,200,86079,2,0,B|411:136,1,90,2|0
284,160,86450,2,0,B|212:232,2,90
288,56,87005,1,0
288,56,87191,2,0,B|224:119,1,90
96,52,87561,2,0,B|104:100|149:119,1,90,2|0
184,184,87931,2,0,B|144:278|43:274,2,180
288,84,88857,1,0
324,224,89042,5,2
324,224,89135,1,0
324,224,89228,1,0
260,256,89413,2,0,B|312:344,1,90
396,224,89783,1,2
396,224,89876,1,0
396,224,89968,1,0
456,184,90154,2,0,B|408:104,1,90
276,52,90524,6,0,B|200:100|112:88,1,135,2|0
116,72,90894,2,0,B|164:164,1,90,2|0
300,144,91265,1,2
276,172,91357,1,0
252,200,91450,1,0
224,224,91542,1,0
197,248,91635,2,0,B|240:248|279:276,1,90,2|0
416,328,92005,5,4
396,185,92191,1,0
279,100,92376,1,0
137,125,92561,1,0
72,292,92746,5,0
200,356,92931,1,0
336,316,93117,1,0
396,184,93302,1,0
415,40,93487,6,0,B|356:76|284:58,1,135,2|0
145,97,93857,2,0,B|192:148|266:148,1,135,2|0
352,184,94228,2,0,B|288:248,1,90,2|0
96,248,94598,5,0
128,264,94691,1,0
160,280,94783,1,0
192,296,94876,1,0
224,311,94968,2,0,B|272:296|312:305,1,90,2|0
287,72,95339,2,0,B|240:88|199:78,1,90
132,52,95709,5,0
216,168,95894,1,0
356,200,96079,1,0
484,136,96265,1,0
488,280,96450,2,0,B|380:268|329:342,1,180,2|0
268,296,97005,1,0
208,116,97191,5,0
204,152,97283,1,0
192,184,97376,1,0
164,208,97468,1,0
132,224,97561,2,0,B|196:300,1,90
321,231,97931,6,0,B|412:184|402:84,1,180,2|0
332,68,98487,1,0
309,136,98672,2,0,B|396:148|432:228,1,135
420,205,99042,1,0
312,300,99228,1,0
168,304,99413,5,2
136,240,99598,1,0
160,132,99783,5,0
192,196,99968,1,0
88,132,100154,5,0
56,68,100339,1,0
224,96,100524,6,0,B|268:112|312:97,1,90
452,64,100894,2,0,B|409:83|386:121,1,90,2|0
360,191,101265,2,0,B|419:259|392:361,2,180
288,176,102191,1,0
224,212,102376,2,0,B|148:236|88:192,1,135,2|0
88,160,102746,2,0,B|108:252,1,90,2|0
424,224,103117,2,0,B|404:132,1,90,2|0
220,36,103487,2,0,B|240:128,1,90,2|0
256,192,103857,12,4,106450
280,160,119413,5,0
316,168,119505,1,0
352,176,119598,1,0
388,184,119691,1,0
423,192,119783,2,0,B|408:236|417:280,1,90
273,328,120154,2,0,B|289:284|280:240,1,90
180,136,120524,5,4
44,184,120894,1,4
144,288,121265,1,4
280,240,121635,5,0
328,292,122005,2,0,B|416:240,1,90
420,104,123117,1,0
352,128,123302,1,0
284,152,123487,1,0
164,72,124228,5,0
112,120,124598,1,2
48,152,124968,2,0,B|84:184|80:232,2,90,0|2|0
48,152,126079,1,0
156,252,126450,5,0
256,212,126635,1,0
284,316,126820,1,0
384,272,127005,1,0
360,168,127191,2,0,B|412:92,1,90,2|0
328,24,127561,2,0,B|286:78|216:96,1,135
200,44,127931,2,0,B|176:136,1,90
84,184,128302,6,0,B|108:88,2,90,2|0|0
60,288,128857,1,0
164,256,129042,2,0,B|232:320|330:304,2,180,0|0|0
148,224,129876,1,0
136,192,129968,1,0
108,124,130154,1,4
244,72,130339,1,0
384,112,130524,5,4
404,140,130617,1,0
300,168,130802,1,0
272,192,130894,2,0,B|343:195|398:232,1,135
452,216,131265,2,0,B|400:304,1,90
272,344,131635,2,0,B|317:266,1,90,2|0
212,268,132005,2,0,B|120:300,2,90
228,236,132468,1,0
244,204,132561,1,0
260,172,132654,1,0
276,140,132746,1,2
380,112,132931,6,0,B|332:119|291:103,1,90
196,52,133302,1,0
88,60,133487,2,0,B|44:154|104:228,1,180
220,312,134042,1,0
188,172,134228,1,0
304,256,134413,1,0
272,116,134598,1,0
220,312,134783,1,0
388,208,134968,1,4
384,100,135154,5,0
384,100,135339,2,0,B|320:172,1,90
128,284,135709,2,0,B|192:212,1,90
288,256,136079,1,2
320,248,136172,1,0
352,240,136265,1,0
384,232,136357,1,0
416,224,136450,6,0,B|472:208,1,45
432,192,136635,2,0,B|464:156,1,45
404,156,136820,1,2
340,68,137005,5,0
232,84,137191,1,0
300,168,137376,2,0,B|288:215|253:242,1,90
109,266,137746,2,0,B|120:216|155:192,2,90
188,340,138302,6,0,B|280:340,1,90,4|0
406,212,138672,1,4
406,212,138765,1,0
406,212,138857,2,0,B|316:212,2,90,4|0|0
480,212,139413,5,0
388,104,139598,1,0
244,104,139783,1,0
336,212,139968,1,0
192,208,140154,5,0
56,256,140339,1,0
132,132,140524,1,0
136,276,140709,1,0
280,260,140894,5,0
320,120,141079,1,0
360,260,141265,1,0
256,160,141450,1,0
392,120,141635,5,0
260,64,141820,1,0
132,132,142005,1,0
136,276,142191,1,0
276,252,142376,6,0,B|340:332,1,90
428,216,142746,2,0,B|328:208,1,90
332,136,143117,2,0,B|381:60,1,90
236,64,143487,5,0
204,80,143579,1,0
204,116,143672,1,0
240,128,143765,1,0
260,96,143857,1,0
148,188,144042,5,0
140,224,144135,1,0
176,216,144228,1,0
316,256,144413,5,0
316,292,144505,1,0
284,276,144598,1,0
372,164,144783,5,0
388,172,144876,1,0
404,180,144968,1,0
420,188,145061,1,0
436,196,145154,1,0
452,204,145246,1,0
468,212,145339,6,0,B|420:244|408:304,1,108.000002574921,4|0
340,352,145709,2,0,B|296:316|236:312,1,108.000002574921
164,348,146079,2,0,B|116:240,1,108.000002574921
148,105,146450,2,0,B|192:204,1,108.000002574921
270,160,146820,2,0,B|396:192|454:87,2,216.000005149841,2|0|0
270,160,147654,1,0
270,160,147746,1,0
216,96,147931,1,0
132,88,148117,1,0
68,148,148302,6,0,B|100:196|88:251,1,108.000002574921,2|0
443,235,148672,2,0,B|412:188|423:132,1,108.000002574921
344,96,149042,1,0
308,72,149135,2,0,B|288:128|232:156,1,108.000002574921
200,136,149413,1,0
156,212,149598,1,0
328,224,149783,5,2
232,368,149968,1,0
232,368,150061,1,0
232,368,150154,1,0
156,212,150339,1,0
88,52,150524,1,0
128,64,150617,1,0
168,76,150709,1,0
208,88,150802,1,0
248,99,150894,2,0,B|292:68|350:79,1,108.000002574921
432,112,151265,6,0,B|340:173|355:301,1,216.000005149841,2|0
440,316,151820,1,0
460,232,152005,2,0,B|359:176|251:216,1,216.000005149841
251,216,152468,1,0
251,216,152561,1,0
112,316,152746,5,2
112,316,152931,2,0,B|148:212,1,108.000002574921
112,44,153302,1,0
112,44,153487,2,0,B|72:148,1,108.000002574921
147,213,153857,1,0
73,144,154042,1,0
216,48,154228,6,0,B|267:28|321:44,1,108.000002574921,2|0
456,152,154598,1,0
412,160,154691,1,0
368,156,154783,1,0
240,144,154968,2,0,B|185:128|134:150,1,108.000002574921,2|0
27,288,155339,2,0,B|83:303|133:279,1,108.000002574921
220,284,155709,5,2
264,292,155802,1,0
300,268,155894,1,0
344,264,155987,1,0
376,236,156079,2,0,B|432:208,3,54.0000012874604,2|0|0|0
404,172,156450,5,2
380,136,156542,1,0
336,128,156635,1,0
308,96,156728,1,0
268,84,156820,2,0,B|224:44,1,54.0000012874604,2|0
228,92,157005,2,0,B|168:96,1,54.0000012874604,2|0
132,88,157191,6,0,B|136:168|56:223,1,162.000003862381,4|0
16,208,157561,2,0,B|120:248,1,108.000002574921
196,208,157931,1,0
224,240,158024,1,0
352,232,158209,1,0
328,268,158302,1,0
260,320,158487,1,0
176,308,158672,5,2
176,308,158765,1,0
176,308,158857,1,0
344,344,159042,1,0
344,344,159135,1,0
344,344,159228,1,0
460,216,159413,1,0
460,216,159505,1,0
460,216,159598,1,0
360,76,159783,1,0
388,112,159876,2,0,B|336:104|281:124,1,108.000002574921
268,164,160154,6,0,B|208:56,1,108.000002574921,2|0
115,212,160524,2,0,B|169:305,2,108.000002574921
96,40,161079,2,0,B|149:133,1,108.000002574921
149,133,161450,1,0
201,203,161635,2,0,B|272:168|359:195,1,162.000003862381,2|0
396,216,162005,1,0
352,292,162191,1,0
312,308,162283,1,0
272,328,162376,1,0
188,308,162561,2,0,B|124:324,1,54.0000012874604
156,284,162746,2,0,B|100:276,1,54.0000012874604
136,248,162931,1,0
102,81,163117,6,0,B|168:132|256:120,1,162.000003862381,2|0
272,80,163487,2,0,B|312:180,1,108.000002574921
392,144,163857,1,0
232,212,164042,1,0
348,84,164228,1,0
300,248,164413,1,0
460,180,164598,5,2
344,308,164783,1,0
344,308,164876,1,0
344,308,164968,1,0
176,268,165154,1,0
324,180,165339,2,0,B|340:116|308:68,1,108.000002574921
143,36,165709,2,0,B|128:92|151:141,1,108.000002574921
212,304,166079,5,2
376,244,166265,1,0
212,192,166450,1,0
316,332,166635,1,0
312,160,166820,1,2
148,104,167005,1,0
316,56,167191,1,0
212,192,167376,1,0
208,20,167561,5,2
208,20,167654,1,0
208,20,167746,1,0
52,92,167931,1,2
52,92,168024,1,0
52,92,168117,1,0
132,248,168302,5,2
132,248,168394,1,0
132,248,168487,1,0
288,172,168672,1,2
288,172,168765,1,0
288,172,168857,1,0
256,192,169042,12,0,171820
256,192,172005,12,4,174968
