osu file format v14

[General]
AudioFilename: Nightwish.mp3
AudioLeadIn: 2500
PreviewTime: 68641
Countdown: 0
SampleSet: Soft
StackLeniency: 0.7
Mode: 0
LetterboxInBreaks: 0
CountdownOffset: 3
WidescreenStoryboard: 0

[Editor]
DistanceSpacing: 2
BeatDivisor: 4
GridSize: 4
TimelineZoom: 1.9

[Metadata]
Title:I Want My Tears Back
TitleUnicode:I Want My Tears Back
Artist:Nightwish
ArtistUnicode:Nightwish
Creator:tm1209
Version:Wonder
Source:
Tags:IMAGINAERUM Anette Olzon Emppu Vuorinen Marco Tapani Hietala Tuomas Holopainen Jukka "Julius" Nevalainen
BeatmapID:656534
BeatmapSetID:234748

[Difficulty]
HPDrainRate:5
CircleSize:4.3
OverallDifficulty:6.7
ApproachRate:8.2
SliderMultiplier:1.6
SliderTickRate:1

[Events]
//Background and Video events
0,0,"nightwish_imaginaerum___wallpapers_by_countessmorticia-d4lq2ld.png",0,0
//Break Periods
//Storyboard Layer 0 (Background)
//Storyboard Layer 1 (Fail)
//Storyboard Layer 2 (Pass)
//Storyboard Layer 3 (Foreground)
//Storyboard Sound Samples

[TimingPoints]
75,428.540818512963,4,1,1,30,1,0
5217,-100,4,1,1,75,0,0
5431,-100,4,1,1,20,0,0
5646,-100,4,1,1,80,0,0
5860,-100,4,1,1,20,0,0
6074,-100,4,1,1,85,0,0
6288,-100,4,1,1,20,0,0
6503,-100,4,1,1,90,0,0
6717,-100,4,1,1,20,0,0
6931,-100,4,1,1,100,0,0
7360,-100,4,2,1,60,0,0
8217,-100,4,2,1,65,0,0
9074,-100,4,2,1,70,0,0
9931,-100,4,2,1,60,0,0
10788,-100,4,1,1,60,0,0
13788,-100,4,1,1,80,0,0
14216,-100,4,1,1,60,0,0
20644,-100,4,1,1,80,0,0
21073,-100,4,2,1,60,0,0
21930,-100,4,2,1,65,0,0
22787,-100,4,2,1,70,0,0
23644,-100,4,2,1,75,0,0
27930,-100,4,2,1,70,0,0
28787,-100,4,2,1,65,0,0
32644,-100,4,3,1,60,0,0
32858,-100,4,3,1,65,0,0
33072,-100,4,3,1,70,0,0
33286,-100,4,3,1,75,0,0
33501,-100,4,3,1,80,0,0
33715,-100,4,1,1,85,0,0
33929,-100,4,1,1,90,0,0
34358,-100,4,3,1,60,0,0
40572,-100,4,1,1,75,0,0
40786,-100,4,3,1,75,0,0
41000,-100,4,1,1,75,0,0
41214,-100,4,2,1,50,0,0
41643,-100,4,1,1,50,0,0
55356,-100,4,1,1,55,0,0
68641,-83.3333333333333,4,2,1,90,0,1
68855,-83.3333333333333,4,2,1,65,0,1
79997,-83.3333333333333,4,3,1,70,0,1
80212,-83.3333333333333,4,3,1,80,0,1
80426,-83.3333333333333,4,3,1,90,0,1
80640,-83.3333333333333,4,2,1,60,0,1
81926,-83.3333333333333,4,1,1,60,0,0
82033,-83.3333333333333,4,1,1,65,0,0
82140,-83.3333333333333,4,1,1,70,0,0
82247,-83.3333333333333,4,1,1,75,0,0
82354,-83.3333333333333,4,2,1,90,0,1
82569,-83.3333333333333,4,2,1,60,0,1
93711,-83.3333333333333,4,3,1,65,0,1
93925,-83.3333333333333,4,3,1,70,0,1
94139,-83.3333333333333,4,3,1,75,0,1
94353,-83.3333333333333,4,2,1,60,0,1
96068,-100,4,2,1,50,0,0
109781,-100,4,2,1,80,0,1
110209,-100,4,2,1,50,0,0
121780,-100,4,3,1,60,0,0
121994,-100,4,3,1,65,0,0
122209,-100,4,3,1,70,0,0
122423,-100,4,3,1,75,0,0
122637,-100,4,2,1,80,0,0
122851,-100,4,2,1,85,0,0
123066,-100,4,2,1,90,0,0
123494,-100,4,2,1,75,0,0
123923,-100,4,2,1,50,0,0
137208,-83.3333333333333,4,2,1,90,0,1
137422,-83.3333333333333,4,3,1,60,0,1
148564,-83.3333333333333,4,3,1,70,0,1
148778,-83.3333333333333,4,3,1,80,0,1
148992,-83.3333333333333,4,3,1,90,0,1
149207,-83.3333333333333,4,2,1,60,0,1
150492,-83.3333333333333,4,1,1,60,0,0
150599,-83.3333333333333,4,1,1,65,0,0
150707,-83.3333333333333,4,1,1,70,0,0
150814,-83.3333333333333,4,1,1,75,0,0
150921,-83.3333333333333,4,2,1,90,0,1
151135,-83.3333333333333,4,2,1,60,0,1
162277,-83.3333333333333,4,3,1,70,0,1
162491,-83.3333333333333,4,3,1,80,0,1
162706,-83.3333333333333,4,3,1,90,0,1
162920,-83.3333333333333,4,2,1,60,0,1
164206,-83.3333333333333,4,1,1,60,0,0
164313,-83.3333333333333,4,1,1,65,0,0
164420,-83.3333333333333,4,1,1,70,0,0
164527,-83.3333333333333,4,1,1,75,0,0
164634,-83.3333333333333,4,1,1,90,0,1
164848,-83.3333333333333,4,2,1,60,0,1
175991,-83.3333333333333,4,3,1,70,0,1
176205,-83.3333333333333,4,3,1,80,0,1
176419,-83.3333333333333,4,3,1,90,0,1
176633,-83.3333333333333,4,2,1,60,0,1
178347,-100,4,2,1,50,0,0
192061,-100,4,1,1,75,0,1
192168,-100,4,1,1,75,0,0
192489,-100,4,2,1,35,0,0
192704,-100,4,2,1,45,0,0
195489,-100,4,1,1,65,0,0
195918,-100,4,1,1,35,0,0
196132,-100,4,2,1,45,0,0
197846,-100,4,2,1,50,0,0
198917,-100,4,1,1,55,0,0
199346,-100,4,1,1,50,0,0
199560,-100,4,2,1,40,0,0
202346,-100,4,1,1,60,0,0
202774,-100,4,1,1,55,0,0
202989,-100,4,2,1,45,0,0
205346,-100,4,2,1,60,0,0
205453,-100,4,2,1,30,0,0
205774,-83.3333333333333,4,1,1,80,0,1
206203,-83.3333333333333,4,2,1,80,0,0
209631,-83.3333333333333,4,1,1,50,0,0
209845,-83.3333333333333,4,2,1,50,0,0
212202,-83.3333333333333,4,2,1,70,0,0
212309,-83.3333333333333,4,2,1,40,0,0
212631,-83.3333333333333,4,1,1,80,0,0
213059,-83.3333333333333,4,2,1,80,0,0
216059,-83.3333333333333,4,1,1,80,0,0
216488,-83.3333333333333,4,2,1,80,0,0
216702,-83.3333333333333,4,2,1,60,0,0
219487,-100,4,2,1,50,0,0
224844,-100,4,2,1,55,0,0
225058,-100,4,2,1,50,0,0
225487,-100,4,2,1,55,0,0
226130,-100,4,2,1,50,0,0
231701,-100,4,2,1,65,0,0
231915,-100,4,2,1,50,0,0
232344,-100,4,2,1,65,0,0
233201,-100,4,1,1,55,0,0
233629,-100,4,1,1,50,0,0
233844,-100,4,2,1,40,0,0
236200,-100,4,2,1,60,0,0
236629,-100,4,2,1,90,0,1
237058,-100,4,2,1,90,0,0
239629,-100,4,2,1,75,0,0
239736,-100,4,2,1,55,0,0
240057,-83.3333333333333,4,2,1,90,0,0
246485,-83.3333333333333,4,2,1,75,0,0
246593,-83.3333333333333,4,2,1,55,0,0
246914,-83.3333333333333,4,2,1,90,0,0
253771,-66.6666666666667,4,2,1,100,0,1
256770,-66.6666666666667,4,2,1,100,0,0
257199,-66.6666666666667,4,2,1,100,0,1
260199,-100,4,2,1,50,0,0
260627,-100,4,3,1,50,0,0
262341,-100,4,3,1,60,0,0
262770,-100,4,3,1,70,0,0
263199,-100,4,3,1,80,0,0
263627,-100,4,3,1,90,0,0
264056,-83.3333333333333,4,2,1,90,0,1
264270,-83.3333333333333,4,2,1,60,0,1
275412,-83.3333333333333,4,3,1,70,0,1
275626,-83.3333333333333,4,3,1,80,0,1
275841,-83.3333333333333,4,3,1,90,0,1
276055,-83.3333333333333,4,2,1,60,0,1
277340,-83.3333333333333,4,1,1,60,0,0
277448,-83.3333333333333,4,1,1,65,0,0
277555,-83.3333333333333,4,1,1,70,0,0
277662,-83.3333333333333,4,1,1,75,0,0
277769,-83.3333333333333,4,2,1,90,0,1
277983,-83.3333333333333,4,2,1,60,0,1
289125,-83.3333333333333,4,3,1,70,0,1
289340,-83.3333333333333,4,3,1,80,0,1
289554,-83.3333333333333,4,3,1,90,0,1
289768,-83.3333333333333,4,2,1,60,0,1
291482,-100,4,2,1,50,0,0
303910,-100,4,2,1,60,0,0
304338,-100,4,2,1,70,0,0
304874,-100,4,1,1,45,0,0
304981,-100,4,1,1,40,0,0
305088,-100,4,1,1,35,0,0
305196,-133.333333333333,4,2,1,30,0,0
305624,-133.333333333333,4,2,1,20,0,0
305838,-133.333333333333,4,2,1,15,0,0
306053,-133.333333333333,4,2,1,10,0,0

[Colours]
Combo1 : 173,199,209
Combo2 : 166,176,162
Combo3 : 137,131,175

[HitObjects]
287,106,75,6,0,L|207:131,1,80
184,288,503,1,0,0:0:0:0:
332,348,717,2,0,L|412:323,1,80
468,220,1146,5,0,0:0:0:0:
464,200,1253,1,0,0:0:0:0:
461,180,1360,1,0,0:0:0:0:
457,160,1467,1,0,0:0:0:0:
454,141,1574,1,0,0:0:0:0:
450,121,1682,1,0,0:0:0:0:
447,101,1789,5,0,0:0:0:0:
337,51,2003,1,0,0:0:0:0:
246,128,2217,1,0,0:0:0:0:
133,88,2431,2,0,B|89:106|74:150,1,80
37,256,2860,1,0,0:0:0:0:
124,339,3074,2,8,B|169:353|209:329,1,80,2|0,2:2|0:0,0:0:0:0:
347,263,3503,6,8,L|334:342,1,80,2|0,2:2|0:0,0:0:0:0:
253,252,3931,1,0,0:0:0:0:
312,147,4146,2,0,L|325:68,1,80,2|0,2:2|0:0,0:0:0:0:
216,17,4574,5,0,0:0:0:0:
196,15,4681,1,0,0:0:0:0:
175,17,4788,1,0,0:0:0:0:
155,21,4896,1,0,0:0:0:0:
137,28,5003,1,0,0:0:0:0:
119,37,5110,1,0,0:0:0:0:
102,48,5217,6,0,B|71:78|73:123,1,80
55,279,5646,2,0,B|96:290|133:266,1,80
250,158,6074,2,0,L|235:239,1,80
321,371,6503,2,0,L|336:290,1,80
411,150,6931,1,4,0:0:0:0:
107,342,7360,5,0,1:0:0:0:
196,119,7574,1,0,0:0:0:0:
427,182,7788,1,0,3:3:0:0:
176,347,8217,1,0,1:0:0:0:
257,175,8431,1,0,0:0:0:0:
443,214,8645,1,0,3:3:0:0:
245,352,9074,1,0,1:0:0:0:
316,227,9288,1,0,0:0:0:0:
459,246,9502,1,0,3:3:0:0:
315,358,9931,1,0,1:1:0:0:
373,274,10145,1,0,0:0:0:0:
475,278,10359,1,0,3:3:0:0:
466,120,10788,6,0,B|424:42|331:28,1,160,0|0,0:0|3:3,2:0:0:0:
39,140,11645,2,0,B|81:218|174:232,2,160,0|0|0,1:1|3:3|1:1,0:0:0:0:
341,30,12931,1,0,3:3:0:0:
182,69,13145,1,0,3:3:0:0:
165,230,13359,1,0,1:1:0:0:
466,120,13788,1,4,0:1:0:0:
226,129,14216,6,0,B|206:168|164:184,1,80,0|0,1:1|2:2,0:0:0:0:
128,63,14645,1,0,3:3:0:0:
226,129,15073,2,0,B|220:173|186:202,1,80,0|0,1:1|2:0,3:0:0:0:
128,63,15502,1,0,3:3:0:0:
226,129,15931,2,0,B|236:172|214:210,1,80,0|0,1:1|2:0,3:0:0:0:
128,63,16359,1,0,3:3:0:0:
226,129,16788,2,0,B|250:164|243:209,1,80,0|0,1:1|2:0,3:0:0:0:
128,63,17216,1,0,3:3:0:0:
420,193,17645,6,0,B|490:143|483:46,1,160,0|0,1:1|3:3,0:0:0:0:
201,205,18502,2,0,B|131:255|137:352,1,160,0|0,1:1|3:3,0:0:0:0:
271,254,19145,2,0,B|293:218|283:177,1,80,0|0,1:1|1:1,0:0:0:0:
153,270,19573,1,0,1:1:0:0:
299,334,19787,2,0,B|335:356|376:346,2,80,0|8|4,3:3|0:3|0:0,0:0:0:0:
173,39,20644,1,4,1:1:0:0:
484,112,21073,5,0,1:1:0:0:
484,112,21287,1,0,0:2:0:0:
484,112,21502,1,0,3:3:0:0:
338,302,21930,1,0,1:1:0:0:
338,302,22144,1,0,0:2:0:0:
338,302,22359,1,0,3:3:0:0:
104,248,22787,1,0,1:1:0:0:
104,248,23001,1,0,0:2:0:0:
104,248,23216,1,0,3:3:0:0:
105,88,23644,6,0,B|113:42|157:29,1,80,0|0,1:1|0:0,0:0:0:0:
184,106,24073,2,0,B|250:155|262:245,2,160,0|0|0,3:3|1:1|3:3,0:0:0:0:
503,88,25358,2,0,B|495:42|451:29,1,80,0|0,1:1|0:0,0:0:0:0:
424,106,25787,2,0,B|358:155|346:245,2,160,0|0|0,3:3|1:1|3:3,0:0:0:0:
462,219,26858,1,0,3:3:0:0:
400,321,27073,6,0,P|363:337|323:334,1,80,0|0,1:1|0:0,0:0:0:0:
224,211,27501,1,4,3:2:0:0:
40,308,27930,2,0,P|44:267|67:234,1,80,0|0,1:1|0:0,0:0:0:0:
224,211,28358,1,0,3:3:0:0:
231,3,28787,2,0,P|263:27|280:63,1,80,0|0,1:1|0:0,0:0:0:0:
224,211,29215,1,0,3:3:0:0:
429,84,29644,5,0,1:1:0:0:
461,199,29858,1,0,2:2:0:0:
378,62,30072,1,0,3:3:0:0:
376,263,30287,1,0,2:2:0:0:
327,40,30501,1,0,1:1:0:0:
292,197,30715,1,0,2:2:0:0:
276,18,30929,6,0,B|231:0|190:19,2,80,0|0|2,1:1|1:1|0:0,0:0:0:0:
238,132,31572,1,0,0:0:0:0:
136,195,31787,2,0,B|46:180|9:104,1,160,4|0,2:2|1:1,0:0:0:0:
276,18,32644,5,0,3:3:0:0:
312,131,32858,1,8,3:3:0:0:
216,60,33072,1,8,3:3:0:0:
336,61,33286,1,0,3:3:0:0:
238,132,33501,1,8,3:3:0:0:
276,18,33715,1,0,1:1:0:0:
312,131,33929,1,0,1:1:0:0:
418,270,34358,6,4,B|374:275|337:250,1,80,4|8,0:0|3:3,3:3:0:0:
279,201,34786,1,4,3:3:0:0:
238,132,35001,1,4,3:3:0:0:
418,270,35215,5,0,3:3:0:0:
381,286,35322,1,0,3:3:0:0:
342,293,35429,1,0,3:3:0:0:
259,349,35643,1,4,3:3:0:0:
161,329,35858,1,8,3:3:0:0:
105,246,36072,5,4,3:3:0:0:
72,88,36286,1,4,3:3:0:0:
6,233,36500,2,0,L|1:279,2,40,8|8|4,3:3|3:3|3:3,0:0:0:0:
146,155,36929,5,4,3:3:0:0:
64,172,37143,1,0,1:1:0:0:
151,37,37358,1,4,3:3:0:0:
229,99,37572,1,0,1:1:0:0:
312,185,37786,6,4,B|358:194|391:164,1,80,4|4,0:0|0:0,3:3:0:0:
442,107,38215,1,8,3:3:0:0:
463,29,38429,1,4,3:3:0:0:
312,185,38643,5,8,0:0:0:0:
346,165,38750,1,8,0:0:0:0:
368,131,38857,1,8,0:0:0:0:
362,11,39072,1,4,3:3:0:0:
229,99,39286,1,8,3:3:0:0:
312,185,39500,5,4,3:3:0:0:
268,339,39715,1,4,3:3:0:0:
208,191,39929,2,0,L|173:168,2,40,4|4|4,3:3|3:3|3:3,0:0:0:0:
343,277,40357,1,4,3:3:0:0:
184,285,40572,1,0,1:1:0:0:
312,185,40786,1,4,3:3:0:0:
343,277,41000,1,0,1:1:0:0:
437,144,41214,1,4,0:0:0:0:
137,31,41643,6,0,B|48:59|43:151,1,160,0|0,1:1|3:3,0:0:0:0:
44,310,42286,1,0,2:2:0:0:
169,153,42500,1,0,1:1:0:0:
28,230,42714,1,0,2:2:0:0:
210,313,42929,1,0,3:3:0:0:
407,282,43143,1,0,2:2:0:0:
494,102,43357,6,0,B|442:33|350:33,1,160,0|0,1:1|3:3,0:0:0:0:
195,25,44000,1,0,2:2:0:0:
221,143,44214,1,0,1:1:0:0:
64,113,44428,1,0,2:2:0:0:
221,143,44643,1,0,3:3:0:0:
72,277,44857,1,0,2:2:0:0:
231,287,45071,6,0,B|233:337|203:369,2,80,0|0|0,1:1|2:2|3:3,0:0:0:0:
136,156,45714,1,0,2:2:0:0:
258,53,45928,1,0,1:1:0:0:
458,67,46143,1,0,2:2:0:0:
487,183,46357,6,0,B|498:225|478:267,1,80,0|0,3:3|2:2,0:0:0:0:
378,325,46785,1,0,1:1:0:0:
349,209,47000,2,0,B|338:167|358:125,1,80,0|0,3:3|3:3,0:0:0:0:
458,67,47428,1,0,3:3:0:0:
303,26,47643,1,0,1:1:0:0:
194,143,47857,1,0,2:2:0:0:
39,102,48071,6,0,B|14:193|76:256,2,160,0|0|0,3:3|1:1|3:3,0:0:0:0:
194,143,49142,1,0,2:2:0:0:
215,301,49357,1,0,1:1:0:0:
292,209,49571,1,0,2:2:0:0:
313,367,49785,1,0,3:3:0:0:
458,300,50000,1,0,2:2:0:0:
492,144,50214,6,0,B|488:101|443:76,1,80,0|0,0:2|2:2,0:0:0:0:
351,94,50642,1,0,3:3:0:0:
250,28,50857,1,0,2:2:0:0:
237,227,51071,1,0,1:1:0:0:
117,66,51285,1,0,2:2:0:0:
24,196,51499,1,0,3:3:0:0:
210,122,51714,1,0,2:2:0:0:
411,138,51928,6,0,B|490:174|505:267,1,160,0|0,1:1|3:3,0:0:0:0:
382,366,52571,1,0,2:2:0:0:
224,332,52785,2,0,B|145:296|130:203,2,160,0|0|0,1:1|3:3|1:1,0:0:0:0:
358,245,53856,2,0,B|388:213|381:167,2,80,0|0|0,2:2|3:3|2:2,0:0:0:0:
260,176,54499,2,0,B|253:134|283:102,1,80,0|0,1:1|3:3,0:0:0:0:
378,70,54928,1,0,1:1:0:0:
260,176,55142,1,0,2:2:0:0:
358,245,55356,6,0,B|298:326|208:286,1,160,0|0,1:1|3:3,0:0:0:0:
170,177,55999,1,0,2:2:0:0:
97,272,56213,2,0,B|90:318|115:355,1,80,0|0,1:1|2:2,0:0:0:0:
215,288,56642,1,0,3:3:0:0:
354,367,56856,1,0,2:2:0:0:
486,158,57070,6,0,B|471:116|431:98,1,80,0|0,1:1|2:2,0:0:0:0:
314,207,57499,2,0,B|357:215|393:189,1,80,0|0,3:3|2:2,0:0:0:0:
358,34,57928,2,0,B|329:67|333:111,1,80,0|0,1:1|2:2,0:0:0:0:
486,158,58356,1,0,3:3:0:0:
389,285,58570,1,0,2:2:0:0:
271,264,58785,5,0,1:1:0:0:
181,343,58999,1,0,2:2:0:0:
53,245,59213,2,0,B|21:273|19:319,1,80,0|0,3:3|2:2,0:0:0:0:
159,239,59642,2,0,B|191:211|193:165,1,80,0|0,1:1|2:2,0:0:0:0:
74,153,60070,6,0,L|115:70,1,80,0|0,3:3|2:2,0:0:0:0:
270,79,60499,2,0,L|340:34,1,80,0|0,3:1|3:3,0:0:0:0:
416,176,60927,1,0,2:2:0:0:
278,257,61142,1,0,3:3:0:0:
437,259,61356,2,0,B|480:249|495:207,2,80,0|0|0,1:1|3:3|3:3,0:0:0:0:
248,191,61999,1,0,2:2:0:0:
260,32,62213,6,0,B|170:28|117:100,1,160,0|0,1:1|3:3,0:0:0:0:
29,228,62856,1,0,2:2:0:0:
125,356,63070,2,0,B|162:377|211:372,1,80,0|0,0:0|2:2,0:0:0:0:
358,338,63499,1,0,3:3:0:0:
191,229,63713,1,0,2:2:0:0:
350,218,63927,6,0,B|430:168|428:83,2,160,0|0|0,1:1|3:3|1:1,0:0:0:0:
191,229,64998,1,0,2:2:0:0:
82,346,65213,5,0,3:3:0:0:
110,188,65427,2,0,B|131:145|178:138,1,80,0|0,2:2|1:1,0:0:0:0:
288,168,65856,1,0,2:2:0:0:
306,177,65963,1,0,2:2:0:0:
325,183,66070,2,0,B|372:191|403:164,1,80,0|0,3:3|2:2,0:0:0:0:
488,30,66498,2,0,B|441:22|410:49,1,80,0|0,1:1|2:2,0:0:0:0:
401,166,66927,5,0,3:3:0:0:
269,120,67141,2,0,B|236:153|243:198,1,80,0|0,1:1|3:3,0:0:0:0:
284,296,67570,1,0,0:0:0:0:
252,302,67677,1,0,0:0:0:0:
218,300,67784,1,0,1:1:0:0:
186,288,67891,1,0,1:1:0:0:
160,269,67998,1,0,1:1:0:0:
44,299,68212,1,0,3:3:0:0:
27,180,68427,1,0,1:1:0:0:
27,180,68534,1,0,1:1:0:0:
27,180,68641,6,0,B|33:126|75:98,1,95.9999970703126,4|0,1:1|1:1,0:0:0:0:
209,50,69070,1,0,1:1:0:0:
194,170,69284,1,0,1:1:0:0:
313,158,69498,2,0,B|358:74,1,95.9999970703126,0|0,1:1|3:3,3:3:0:0:
194,170,69927,2,0,B|191:228|240:257,1,95.9999970703126,0|0,1:1|2:2,0:0:0:0:
313,311,70355,6,0,B|276:357|222:352,1,95.9999970703126,4|0,1:1|2:2,0:0:0:0:
195,350,70677,1,0,2:2:0:0:
162,340,70784,1,0,1:1:0:0:
23,379,70998,1,0,0:0:0:0:
66,267,71212,1,0,3:3:0:0:
233,250,71427,1,0,2:2:0:0:
400,349,71641,2,0,B|456:339|476:291,1,95.9999970703126,0|0,1:1|2:2,0:0:0:0:
424,108,72069,6,0,L|393:208,1,95.9999970703126,4|0,1:1|2:2,0:0:0:0:
392,229,72391,1,0,2:2:0:0:
392,258,72498,1,0,1:1:0:0:
504,167,72712,1,0,2:2:0:0:
352,48,72926,2,0,B|389:8|444:16,2,95.9999970703126,0|0|0,1:1|3:3|1:1,0:0:0:0:
289,178,73569,1,0,2:2:0:0:
281,206,73676,1,0,2:2:0:0:
273,234,73784,5,4,1:1:0:0:
202,298,73998,1,0,2:2:0:0:
106,298,74212,2,0,B|31:229|61:118,1,191.999994140625,0|0,1:1|3:3,0:0:0:0:
219,12,74855,1,0,2:2:0:0:
309,125,75069,1,0,1:1:0:0:
166,106,75283,1,0,2:2:0:0:
406,86,75498,6,0,B|481:155|451:266,1,191.999994140625,4|0,1:1|1:1,0:0:0:0:
442,291,76033,1,0,3:3:0:0:
429,316,76140,1,0,3:3:0:0:
347,196,76355,2,0,B|315:158|263:154,1,95.9999970703126,0|0,3:3|3:3,0:0:0:0:
189,305,76783,2,0,B|274:248,1,95.9999970703126,0|0,1:1|3:3,0:0:0:0:
216,70,77212,6,0,B|168:100|168:152,1,95.9999970703126,4|0,1:1|2:2,0:0:0:0:
168,149,77533,1,0,2:2:0:0:
168,149,77640,1,0,1:1:0:0:
197,263,77855,1,0,2:2:0:0:
378,328,78069,2,0,B|346:366|294:370,1,95.9999970703126,0|0,3:3|3:3,0:0:0:0:
197,263,78497,5,0,1:1:0:0:
197,263,78712,1,0,2:2:0:0:
197,263,78926,2,0,B|180:367,1,95.9999970703126,4|0,1:1|0:0,0:0:0:0:
110,179,79355,2,0,B|127:75,1,95.9999970703126,0|0,1:1|3:3,0:0:0:0:
252,153,79783,5,4,1:1:0:0:
252,153,79997,1,4,3:3:0:0:
383,95,80212,1,4,3:3:0:0:
383,95,80426,1,4,3:3:0:0:
204,25,80640,6,0,B|96:0|21:74,1,191.999994140625,4|0,1:1|3:3,0:0:0:0:
141,155,81283,1,0,1:1:0:0:
282,177,81497,2,0,P|290:224|277:270,1,95.9999970703126,4|0,1:0|0:0,0:0:0:0:
253,273,81819,1,0,3:3:0:0:
229,276,81926,1,0,1:1:0:0:
205,279,82033,1,0,1:1:0:0:
181,282,82140,1,0,1:1:0:0:
157,285,82247,1,0,1:1:0:0:
133,288,82354,6,0,B|109:337|57:340,1,95.9999970703126,4|0,1:1|2:2,0:0:0:0:
21,200,82783,1,0,1:1:0:0:
21,200,82890,1,0,2:2:0:0:
21,200,82997,1,0,2:2:0:0:
26,55,83211,2,0,B|52:5|106:7,1,95.9999970703126,0|0,3:3|3:3,0:0:0:0:
284,72,83640,2,0,B|258:122|204:120,1,95.9999970703126,0|0,1:1|2:2,0:0:0:0:
110,107,84069,6,0,B|126:203,1,95.9999970703126,4|0,1:1|2:2,0:0:0:0:
130,226,84390,1,0,2:2:0:0:
134,250,84497,1,0,1:1:0:0:
23,342,84711,1,0,2:2:0:0:
163,372,84926,2,0,B|221:364|242:310,1,95.9999970703126,0|0,3:3|2:2,0:0:0:0:
257,175,85354,2,0,B|313:175|341:218,1,95.9999970703126,0|0,1:1|2:2,0:0:0:0:
428,299,85783,6,0,L|462:209,1,95.9999970703126,4|0,1:1|2:2,0:0:0:0:
470,177,86104,1,0,2:2:0:0:
472,143,86211,1,0,1:1:0:0:
386,24,86425,1,0,2:2:0:0:
293,136,86640,2,0,B|330:173|385:169,2,95.9999970703126,0|0|0,3:3|3:3|1:1,0:0:0:0:
243,26,87283,1,0,2:2:0:0:
243,26,87390,1,0,2:2:0:0:
243,26,87497,5,4,1:1:0:0:
386,24,87711,1,0,2:2:0:0:
441,156,87925,2,0,B|450:208|431:259,1,95.9999970703126,0|0,1:1|2:2,0:0:0:0:
321,337,88354,1,0,3:3:0:0:
306,305,88461,1,0,2:2:0:0:
291,273,88568,1,0,3:3:0:0:
152,239,88782,1,0,1:1:0:0:
10,300,88997,1,0,3:3:0:0:
152,335,89211,6,0,L|152:233,1,95.9999970703126,4|0,1:1|2:2,0:0:0:0:
236,193,89640,1,0,1:1:0:0:
291,273,89854,1,0,2:2:0:0:
165,343,90068,6,0,L|165:241,1,95.9999970703126,0|0,1:1|2:2,0:0:0:0:
181,103,90497,1,0,1:1:0:0:
236,193,90711,1,0,2:2:0:0:
417,127,90925,6,0,B|473:128|499:174,1,95.9999970703126,4|0,1:1|2:2,0:0:0:0:
498,172,91247,1,0,2:2:0:0:
498,172,91354,1,0,1:1:0:0:
418,223,91568,1,0,2:2:0:0:
420,320,91782,6,0,B|363:318|337:272,1,95.9999970703126,0|0,3:3|3:3,0:0:0:0:
182,162,92211,1,0,1:1:0:0:
185,66,92425,1,0,3:3:0:0:
279,91,92639,6,0,B|262:195,1,95.9999970703126,4|0,1:1|2:2,0:0:0:0:
324,370,93068,2,0,B|341:266,1,95.9999970703126,0|0,1:1|2:2,0:0:0:0:
102,315,93496,5,0,1:1:0:0:
102,315,93711,1,4,3:3:0:0:
237,366,93925,1,4,3:3:0:0:
237,366,94139,1,4,3:3:0:0:
287,230,94353,5,4,1:1:0:0:
287,230,94461,1,0,2:2:0:0:
287,230,94568,1,0,2:2:0:0:
430,255,94782,2,0,B|484:248|504:194,1,95.9999970703126,0|0,1:1|2:2,0:0:0:0:
434,17,95211,5,0,3:3:0:0:
290,17,95425,1,0,3:3:0:0:
326,131,95639,1,0,1:1:0:0:
349,130,95746,1,0,2:0:0:0:
373,136,95853,1,0,3:3:0:0:
394,146,95961,1,0,2:0:0:0:
413,161,96068,5,4,1:1:0:0:
343,228,96282,1,0,1:1:0:0:
373,322,96496,1,2,1:2:0:0:
472,322,96710,1,0,3:3:0:0:
502,228,96925,1,0,3:3:0:0:
322,345,97139,5,0,3:3:0:0:
295,352,97246,1,0,3:3:0:0:
267,357,97353,1,2,1:2:0:0:
239,358,97460,1,0,2:2:0:0:
211,358,97568,1,0,3:3:0:0:
183,355,97675,1,0,3:3:0:0:
156,349,97782,6,0,L|94:293,1,80,0|0,1:1|3:3,0:0:0:0:
415,295,98210,2,0,L|353:351,1,80,2|0,1:2|0:0,0:0:0:0:
159,212,98639,2,0,L|133:132,1,80,0|0,1:1|0:0,0:0:0:0:
377,135,99067,2,0,L|351:214,1,80,2|0,1:2|0:0,0:0:0:0:
256,83,99496,5,4,1:1:0:0:
361,24,99710,1,0,0:0:0:0:
256,83,99925,1,2,1:2:0:0:
151,24,100139,1,0,0:0:0:0:
37,64,100353,1,0,0:0:0:0:
13,182,100567,5,0,0:0:0:0:
14,198,100674,1,0,0:0:0:0:
16,214,100782,1,2,1:2:0:0:
17,230,100889,1,0,0:0:0:0:
18,246,100996,1,0,0:0:0:0:
19,262,101103,1,0,0:0:0:0:
21,278,101210,6,0,L|83:345,1,80,4|0,1:1|0:0,0:0:0:0:
229,294,101639,2,0,L|316:321,1,80,0|0,1:1|0:0,3:0:0:0:
411,197,102067,2,0,L|500:176,1,80,0|0,1:1|0:0,0:0:0:0:
367,76,102496,1,4,1:1:0:0:
340,72,102603,1,0,0:0:0:0:
311,73,102710,1,0,0:0:0:0:
283,76,102817,1,0,0:0:0:0:
256,83,102924,5,4,2:2:0:0:
151,24,103139,1,0,0:0:0:0:
256,83,103353,1,2,1:2:0:0:
361,24,103567,1,0,0:0:0:0:
475,64,103781,1,0,0:0:0:0:
499,182,103996,5,0,0:0:0:0:
498,198,104103,1,0,0:0:0:0:
496,214,104210,1,2,1:2:0:0:
495,230,104317,1,0,0:0:0:0:
494,246,104424,1,0,0:0:0:0:
493,262,104531,1,0,0:0:0:0:
491,278,104638,6,0,L|461:356,1,80
404,202,105067,2,0,L|374:280,1,80,2|0,1:2|3:3,0:0:0:0:
242,364,105496,2,0,L|272:286,1,80,0|0,3:3|3:3,0:0:0:0:
155,289,105924,2,0,L|185:211,1,80,2|0,1:2|2:2,0:0:0:0:
68,213,106353,5,4,1:1:0:0:
77,333,106567,1,0,3:3:0:0:
184,214,106781,1,0,1:1:0:0:
46,133,106995,1,0,3:3:0:0:
65,14,107210,1,0,1:1:0:0:
185,10,107424,5,0,3:3:0:0:
200,14,107531,1,0,0:0:0:0:
215,18,107638,1,0,1:1:0:0:
230,22,107745,1,0,3:3:0:0:
245,26,107853,1,0,3:3:0:0:
260,30,107960,1,0,3:3:0:0:
275,34,108067,6,0,B|317:48|337:85,1,80,4|0,1:1|0:0,0:0:0:0:
456,96,108495,2,0,B|453:140|422:169,1,80,4|0,1:1|0:0,0:0:0:0:
444,286,108924,2,0,B|400:294|364:272,1,80,4|0,1:1|0:0,0:0:0:0:
341,260,109245,1,0,1:1:0:0:
313,255,109352,1,0,1:1:0:0:
285,261,109460,1,0,1:1:0:0:
256,277,109567,1,0,1:1:0:0:
249,249,109674,1,0,1:1:0:0:
242,221,109781,5,4,1:1:0:0:
160,38,110209,6,0,B|120:14|76:30,1,80,0|0,1:1|2:2,0:0:0:0:
240,153,110638,1,0,3:3:0:0:
160,38,111067,2,0,B|114:38|84:72,1,80,0|0,1:1|2:2,0:0:0:0:
240,153,111495,1,0,3:3:0:0:
160,38,111924,2,0,B|120:60|110:105,1,80,0|0,1:1|2:2,0:0:0:0:
240,153,112352,1,0,3:3:0:0:
427,345,112781,5,0,1:1:0:0:
427,345,112995,1,0,0:0:0:0:
427,345,113209,2,0,B|483:285|479:194,2,160,0|0|0,3:3|1:1|3:3,0:0:0:0:
364,30,114495,1,0,1:1:0:0:
364,30,114709,1,0,0:0:0:0:
364,30,114923,2,0,B|307:89|311:180,2,160,0|0|0,3:3|1:1|3:3,0:0:0:0:
467,332,116209,6,0,B|436:301|391:300,1,80,0|0,1:1|0:0,0:0:0:0:
280,335,116638,1,4,3:2:0:0:
398,197,117066,2,0,B|355:196|321:227,1,80,0|0,1:1|0:3,0:3:0:0:
280,335,117495,1,0,3:3:0:0:
255,150,117923,2,0,B|224:179|221:225,1,80,0|0,1:1|0:3,0:3:0:0:
280,335,118352,1,0,3:3:0:0:
88,114,118780,5,0,1:0:0:0:
150,216,118995,1,0,0:0:0:0:
186,81,119209,1,0,3:0:0:0:
252,225,119423,1,0,0:0:0:0:
284,48,119637,1,0,1:0:0:0:
354,234,119852,1,0,0:0:0:0:
378,92,120066,6,8,B|400:59|382:15,2,80,4|4|0,3:2|1:2|1:1,3:3:0:0:
284,48,120709,1,0,0:0:0:0:
295,151,120923,2,4,B|358:221|443:171,1,160,4|0,3:1|1:1,3:1:0:0:
163,10,121780,5,0,3:3:0:0:
60,71,121994,1,8,3:3:0:0:
23,185,122209,2,0,L|11:269,1,80,8|0,3:3|0:0,0:0:0:0:
128,295,122637,2,0,L|116:379,2,80
323,39,123494,1,4,0:0:0:0:
438,337,123923,6,0,B|505:275|485:183,1,160,0|0,1:1|3:3,0:0:0:0:
424,43,124566,1,0,2:2:0:0:
402,161,124780,1,0,1:1:0:0:
503,96,124994,1,0,2:2:0:0:
343,89,125208,1,0,3:3:0:0:
205,8,125423,1,0,2:2:0:0:
63,81,125637,6,0,B|5:146|25:233,1,160,0|0,1:1|3:3,0:0:0:0:
124,297,126280,1,0,0:0:0:0:
180,192,126494,1,0,1:1:0:0:
331,244,126708,1,0,2:2:0:0:
298,128,126923,1,0,3:3:0:0:
427,34,127137,1,0,2:2:0:0:
427,34,127244,1,0,2:2:0:0:
427,34,127351,6,0,B|469:14|514:25,1,80,0|0,1:1|3:3,0:0:0:0:
510,135,127780,1,0,3:3:0:0:
411,187,127994,2,0,B|369:207|324:196,1,80,0|0,2:2|1:1,0:0:0:0:
256,58,128422,1,0,2:2:0:0:
101,187,128637,6,0,B|143:207|188:196,2,80,0|0|0,3:3|2:2|1:1,0:0:0:0:
261,181,129280,2,0,B|267:230|236:259,1,80,0|0,3:3|2:2,0:0:0:0:
137,320,129708,1,0,3:3:0:0:
324,348,129922,2,0,B|284:377|243:365,1,80,0|0,1:1|3:3,0:0:0:0:
137,320,130351,1,4,3:2:0:0:
18,305,130565,1,0,2:2:0:0:
110,228,130779,6,0,B|226:114,1,160,0|0,1:1|3:3,0:0:0:0:
133,38,131422,1,0,2:2:0:0:
251,22,131637,2,0,B|295:35|313:77,1,80,0|0,1:1|2:2,0:0:0:0:
329,232,132065,2,0,B|285:219|266:177,1,80,0|0,3:3|2:2,0:0:0:0:
224,116,132494,5,0,1:1:0:0:
360,135,132708,1,0,2:2:0:0:
450,55,132922,1,0,3:3:0:0:
463,175,133136,1,0,2:2:0:0:
463,175,133244,1,0,2:2:0:0:
463,175,133351,2,0,L|471:258,1,80,0|0,1:1|2:2,0:0:0:0:
365,376,133779,2,0,L|357:293,1,80,0|0,3:3|2:2,0:0:0:0:
255,233,134208,5,0,1:1:0:0:
251,353,134422,1,0,2:2:0:0:
251,353,134529,1,0,2:2:0:0:
251,353,134636,2,0,B|173:372,1,80,0|0,3:3|2:2,0:0:0:0:
51,267,135065,2,0,B|129:248,1,80,0|0,1:1|2:2,0:0:0:0:
202,103,135493,5,0,3:3:0:0:
359,129,135708,1,0,1:1:0:0:
239,24,135922,2,0,B|196:6|159:28,1,80,0|0,3:3|3:3,0:0:0:0:
65,141,136350,1,0,1:1:0:0:
65,141,136458,1,0,1:1:0:0:
65,141,136565,1,4,2:2:0:0:
256,202,136779,1,0,1:1:0:0:
447,141,136993,1,0,1:1:0:0:
447,141,137100,1,0,1:1:0:0:
447,141,137208,6,0,B|443:86|403:56,1,95.9999970703126,4|0,1:1|1:1,0:0:0:0:
272,4,137636,1,0,1:1:0:0:
301,120,137850,1,0,1:1:0:0:
182,105,138065,2,0,B|132:14,1,95.9999970703126,0|0,1:1|3:3,3:3:0:0:
301,120,138493,2,0,B|295:179|251:206,1,95.9999970703126,0|0,1:1|2:2,0:0:0:0:
179,253,138922,6,0,B|216:299|270:294,1,95.9999970703126,4|0,1:1|2:2,0:0:0:0:
295,293,139243,1,0,2:2:0:0:
327,285,139350,1,0,1:1:0:0:
465,327,139565,1,0,0:0:0:0:
424,214,139779,1,0,3:3:0:0:
256,202,139993,1,0,3:3:0:0:
86,291,140207,2,0,B|30:279|12:230,1,95.9999970703126,0|0,1:1|2:2,0:0:0:0:
77,104,140636,6,0,L|103:199,1,95.9999970703126,4|0,1:1|2:2,0:0:0:0:
102,196,140957,1,0,2:2:0:0:
102,196,141064,1,0,1:1:0:0:
175,134,141279,1,0,2:2:0:0:
148,42,141493,2,0,B|111:2|56:10,2,95.9999970703126,0|0|0,3:3|3:3|1:1,0:0:0:0:
175,134,142136,1,0,2:2:0:0:
182,161,142243,1,0,2:2:0:0:
190,189,142350,5,4,1:1:0:0:
263,312,142564,1,0,3:3:0:0:
406,298,142779,2,0,B|481:229|451:118,1,191.999994140625,0|0,1:1|3:3,0:0:0:0:
293,12,143421,1,0,3:3:0:0:
203,125,143636,1,0,1:1:0:0:
346,106,143850,1,0,3:3:0:0:
106,86,144064,6,0,B|31:155|61:266,1,191.999994140625,4|0,1:1|1:1,0:0:0:0:
70,291,144600,1,0,2:2:0:0:
83,316,144707,1,0,2:2:0:0:
209,205,144921,2,0,B|251:164|308:177,1,95.9999970703126,0|0,3:3|3:3,0:0:0:0:
354,334,145350,2,0,B|297:318|280:262,1,95.9999970703126,0|0,1:1|3:3,0:0:0:0:
399,149,145778,6,0,B|413:205|373:248,1,95.9999970703126,4|0,1:1|2:2,0:0:0:0:
380,240,146100,1,0,2:2:0:0:
380,240,146207,1,0,1:1:0:0:
209,205,146421,1,0,2:2:0:0:
146,333,146635,2,0,B|97:315|80:265,1,95.9999970703126,0|0,3:3|3:3,0:0:0:0:
176,100,147064,5,0,1:1:0:0:
176,100,147278,1,0,3:3:0:0:
176,100,147493,2,0,B|145:2,1,95.9999970703126,4|0,1:1|0:0,0:0:0:0:
56,177,147921,2,0,B|86:274,1,95.9999970703126,0|0,1:1|3:3,0:0:0:0:
262,341,148350,5,4,1:1:0:0:
262,341,148564,1,4,3:3:0:0:
347,226,148778,1,4,3:3:0:0:
347,226,148992,1,4,3:3:0:0:
211,178,149207,6,0,B|102:163|41:257,1,191.999994140625,4|0,1:1|3:3,0:0:0:0:
64,370,149850,1,0,1:1:0:0:
172,317,150064,2,0,B|138:221,1,95.9999970703126,4|0,1:1|3:3,0:0:0:0:
133,205,150385,1,0,3:3:0:0:
125,184,150492,1,0,1:1:0:0:
118,162,150599,1,0,1:1:0:0:
110,140,150707,1,0,1:1:0:0:
101,120,150814,1,0,1:1:0:0:
90,101,150921,6,0,B|66:52|14:49,1,95.9999970703126,4|0,1:1|2:2,0:0:0:0:
8,169,151349,1,0,1:1:0:0:
14,197,151457,1,0,2:2:0:0:
20,225,151564,1,0,2:2:0:0:
71,334,151778,2,0,B|105:378|158:367,1,95.9999970703126,0|0,3:3|3:3,0:0:0:0:
324,275,152206,2,0,B|289:230|236:241,1,95.9999970703126,0|0,1:1|2:2,0:0:0:0:
145,270,152635,6,0,B|161:174,1,95.9999970703126,4|0,1:1|2:2,0:0:0:0:
165,151,152956,1,0,2:2:0:0:
169,127,153064,1,0,1:1:0:0:
43,56,153278,1,0,3:3:0:0:
184,26,153492,2,0,B|242:34|263:88,1,95.9999970703126,0|0,3:3|2:2,0:0:0:0:
257,219,153921,2,0,B|314:228|350:182,1,95.9999970703126,0|0,3:1|3:3,3:0:0:0:
473,126,154349,6,0,L|484:223,1,95.9999970703126,4|0,1:1|2:2,0:0:0:0:
468,252,154671,1,0,2:2:0:0:
450,280,154778,1,0,1:1:0:0:
301,360,154992,1,0,2:2:0:0:
206,246,155206,2,0,B|243:208|298:211,2,95.9999970703126,0|0|0,2:3|2:3|2:1,2:0:0:0:
157,355,155849,1,0,2:2:0:0:
157,355,155956,1,0,2:2:0:0:
157,355,156063,5,4,1:1:0:0:
301,360,156278,1,0,2:2:0:0:
356,228,156492,2,0,B|400:198|403:134,1,95.9999970703126,0|0,3:3|2:2,0:0:0:0:
288,59,156920,1,0,3:3:0:0:
283,94,157028,1,0,2:2:0:0:
278,129,157135,1,0,3:3:0:0:
134,150,157349,1,0,1:1:0:0:
3,77,157563,1,0,3:3:0:0:
143,55,157778,6,0,B|134:156,1,95.9999970703126,4|0,1:1|2:2,3:0:0:0:
211,209,158206,1,0,1:1:0:0:
168,295,158420,1,0,2:2:0:0:
125,68,158635,6,0,B|116:169,1,95.9999970703126,0|0,1:1|3:3,3:0:0:0:
254,123,159063,1,0,1:1:0:0:
211,209,159277,1,0,3:3:0:0:
264,362,159492,6,0,B|312:389|358:362,1,95.9999970703126,4|0,1:1|2:2,0:0:0:0:
356,363,159813,1,0,2:2:0:0:
356,363,159920,1,0,1:1:0:0:
490,313,160134,1,0,2:2:0:0:
487,169,160349,2,0,B|431:159|397:200,1,95.9999970703126,0|0,3:3|3:3,0:0:0:0:
312,282,160777,5,0,1:1:0:0:
312,282,160992,1,0,3:3:0:0:
312,282,161206,2,0,B|305:177,1,95.9999970703126,4|0,1:1|2:2,0:0:0:0:
404,20,161634,2,0,B|411:125,1,95.9999970703126,0|0,1:1|2:2,0:0:0:0:
218,105,162063,5,4,1:1:0:0:
218,105,162277,1,4,3:3:0:0:
74,97,162491,1,4,3:3:0:0:
74,97,162706,1,4,3:3:0:0:
16,230,162920,5,4,3:1:0:0:
21,254,163027,1,0,2:2:0:0:
26,278,163134,1,0,2:2:0:0:
139,367,163349,2,8,B|192:374|226:327,1,95.9999970703126,0|0,3:3|2:2,0:0:0:0:
287,201,163777,5,0,3:3:0:0:
352,329,163991,1,0,3:3:0:0:
420,230,164206,1,0,1:1:0:0:
422,211,164313,1,0,1:1:0:0:
423,192,164420,1,0,1:1:0:0:
425,172,164527,1,0,1:1:0:0:
426,153,164634,5,4,1:1:0:0:
299,83,164848,2,0,B|244:75|208:113,1,95.9999970703126,0|0,0:0|1:1,0:0:0:0:
210,110,165170,1,0,2:2:0:0:
210,110,165277,1,0,2:2:0:0:
121,223,165491,2,0,B|111:124,1,95.9999970703126,0|0,3:3|3:3,0:0:0:0:
8,26,165920,2,0,B|18:125,1,95.9999970703126,0|0,1:1|2:2,0:0:0:0:
52,261,166348,6,0,B|81:308|137:301,1,95.9999970703126,4|0,1:1|0:0,0:0:0:0:
133,301,166670,1,0,2:2:0:0:
133,301,166777,1,0,1:1:0:0:
254,293,166991,1,0,3:3:0:0:
336,206,167205,2,0,B|377:180|429:194,1,95.9999970703126,0|0,3:3|3:3,0:0:0:0:
450,360,167634,2,0,B|406:337|393:285,1,95.9999970703126,0|0,1:1|3:3,0:0:0:0:
499,126,168063,6,0,B|447:129|411:89,1,95.9999970703126,4|0,1:1|0:0,0:0:0:0:
381,27,168384,1,0,2:2:0:0:
381,27,168491,2,0,L|366:126,1,95.9999970703126,0|0,1:1|0:0,0:0:0:0:
295,130,168812,1,0,0:0:0:0:
295,130,168920,2,0,L|280:229,1,95.9999970703126,0|0,3:3|2:2,0:0:0:0:
209,233,169241,1,0,0:0:0:0:
209,233,169348,2,0,L|194:332,1,95.9999970703126,0|0,1:1|2:2,0:0:0:0:
123,336,169670,1,0,2:2:0:0:
123,336,169777,5,4,1:1:0:0:
133,193,169991,1,0,2:2:0:0:
215,75,170205,2,0,B|169:36|117:50,1,95.9999970703126,0|0,1:1|2:2,3:0:0:0:
20,105,170634,1,0,3:3:0:0:
20,105,170741,1,0,3:2:0:0:
20,105,170848,1,0,3:3:0:0:
133,193,171062,1,0,1:1:0:0:
15,277,171277,1,0,3:3:0:0:
159,277,171491,6,0,B|215:262|220:202,1,95.9999970703126,4|0,1:1|0:0,0:0:0:0:
314,193,171919,1,0,1:1:0:0:
253,118,172134,1,0,2:2:0:0:
167,289,172348,6,0,B|223:274|228:214,1,95.9999970703126,0|0,1:1|0:0,0:0:0:0:
253,118,172776,1,0,1:3:0:0:
192,43,172991,1,0,0:3:0:0:
381,75,173205,6,0,B|430:99|444:153,1,95.9999970703126,4|0,1:1|2:2,0:0:0:0:
442,146,173526,1,0,3:3:0:0:
442,146,173634,1,0,1:1:0:0:
417,287,173848,1,0,2:2:0:0:
281,242,174062,2,0,B|228:226|183:256,1,95.9999970703126,0|0,3:3|0:0,0:0:0:0:
65,328,174491,5,0,1:1:0:0:
65,328,174705,1,0,3:3:0:0:
65,328,174919,2,0,B|30:228,1,95.9999970703126,4|0,1:1|2:2,0:0:0:0:
142,78,175348,2,0,B|176:177,1,95.9999970703126,0|0,1:1|2:2,0:0:0:0:
311,212,175776,5,4,1:1:0:0:
311,212,175991,1,4,3:3:0:0:
448,170,176205,1,4,3:3:0:0:
448,170,176419,1,4,3:3:0:0:
315,114,176633,5,4,1:1:0:0:
315,114,176740,1,0,2:2:0:0:
315,114,176848,1,0,2:2:0:0:
343,304,177062,2,0,B|292:324|248:288,1,95.9999970703126,0|0,3:1|3:2,3:0:0:0:
180,165,177490,5,0,3:3:0:0:
255,72,177705,1,0,3:3:0:0:
111,70,177919,1,0,1:1:0:0:
87,76,178026,1,0,2:2:0:0:
67,89,178133,1,0,3:3:0:0:
51,106,178240,1,0,2:2:0:0:
40,128,178347,6,0,L|14:207,1,80,4|0,1:1|0:0,0:0:0:0:
14,324,178776,1,2,1:2:0:0:
130,349,178990,2,0,L|156:270,1,80,0|0,0:0|1:1,0:0:0:0:
251,346,179419,5,0,3:3:0:0:
274,351,179526,1,0,3:3:0:0:
298,353,179633,1,2,1:2:0:0:
322,350,179740,1,0,3:3:0:0:
345,345,179847,1,0,3:3:0:0:
367,336,179955,1,0,3:3:0:0:
388,324,180062,5,0,3:3:0:0:
421,208,180276,1,0,0:0:0:0:
305,241,180490,1,2,1:2:0:0:
280,123,180704,2,0,B|271:78|231:54,1,80
165,155,181133,1,0,2:2:0:0:
49,187,181347,2,0,B|58:232|98:256,1,80,6|0,1:2|2:2,2:2:0:0:
197,308,181776,5,4,0:0:0:0:
324,211,181990,1,0,0:0:0:0:
279,364,182204,1,0,1:2:0:0:
226,213,182419,1,0,0:0:0:0:
357,304,182633,1,0,0:0:0:0:
500,234,182847,5,0,3:3:0:0:
499,218,182954,1,0,3:3:0:0:
497,202,183061,1,2,1:2:0:0:
496,186,183169,1,0,3:3:0:0:
495,170,183276,1,0,3:3:0:0:
494,154,183383,1,0,3:3:0:0:
492,138,183490,6,0,P|481:100|451:67,1,80,0|0,3:3|0:0,0:0:0:0:
295,58,183919,2,0,P|256:67|216:58,1,80,0|0,1:1|0:0,0:0:0:0:
57,69,184347,2,0,P|31:99|20:138,1,80,4|0,3:2|0:0,0:0:0:0:
193,186,184776,1,0,1:1:0:0:
205,188,184883,1,0,2:2:0:0:
217,190,184990,1,0,2:2:0:0:
229,192,185097,1,0,2:2:0:0:
241,194,185204,6,0,B|285:201|313:235,1,80,4|0,0:0|0:0,0:0:0:0:
357,343,185633,1,2,1:2:0:0:
242,376,185847,2,0,B|198:369|170:335,1,80,0|0,0:0|3:3,0:0:0:0:
97,244,186275,5,0,3:3:0:0:
100,242,186383,1,0,3:3:0:0:
103,240,186490,1,2,1:2:0:0:
106,238,186597,1,0,3:3:0:0:
109,236,186704,1,0,3:3:0:0:
112,234,186811,1,0,3:3:0:0:
115,232,186918,5,0,3:3:0:0:
88,113,187133,1,0,0:0:0:0:
202,149,187347,1,2,1:2:0:0:
229,266,187561,2,0,B|235:314|280:333,1,80,0|0,0:0|3:3,0:0:0:0:
343,232,187990,1,0,0:0:0:0:
413,331,188204,2,0,B|452:308|459:263,1,80,4|0,1:0|0:0,0:0:0:0:
477,149,188632,5,4,1:1:0:0:
381,76,188847,1,0,3:3:0:0:
343,232,189061,1,0,1:1:0:0:
220,334,189275,1,0,3:3:0:0:
176,221,189490,1,0,1:1:0:0:
227,111,189704,5,0,0:0:0:0:
225,105,189811,1,0,0:0:0:0:
223,99,189918,1,2,1:2:0:0:
221,93,190025,1,0,3:3:0:0:
219,87,190132,1,0,3:3:0:0:
217,81,190239,1,0,3:3:0:0:
215,75,190347,6,8,B|181:45|138:52,1,80,0|0,1:1|3:3,0:0:0:0:
95,204,190775,2,8,B|135:188|152:148,1,80,4|0,1:1|3:3,0:0:0:0:
44,36,191204,2,8,B|36:78|62:112,1,80,0|0,1:1|3:3,0:0:0:0:
187,233,191632,1,0,1:1:0:0:
187,233,191739,1,0,1:1:0:0:
187,233,191847,1,0,1:1:0:0:
187,233,191954,1,0,1:1:0:0:
187,233,192061,5,4,1:1:0:0:
256,192,192275,2,0,P|266:233|258:269,1,80,4|0,1:1|0:0,0:0:0:0:
295,340,192704,6,0,L|337:353,6,40
385,306,193561,2,0,L|427:319,6,40
473,265,194418,5,0,0:0:0:0:
473,265,194525,1,0,0:0:0:0:
473,265,194632,2,0,L|494:180,1,80
439,80,195061,2,0,L|418:165,1,80
325,233,195489,5,4,1:1:0:0:
256,192,195703,2,0,P|246:233|254:269,1,80,4|0,1:1|0:0,0:0:0:0:
217,340,196132,6,0,L|175:353,6,40
127,306,196989,2,0,L|85:319,6,40
39,265,197846,5,0,0:0:0:0:
39,265,197953,1,0,0:0:0:0:
39,265,198060,2,0,L|18:180,1,80
73,80,198489,2,0,L|94:165,1,80,0|0,1:1|0:0,0:0:0:0:
186,233,198917,5,4,1:1:0:0:
232,299,199132,1,4,1:1:0:0:
152,306,199346,1,8,1:1:0:0:
39,265,199560,6,0,L|24:219,1,40
102,201,199775,2,0,L|87:155,1,40
165,137,199989,1,0,0:0:0:0:
158,117,200096,1,0,0:0:0:0:
152,98,200203,1,8,1:1:0:0:
266,212,200417,6,0,L|251:166,1,40
329,148,200632,2,0,L|314:102,1,40
392,84,200846,1,0,0:0:0:0:
386,65,200953,1,0,0:0:0:0:
380,46,201060,1,8,1:1:0:0:
493,159,201274,6,0,L|478:113,1,40
430,184,201489,2,0,B|416:227|378:245,1,80
219,237,201917,2,0,B|233:194|271:176,1,80,8|0,1:1|0:0,0:0:0:0:
430,184,202346,5,4,1:1:0:0:
345,269,202560,1,4,1:1:0:0:
269,176,202774,1,8,1:1:0:0:
255,296,202989,6,0,L|257:339,1,40
178,321,203203,2,0,L|166:363,1,40
98,316,203417,2,0,L|72:351,1,40
24,285,203631,1,8,1:1:0:0:
38,46,203846,6,0,L|66:14,1,40
110,83,204060,2,0,L|148:61,1,40
163,143,204274,2,0,L|206:136,1,40
194,218,204488,1,8,1:1:0:0:
314,220,204703,5,0,0:0:0:0:
314,220,204810,1,0,0:0:0:0:
314,220,204917,2,0,B|359:218|385:188,1,80
397,29,205346,5,2,2:2:0:0:
365,32,205453,1,2,2:2:0:0:
336,45,205560,1,2,2:2:0:0:
316,70,205667,1,2,2:2:0:0:
305,100,205774,5,4,1:1:0:0:
392,270,205988,1,4,1:1:0:0:
205,120,206203,1,12,1:1:0:0:
71,172,206417,5,0,0:0:0:0:
63,200,206524,1,0,0:0:0:0:
59,228,206631,2,0,L|64:278,1,47.9999985351563,4|0,1:1|0:0,0:0:0:0:
132,295,206845,2,0,L|137:345,1,47.9999985351563
205,362,207060,1,12,1:1:0:0:
205,362,207274,5,0,0:0:0:0:
213,334,207381,1,0,0:0:0:0:
217,306,207488,2,0,L|212:256,1,47.9999985351563,4|0,1:1|0:0,0:0:0:0:
144,239,207703,2,0,L|139:189,1,47.9999985351563
71,172,207917,1,12,1:1:0:0:
258,126,208131,6,0,L|306:145,1,47.9999985351563
340,80,208345,2,0,B|377:43|434:51,1,95.9999970703126,4|0,1:1|0:0,0:0:0:0:
505,227,208774,2,0,B|468:264|411:256,1,95.9999970703126,12|0,1:1|0:0,0:0:0:0:
434,161,209202,5,4,1:1:0:0:
459,351,209417,1,4,1:1:0:0:
508,116,209631,1,8,1:1:0:0:
389,33,209845,6,0,L|338:25,1,47.9999985351563
333,98,210060,1,4,1:1:0:0:
312,110,210167,1,0,0:0:0:0:
289,118,210274,1,0,0:0:0:0:
266,122,210381,1,0,0:0:0:0:
242,121,210488,1,12,1:1:0:0:
106,75,210702,6,0,L|58:60,1,47.9999985351563
41,131,210917,1,4,1:1:0:0:
28,151,211024,1,0,0:0:0:0:
20,174,211131,1,0,0:0:0:0:
16,197,211238,1,0,0:0:0:0:
17,221,211345,1,12,1:1:0:0:
112,329,211559,6,0,L|105:274,1,47.9999985351563
184,338,211774,2,0,B|228:363|286:347,1,95.9999970703126,4|0,1:1|0:0,0:0:0:0:
465,293,212202,5,2,2:2:0:0:
468,259,212309,1,2,2:2:0:0:
465,226,212416,1,2,2:2:0:0:
457,193,212524,1,2,2:2:0:0:
443,163,212631,5,4,1:1:0:0:
331,6,212845,1,4,1:1:0:0:
350,245,213059,1,12,1:1:0:0:
209,216,213274,6,0,L|223:166,1,47.9999985351563
193,103,213488,2,0,L|207:53,4,47.9999985351563,4|0|0|0|12,1:1|0:0|0:0|0:0|1:1,0:0:0:0:
56,149,214131,6,0,L|42:199,1,47.9999985351563
72,262,214345,2,0,L|58:312,4,47.9999985351563,4|0|0|0|12,1:1|0:0|0:0|0:0|1:1,0:0:0:0:
233,154,214988,6,0,L|267:113,1,47.9999985351563
323,158,215202,2,0,B|378:166|401:209,1,95.9999970703126,4|0,1:1|0:0,0:0:0:0:
217,264,215631,2,0,B|162:256|139:213,1,95.9999970703126,12|0,1:1|0:0,0:0:0:0:
183,75,216059,5,4,1:1:0:0:
217,264,216273,1,4,1:1:0:0:
258,28,216488,1,12,1:1:0:0:
396,66,216702,5,0,0:0:0:0:
413,95,216809,1,0,0:0:0:0:
423,126,216916,2,0,L|429:177,4,47.9999985351563,4|0|0|0|12,1:1|0:0|0:0|0:0|1:1,0:0:0:0:
328,234,217559,5,0,0:0:0:0:
311,263,217666,1,0,0:0:0:0:
301,294,217773,2,0,L|295:345,4,47.9999985351563,4|0|0|0|12,1:1|0:0|0:0|0:0|1:1,0:0:0:0:
162,160,218416,5,0,0:0:0:0:
166,172,218523,1,0,0:0:0:0:
170,184,218630,1,4,1:1:0:0:
84,301,218845,2,0,L|38:274,1,47.9999985351563
60,206,219059,2,0,B|37:155|62:108,1,95.9999970703126,4|0,1:1|0:0,0:0:0:0:
253,160,219487,22,0,B|299:159|328:128,1,80,6|0,0:0|0:0,0:0:0:0:
248,40,219916,1,2,0:0:0:0:
408,41,220130,1,0,0:0:0:0:
422,54,220237,1,0,0:0:0:0:
433,71,220344,1,0,0:0:0:0:
441,89,220452,1,0,0:0:0:0:
445,109,220559,2,0,L|424:191,1,80,0|4,0:0|1:1,0:0:0:0:
464,342,220987,1,0,0:0:0:0:
436,348,221094,1,0,0:0:0:0:
408,352,221202,6,0,B|363:354|330:322,1,80
261,229,221630,1,2,0:0:0:0:
152,178,221844,1,0,0:0:0:0:
132,177,221952,1,0,0:0:0:0:
112,180,222059,1,0,0:0:0:0:
93,186,222166,1,0,0:0:0:0:
75,194,222273,2,0,L|26:266,1,80,0|4,0:0|1:1,0:0:0:0:
170,337,222701,1,0,0:0:0:0:
195,348,222809,1,0,0:0:0:0:
222,352,222916,22,0,B|266:367|306:347,1,80,4|0,0:0|0:0,0:0:0:0:
367,249,223344,1,2,0:0:0:0:
477,202,223559,1,0,0:0:0:0:
484,183,223666,1,0,0:0:0:0:
488,164,223773,1,0,0:0:0:0:
488,144,223880,1,0,0:0:0:0:
484,124,223987,2,0,L|452:51,1,80,0|4,0:0|1:1,0:0:0:0:
338,92,224416,5,0,0:0:0:0:
244,18,224630,1,0,0:0:0:0:
134,66,224844,1,0,0:0:0:0:
134,66,224951,1,0,0:0:0:0:
134,66,225058,2,0,L|68:123,1,80
36,232,225487,1,0,0:0:0:0:
36,232,225594,1,0,0:0:0:0:
147,278,225808,1,0,0:0:0:0:
147,278,225916,1,2,0:0:0:0:
253,224,226130,1,0,0:0:0:0:
253,224,226237,1,0,0:0:0:0:
253,224,226344,22,0,B|299:225|328:256,1,80,4|0,0:0|0:0,0:0:0:0:
248,344,226773,1,2,0:0:0:0:
408,343,226987,1,0,0:0:0:0:
422,330,227094,1,0,0:0:0:0:
433,313,227201,1,0,0:0:0:0:
441,295,227308,1,0,0:0:0:0:
445,275,227415,2,0,L|424:193,1,80,0|4,0:0|1:1,0:0:0:0:
464,42,227844,1,0,0:0:0:0:
436,36,227951,1,0,0:0:0:0:
408,32,228058,6,0,B|363:30|330:62,1,80
261,155,228487,1,2,0:0:0:0:
152,206,228701,1,0,1:0:0:0:
132,207,228808,1,0,0:0:0:0:
112,204,228915,1,0,0:0:0:0:
93,198,229022,1,0,0:0:0:0:
75,190,229130,2,0,L|26:118,1,80,0|4,0:0|1:1,0:0:0:0:
170,47,229558,1,0,0:0:0:0:
195,36,229665,1,0,0:0:0:0:
222,32,229772,22,0,B|266:17|306:37,1,80,4|0,0:0|0:0,0:0:0:0:
367,135,230201,1,2,0:0:0:0:
477,182,230415,1,0,0:0:0:0:
484,200,230522,1,0,0:0:0:0:
488,219,230629,1,0,0:0:0:0:
488,239,230737,1,0,0:0:0:0:
484,259,230844,2,0,L|452:333,1,80,0|4,0:0|1:1,0:0:0:0:
338,292,231272,5,0,0:0:0:0:
244,366,231487,1,0,0:0:0:0:
134,318,231701,1,0,0:0:0:0:
134,318,231808,1,0,0:0:0:0:
134,318,231915,2,0,L|68:261,1,80
36,152,232344,1,0,0:0:0:0:
36,152,232451,1,0,0:0:0:0:
147,106,232665,1,0,0:0:0:0:
147,106,232772,1,2,0:0:0:0:
326,233,233201,5,4,1:1:0:0:
280,299,233415,1,4,1:1:0:0:
360,306,233629,1,8,0:0:0:0:
473,265,233844,6,0,L|488:219,1,40
410,201,234058,2,0,L|425:155,1,40
347,137,234272,1,0,0:0:0:0:
354,117,234379,1,0,0:0:0:0:
360,98,234486,1,8,0:0:0:0:
246,212,234701,6,0,L|261:166,1,40
183,148,234915,2,0,L|198:102,1,40
120,84,235129,1,0,0:0:0:0:
126,65,235236,1,0,0:0:0:0:
132,46,235343,1,8,0:0:0:0:
19,159,235558,6,0,L|34:113,1,40
82,184,235772,2,0,B|96:227|134:245,1,80
293,237,236200,2,0,B|279:194|241:176,1,80,8|0,1:1|0:0,0:0:0:0:
82,184,236629,5,4,1:1:0:0:
167,269,236843,1,2,2:2:0:0:
243,176,237058,1,8,1:1:0:0:
257,296,237272,6,0,L|255:339,1,40,2|0,2:2|0:0,0:0:0:0:
334,321,237486,2,0,L|346:363,1,40,4|0,1:1|0:0,0:0:0:0:
414,316,237700,2,0,L|440:351,1,40,2|0,2:2|0:0,0:0:0:0:
488,285,237915,1,8,1:1:0:0:
474,46,238129,6,0,L|445:14,1,40,2|0,2:2|0:0,0:0:0:0:
402,83,238343,2,0,L|363:61,1,40,4|0,1:1|0:0,0:0:0:0:
349,143,238557,2,0,L|305:136,1,40,2|0,2:2|0:0,0:0:0:0:
318,218,238772,1,8,1:1:0:0:
198,220,238986,5,2,2:2:0:0:
198,220,239093,1,0,0:0:0:0:
198,220,239200,2,0,B|153:218|122:184,1,80,4|2,1:1|2:2,0:0:0:0:
115,29,239629,5,10,2:2:0:0:
147,32,239736,1,2,0:0:0:0:
176,45,239843,1,2,0:0:0:0:
196,70,239950,1,2,0:0:0:0:
207,100,240057,5,4,1:1:0:0:
120,270,240272,1,2,2:2:0:0:
307,120,240486,1,8,1:1:0:0:
441,172,240700,5,2,2:2:0:0:
449,200,240807,1,0,0:0:0:0:
453,228,240914,2,0,L|448:278,1,47.9999985351563,4|0,1:1|0:0,0:0:0:0:
380,295,241129,2,0,L|375:345,1,47.9999985351563,2|0,2:2|0:0,0:0:0:0:
307,362,241343,1,8,1:1:0:0:
307,362,241557,5,2,2:2:0:0:
299,334,241664,1,0,0:0:0:0:
295,306,241772,2,0,L|300:256,1,47.9999985351563,4|0,1:1|0:0,0:0:0:0:
368,239,241986,2,0,L|373:189,1,47.9999985351563,2|0,2:2|0:0,0:0:0:0:
441,172,242200,1,8,1:1:0:0:
254,126,242414,6,0,L|206:145,1,47.9999985351563,2|0,0:0|0:0,0:0:0:0:
172,80,242629,2,0,B|135:43|78:51,1,95.9999970703126,4|2,1:1|2:2,0:0:0:0:
7,227,243057,2,0,B|44:264|101:256,1,95.9999970703126,12|2,1:1|2:2,0:0:0:0:
78,161,243486,5,4,1:1:0:0:
53,351,243700,1,2,2:2:0:0:
4,116,243914,1,8,1:1:0:0:
123,33,244128,6,0,L|175:25,1,47.9999985351563,2|0,0:0|0:0,0:0:0:0:
179,98,244343,1,4,1:1:0:0:
200,110,244450,1,0,0:0:0:0:
223,118,244557,1,2,2:2:0:0:
246,122,244664,1,0,0:0:0:0:
270,121,244771,1,8,1:1:0:0:
406,75,244986,6,0,L|458:60,1,47.9999985351563,2|0,0:0|0:0,0:0:0:0:
471,131,245200,1,4,1:1:0:0:
484,151,245307,1,0,0:0:0:0:
492,174,245414,1,2,2:2:0:0:
496,197,245521,1,0,0:0:0:0:
495,221,245628,1,8,1:1:0:0:
400,329,245843,6,0,L|407:274,1,47.9999985351563,2|0,2:2|0:0,0:0:0:0:
328,338,246057,1,4,1:1:0:0:
305,347,246164,1,0,0:0:0:0:
281,351,246271,1,2,2:2:0:0:
47,293,246485,5,10,2:2:0:0:
44,259,246593,1,2,2:2:0:0:
47,226,246700,1,2,2:2:0:0:
55,193,246807,1,2,2:2:0:0:
69,163,246914,5,4,1:1:0:0:
181,6,247128,1,2,2:2:0:0:
162,245,247343,1,8,1:1:0:0:
303,216,247557,6,0,L|289:166,1,47.9999985351563,2|0,2:2|0:0,0:0:0:0:
319,103,247771,2,0,L|305:53,4,47.9999985351563,4|0|2|0|8,1:1|0:0|2:2|0:0|1:1,0:0:0:0:
456,149,248414,6,0,L|470:199,1,47.9999985351563,2|0,2:2|0:0,0:0:0:0:
440,262,248628,2,0,L|454:312,4,47.9999985351563,4|0|2|0|8,1:1|0:0|2:2|0:0|1:1,0:0:0:0:
279,154,249271,6,0,L|245:113,1,47.9999985351563,2|0,2:2|0:0,0:0:0:0:
189,158,249485,2,0,B|134:166|111:209,1,95.9999970703126,4|2,1:1|2:2,0:0:0:0:
295,264,249914,2,0,B|350:256|373:213,1,95.9999970703126,8|2,1:1|2:2,0:0:0:0:
329,75,250342,5,4,1:1:0:0:
295,264,250557,1,2,2:2:0:0:
254,28,250771,1,12,1:1:0:0:
116,66,250985,5,2,2:2:0:0:
99,95,251092,1,0,0:0:0:0:
89,126,251199,2,0,L|83:177,4,47.9999985351563,4|0|2|0|8,1:1|0:0|2:2|0:0|1:1,0:0:0:0:
184,234,251842,5,2,2:2:0:0:
201,263,251949,1,0,0:0:0:0:
211,294,252057,2,0,L|217:345,4,47.9999985351563,4|0|2|0|8,1:1|0:0|2:2|0:0|1:1,0:0:0:0:
350,160,252699,5,2,2:2:0:0:
346,172,252806,1,0,0:0:0:0:
342,184,252914,1,12,1:1:0:0:
428,301,253128,2,2,L|474:274,1,47.9999985351563,2|2,2:2|2:2,2:2:0:0:
452,206,253342,2,0,B|475:155|450:108,1,95.9999970703126,12|2,1:1|2:2,0:0:0:0:
222,265,253771,22,0,L|267:222,1,60.0000022888184,14|0,2:2|0:0,0:0:0:0:
183,187,253985,2,0,L|138:229,1,60.0000022888184
222,265,254199,6,0,L|277:236,1,60.0000022888184,14|0,2:2|0:0,0:0:0:0:
183,187,254413,2,0,L|129:217,1,60.0000022888184
222,265,254628,22,8,L|283:251,1,60.0000022888184,14|0,2:2|0:0,0:0:0:0:
183,187,254842,2,8,L|123:202,1,60.0000022888184,0|0,0:0|0:0,0:0:0:0:
222,265,255056,6,8,L|285:267,1,60.0000022888184,14|0,2:2|0:0,0:0:0:0:
183,187,255271,2,8,L|121:186,1,60.0000022888184,0|0,0:0|0:0,0:0:0:0:
222,265,255485,21,14,0:0:0:0:
239,283,255592,1,0,0:0:0:0:
258,297,255699,1,0,0:0:0:0:
279,308,255806,1,0,0:0:0:0:
302,315,255913,1,14,0:0:0:0:
326,320,256021,1,0,0:0:0:0:
350,322,256128,1,0,0:0:0:0:
373,321,256235,1,0,0:0:0:0:
397,320,256342,6,0,L|462:312,1,60.0000022888184,14|0,2:2|0:0,0:0:0:0:
414,233,256556,2,0,L|478:224,1,60.0000022888184
430,145,256770,2,0,L|494:136,1,60.0000022888184,14|0,2:2|0:0,0:0:0:0:
447,57,256985,2,0,L|511:48,1,60.0000022888184
361,85,257199,22,0,L|296:93,3,60.0000022888184,14|0|0|0,0:0|0:0|3:0|0:0,0:0:0:0:
344,172,257628,2,0,L|279:180,3,60.0000022888184,14|0|0|0,0:0|0:0|3:0|0:0,0:0:0:0:
328,260,258056,2,0,L|263:268,3,60.0000022888184,14|0|0|0,0:0|0:0|3:0|0:0,0:0:0:0:
311,348,258485,2,0,L|246:356,3,60.0000022888184,14|0|0|0,0:0|0:0|3:0|0:0,0:0:0:0:
131,356,258913,5,14,0:0:0:0:
133,325,259020,1,0,0:0:0:0:
145,296,259127,1,0,0:0:0:0:
163,271,259235,1,0,0:0:0:0:
187,251,259342,1,14,0:0:0:0:
185,212,259449,1,0,0:0:0:0:
183,173,259556,1,0,0:0:0:0:
181,134,259663,1,0,0:0:0:0:
179,95,259770,6,0,B|228:37|303:52|303:52|285:112|313:160,1,240.000009155274,14|0,0:0|0:0,0:0:0:0:
443,92,260627,5,4,0:0:0:0:
156,4,261056,1,0,0:0:0:0:
68,291,261484,1,4,0:0:0:0:
355,379,261913,1,0,0:0:0:0:
297,56,262341,5,12,0:3:0:0:
391,233,262556,1,4,0:3:0:0:
214,327,262770,1,12,0:3:0:0:
120,150,262984,1,4,0:3:0:0:
318,158,263199,5,12,0:3:0:0:
222,129,263413,1,4,0:3:0:0:
193,225,263627,1,12,0:3:0:0:
289,254,263841,1,4,0:3:0:0:
112,329,264056,6,0,B|63:302|63:244,1,95.9999970703126,4|0,1:1|0:0,0:0:0:0:
52,106,264484,1,0,1:1:0:0:
52,106,264591,1,0,0:0:0:0:
52,106,264698,1,0,0:0:0:0:
170,25,264913,2,0,B|267:13,1,95.9999970703126,0|0,3:3|3:3,0:0:0:0:
374,108,265341,2,0,B|277:120,1,95.9999970703126,0|0,1:1|3:3,0:0:0:0:
383,19,265770,6,0,B|437:29|457:75,1,95.9999970703126,4|0,1:1|0:0,0:0:0:0:
462,98,266091,1,0,0:0:0:0:
462,121,266198,1,0,1:1:0:0:
344,239,266413,1,0,2:2:0:0:
486,262,266627,2,0,B|481:317|437:349,1,95.9999970703126,0|0,1:1|3:3,3:3:0:0:
250,348,267055,2,0,B|204:319|202:263,1,95.9999970703126,0|0,1:1|3:3,0:0:0:0:
221,124,267484,6,0,L|122:111,1,95.9999970703126,4|0,1:1|0:0,0:0:0:0:
125,111,267805,1,0,0:0:0:0:
125,111,267913,1,0,1:1:0:0:
155,252,268127,1,0,3:0:0:0:
17,303,268341,2,0,B|30:354|79:378,2,95.9999970703126,0|0|0,3:3|3:3|1:1,3:0:0:0:
28,183,268984,1,0,3:0:0:0:
28,183,269091,1,0,3:0:0:0:
28,183,269198,5,4,1:1:0:0:
155,252,269412,1,0,0:0:0:0:
247,362,269627,2,0,B|297:378|342:351,1,95.9999970703126,0|0,3:3|0:0,0:0:0:0:
443,291,270055,1,0,3:3:0:0:
451,268,270162,1,0,2:2:0:0:
458,245,270269,1,0,2:2:0:0:
366,134,270484,1,0,1:1:0:0:
497,75,270698,1,0,3:3:0:0:
357,39,270912,6,0,B|366:140,1,95.9999970703126,4|0,1:1|2:2,3:0:0:0:
272,155,271341,1,0,1:1:0:0:
336,228,271555,1,0,2:2:0:0:
374,38,271769,6,0,B|383:139,1,95.9999970703126,0|0,1:1|3:3,3:3:0:0:
336,228,272198,1,0,1:1:0:0:
400,301,272412,1,0,3:3:0:0:
261,339,272626,6,0,B|165:363,1,95.9999970703126,4|0,1:1|2:2,0:0:0:0:
167,362,272948,1,0,3:3:0:0:
167,362,273055,1,0,1:1:0:0:
86,244,273269,1,0,0:0:0:0:
93,99,273484,2,0,B|148:99|184:137,1,95.9999970703126,0|0,3:3|3:3,3:3:0:0:
297,217,273912,5,0,1:1:0:0:
297,217,274126,1,0,0:0:0:0:
297,217,274341,2,8,B|262:117,1,95.9999970703126,4|0,1:1|0:0,3:0:0:0:
407,256,274769,2,8,B|441:355,1,95.9999970703126,0|0,1:1|0:0,3:0:0:0:
249,314,275198,5,4,1:1:0:0:
249,314,275412,1,4,3:3:0:0:
116,369,275626,1,4,3:3:0:0:
116,369,275841,1,4,3:3:0:0:
21,259,276055,5,4,3:1:0:0:
26,235,276162,1,0,0:0:0:0:
31,211,276269,1,0,0:0:0:0:
94,81,276483,2,0,B|147:92|162:148,1,95.9999970703126,0|0,1:1|0:0,0:0:0:0:
161,289,276912,5,0,3:3:0:0:
244,171,277126,1,0,3:3:0:0:
296,280,277340,1,0,1:1:0:0:
315,282,277448,1,0,0:0:0:0:
334,283,277555,1,0,0:0:0:0:
354,285,277662,1,0,0:0:0:0:
373,286,277769,6,0,B|427:284|456:239,1,95.9999970703126,4|0,1:1|0:0,0:0:0:0:
353,137,278197,1,0,3:1:0:0:
358,161,278305,1,0,3:0:0:0:
362,185,278412,1,0,3:0:0:0:
352,40,278626,2,0,B|298:42|269:87,1,95.9999970703126,0|0,1:1|0:0,0:0:0:0:
135,35,279055,2,0,B|109:82|134:130,1,95.9999970703126,0|0,1:1|0:0,0:0:0:0:
205,252,279483,6,0,B|108:243,1,95.9999970703126,4|0,1:1|0:0,0:0:0:0:
85,239,279805,1,0,0:0:0:0:
61,235,279912,1,0,1:1:0:0:
62,378,280126,1,0,2:2:0:0:
205,359,280340,2,0,B|261:362|293:314,1,95.9999970703126,0|0,1:1|3:3,0:3:0:0:
405,235,280769,2,0,B|417:331,1,95.9999970703126,0|0,1:1|3:3,0:0:0:0:
503,214,281197,6,0,B|490:117,1,95.9999970703126,4|0,1:1|3:3,0:0:0:0:
490,118,281519,1,0,0:0:0:0:
490,118,281626,1,0,1:1:0:0:
349,152,281840,1,0,3:0:0:0:
256,41,282054,2,0,B|292:3|348:7,2,95.9999970703126,0|0|0,3:3|3:3|3:1,3:0:0:0:
166,121,282697,1,0,3:0:0:0:
166,121,282804,1,0,3:0:0:0:
166,121,282911,5,4,3:1:0:0:
170,265,283126,1,0,3:0:0:0:
60,358,283340,2,0,B|17:315|26:262,1,95.9999970703126,0|0,1:1|0:0,3:0:0:0:
71,161,283769,1,0,3:3:0:0:
71,161,283876,1,0,3:0:0:0:
71,161,283983,1,0,3:3:0:0:
170,265,284197,1,0,3:1:0:0:
294,191,284411,1,0,3:3:0:0:
328,329,284626,6,0,B|431:340,1,95.9999970703126,4|0,1:1|0:0,3:0:0:0:
509,296,285054,1,0,3:1:0:0:
429,243,285268,1,0,3:3:0:0:
336,353,285483,6,0,B|439:364,1,95.9999970703126,0|0,1:1|3:3,3:0:0:0:
429,243,285911,1,0,3:1:0:0:
349,190,286125,1,0,3:3:0:0:
206,212,286340,6,0,B|149:199|136:143,1,95.9999970703126,4|0,1:1|0:0,0:0:0:0:
138,150,286661,1,0,3:3:0:0:
138,150,286768,1,0,1:1:0:0:
119,6,286983,1,0,3:3:0:0:
262,20,287197,2,0,B|235:118,1,95.9999970703126,0|0,0:0|1:1,0:0:0:0:
146,282,287625,5,0,1:1:0:0:
146,282,287840,1,0,0:0:0:0:
146,282,288054,2,0,B|249:265,1,95.9999970703126,4|0,1:1|0:0,0:0:0:0:
422,326,288482,2,0,B|318:343,1,95.9999970703126,0|0,1:1|0:0,0:0:0:0:
418,171,288911,5,4,1:1:0:0:
418,171,289125,1,4,3:3:0:0:
275,148,289340,1,4,3:3:0:0:
275,148,289554,1,4,3:3:0:0:
226,283,289768,5,4,3:1:0:0:
226,283,289875,1,0,0:0:0:0:
226,283,289982,1,0,0:0:0:0:
84,256,290197,2,0,B|30:249|10:195,1,95.9999970703126,0|0,1:1|0:0,0:0:0:0:
78,17,290625,5,0,3:3:0:0:
222,17,290839,1,0,3:3:0:0:
186,131,291054,1,0,1:1:0:0:
162,130,291161,1,0,2:0:0:0:
138,136,291268,1,0,3:3:0:0:
117,146,291375,1,0,2:0:0:0:
98,161,291482,5,4,1:1:0:0:
173,229,291697,1,0,1:1:0:0:
143,323,291911,1,2,1:2:0:0:
44,323,292125,1,0,3:3:0:0:
14,229,292339,1,0,3:3:0:0:
190,345,292554,5,0,3:3:0:0:
217,352,292661,1,0,3:3:0:0:
245,357,292768,1,2,1:2:0:0:
273,358,292875,1,0,3:3:0:0:
301,358,292982,1,0,3:3:0:0:
329,355,293089,1,0,3:3:0:0:
356,349,293196,6,0,L|418:293,1,80,0|0,3:3|3:3,0:0:0:0:
97,295,293625,2,0,L|159:351,1,80,2|0,1:2|3:3,0:0:0:0:
353,212,294054,2,0,L|379:132,1,80,0|0,1:1|3:3,0:0:0:0:
135,135,294482,2,0,L|161:214,1,80,4|0,1:2|0:0,0:0:0:0:
256,83,294911,5,4,0:0:0:0:
151,24,295125,1,0,0:0:0:0:
256,83,295339,1,2,1:2:0:0:
361,24,295553,1,0,0:0:0:0:
475,64,295768,1,0,0:0:0:0:
499,182,295982,5,0,3:3:0:0:
498,198,296089,1,0,3:3:0:0:
496,214,296196,1,2,1:2:0:0:
495,230,296303,1,0,3:3:0:0:
494,246,296410,1,0,3:3:0:0:
493,262,296518,1,0,3:3:0:0:
491,278,296625,6,0,L|429:345,1,80,4|0,0:0|0:0,0:0:0:0:
283,294,297053,2,0,L|195:321,1,80,4|0,0:0|0:0,0:0:0:0:
101,197,297482,2,0,L|11:176,1,80,4|0,0:0|0:0,0:0:0:0:
144,76,297910,1,4,0:0:0:0:
172,72,298018,1,0,0:0:0:0:
201,73,298125,1,0,0:0:0:0:
229,76,298232,1,0,0:0:0:0:
256,83,298339,5,4,0:0:0:0:
361,24,298553,1,0,0:0:0:0:
256,83,298767,1,2,1:2:0:0:
151,24,298982,1,0,0:0:0:0:
37,64,299196,1,0,0:0:0:0:
13,182,299410,5,0,3:3:0:0:
14,198,299517,1,0,3:3:0:0:
16,214,299625,1,2,1:2:0:0:
17,230,299732,1,0,3:3:0:0:
18,246,299839,1,0,3:3:0:0:
19,262,299946,1,0,3:3:0:0:
21,278,300053,6,0,L|51:356,1,80,0|0,3:3|3:3,0:0:0:0:
108,202,300482,2,0,L|138:280,1,80,0|0,1:1|3:3,0:0:0:0:
270,365,300910,2,0,L|240:287,1,80,0|0,0:0|3:3,0:0:0:0:
357,289,301339,2,0,L|327:211,1,80,4|0,1:2|0:0,0:0:0:0:
444,213,301767,5,4,1:1:0:0:
435,333,301982,1,0,3:3:0:0:
328,214,302196,1,0,1:1:0:0:
466,133,302410,1,0,3:3:0:0:
447,14,302624,1,0,1:1:0:0:
327,10,302839,5,0,3:3:0:0:
312,14,302946,1,0,0:0:0:0:
297,18,303053,1,0,1:1:0:0:
282,22,303160,1,0,3:3:0:0:
267,26,303267,1,0,3:3:0:0:
252,30,303374,1,0,3:3:0:0:
237,34,303481,6,0,B|195:48|175:85,1,80,4|0,1:2|0:0,0:0:0:0:
56,96,303910,2,0,B|59:140|90:169,1,80,4|0,0:0|0:0,0:0:0:0:
68,286,304338,2,0,B|112:294|148:272,1,80,4|0,0:0|0:0,0:0:0:0:
171,260,304660,1,0,1:1:0:0:
199,255,304767,1,0,1:1:0:0:
227,261,304874,1,0,1:1:0:0:
256,277,304981,1,0,1:1:0:0:
263,249,305088,1,0,1:1:0:0:
270,221,305196,6,0,P|358:189|326:284,1,240.000009155274
