osu file format v13

[General]
AudioFilename: Dead To The World.mp3
AudioLeadIn: 0
PreviewTime: 67787
Countdown: 0
SampleSet: Soft
StackLeniency: 0.7
Mode: 0
LetterboxInBreaks: 0
WidescreenStoryboard: 0

[Editor]
Bookmarks: 40722,50449
DistanceSpacing: 1.3
BeatDivisor: 4
GridSize: 8
TimelineZoom: 1.8

[Metadata]
Title:Dead to the World
TitleUnicode:Dead to the World
Artist:Nightwish
ArtistUnicode:Nightwish
Creator:Xanandra
Version:Insane
Source:
Tags:tarja turunen power metal Sieg Shiro Odaril Nwolf Century Child
BeatmapID:368503
BeatmapSetID:149115

[Difficulty]
HPDrainRate:7
CircleSize:4
OverallDifficulty:7
ApproachRate:8.5
SliderMultiplier:2
SliderTickRate:2

[Events]
//Background and Video events
0,0,"bg.jpg",0,0
//Break Periods
2,40725,49183
2,210083,212591
//Storyboard Layer 0 (Background)
//Storyboard Layer 1 (Fail)
//Storyboard Layer 2 (Pass)
//Storyboard Layer 3 (Foreground)
//Storyboard Sound Samples
//Background Colour Transformations
3,100,0,0,0

[TimingPoints]
5203,422.892585283338,4,2,1,60,1,0
39140,-100,4,2,3,60,0,0
40408,-100,4,2,1,60,0,0
50346,-100,4,2,2,60,0,0
50558,-100,4,2,1,60,0,0
52038,-100,4,2,2,60,0,0
52249,-100,4,2,1,60,0,0
53729,-100,4,3,0,60,0,0
53941,-100,4,2,1,60,0,0
60919,-100,4,3,0,60,0,0
61130,-100,4,2,1,60,0,0
62610,-100,4,3,0,60,0,0
62822,-100,4,2,1,60,0,0
65570,-100,4,2,2,60,0,0
65782,-100,4,2,1,60,0,0
74663,-100,4,2,2,60,0,0
81323,-100,4,2,1,60,0,0
88089,-100,4,2,2,60,0,0
91473,-100,4,2,1,60,0,0
98133,-100,4,2,2,60,0,0
98345,-100,4,2,1,60,0,0
99825,-100,4,2,2,60,0,0
100036,-100,4,2,1,60,0,0
102785,-100,4,2,2,60,0,0
102996,-100,4,2,1,60,0,0
104477,-100,4,2,2,60,0,0
104688,-100,4,2,1,60,0,0
111666,-100,4,2,2,60,0,0
111877,-100,4,2,1,60,0,0
113357,-100,4,2,2,60,0,0
113569,-100,4,2,1,60,0,0
126996,-100,4,3,2,60,0,0
128687,-100,4,2,1,60,0,0
140528,-100,4,3,2,60,0,0
141797,-100,4,2,1,60,0,0
157444,-100,4,2,2,60,0,0
159135,-100,4,2,1,60,0,0
160827,-100,4,2,2,60,0,0
162519,-100,4,2,1,60,0,0
164210,-100,4,2,2,60,0,0
165902,-100,4,2,1,60,0,0
182817,-151.515151515152,4,2,3,40,0,0
213054,-151.515151515152,4,2,3,10,0,0
214534,-151.515151515152,4,2,3,20,0,0
216014,-151.515151515152,4,2,3,30,0,0
216649,-151.515151515152,4,2,3,40,0,1
216755,-100,4,2,1,20,0,1
218235,-100,4,2,1,30,0,1
218658,-100,4,2,1,40,0,1
219080,-100,4,2,1,50,0,1
219503,-100,4,2,1,60,0,1
219926,-100,4,2,1,60,0,0
220032,-100,4,2,1,70,0,1
225107,-100,4,3,2,70,0,0
226798,-100,4,2,1,70,0,1
238639,-100,4,2,1,70,0,0
240331,-100,4,2,1,70,0,1
253440,-100,4,2,1,70,0,0
254392,-100,4,2,3,70,0,0
254603,-100,4,2,1,70,0,0
255343,-100,4,2,1,70,0,1
255555,-100,4,2,1,70,0,0

[Colours]
Combo1 : 255,255,0
Combo2 : 185,185,185
Combo3 : 245,0,0
Combo4 : 150,150,150

[HitObjects]
263,40,5202,5,8,0:0:0:0:
377,137,5520,2,0,P|463:50|468:11,1,150,0|0,0:0|0:0,0:0:0:0:
474,21,5943,1,0,0:0:0:0:
480,13,6048,1,0,0:0:0:0:
332,231,6365,6,0,P|363:349|395:372,1,150,0|0,0:0|0:0,0:0:0:0:
383,373,6788,1,0,0:0:0:0:
386,382,6893,1,0,0:0:0:0:
270,144,7211,6,0,P|151:112|115:127,1,150,0|0,0:0|0:0,0:0:0:0:
121,117,7634,1,0,0:0:0:0:
110,115,7739,1,0,0:0:0:0:
1,10,8057,1,0,0:0:0:0:
78,345,8374,5,8,0:0:0:0:
78,345,8586,1,8,0:0:0:0:
259,253,8903,2,0,L|428:243,1,150,0|0,0:0|0:0,0:0:0:0:
419,254,9326,1,0,0:0:0:0:
429,264,9431,1,0,0:0:0:0:
249,86,9749,2,0,L|80:96,1,150,0|0,0:0|0:0,0:0:0:0:
90,107,10172,1,0,0:0:0:0:
80,117,10277,1,12,0:2:0:0:
256,192,10383,12,12,11123,0:0:0:0:
404,92,11546,5,12,0:0:0:0:
432,122,12392,1,12,0:2:0:0:
256,192,12497,12,8,15140,0:0:0:0:
141,325,15352,5,8,0:0:0:0:
38,230,15563,1,8,0:0:0:0:
169,188,17043,5,12,0:0:0:0:
169,188,17889,1,12,0:0:0:0:
38,230,18101,1,8,0:0:0:0:
141,325,18312,1,8,0:0:0:0:
473,315,18524,5,8,0:3:0:0:
448,290,18629,1,8,0:3:0:0:
422,266,18735,2,0,L|307:272,1,100,10|2,0:0|0:0,0:0:0:0:
295,357,19052,2,0,L|128:366,1,150,10|8,0:0|0:3,0:0:0:0:
121,345,19475,1,0,0:0:0:0:
98,324,19581,2,0,P|103:270|86:212,1,100,10|0,0:0|0:0,0:0:0:0:
181,208,19898,2,0,P|173:129|198:44,1,150,10|8,0:0|0:3,0:0:0:0:
170,38,20321,1,0,0:0:0:0:
151,14,20427,6,0,L|271:7,1,100,10|0,0:0|0:0,0:0:0:0:
269,96,20744,2,0,P|344:102|425:133,1,150,10|8,0:0|0:3,0:0:0:0:
437,108,21167,1,0,0:0:0:0:
460,89,21272,2,0,L|468:40,2,50,10|0|8,0:0|0:0|0:3,0:0:0:0:
496,167,21590,2,0,L|488:216,2,50,10|0|0,0:0|0:0|0:0,0:0:0:0:
410,223,21907,5,8,0:3:0:0:
410,223,22012,1,8,0:3:0:0:
410,223,22118,2,0,P|406:277|430:344,1,100,10|0,0:0|0:0,0:0:0:0:
346,375,22435,2,0,L|174:377,1,150,10|10,0:0|0:3,0:0:0:0:
216,348,22858,1,0,0:0:0:0:
233,317,22964,2,0,L|111:318,1,100,10|0,0:0|0:0,0:0:0:0:
36,272,23281,2,0,P|97:233|136:163,1,150,10|10,0:0|0:3,0:0:0:0:
106,144,23704,1,0,0:0:0:0:
73,123,23810,6,0,L|182:115,1,100,10|0,0:0|0:0,0:0:0:0:
157,28,24127,2,0,L|326:15,1,150,10|10,0:0|0:3,0:0:0:0:
346,12,24550,1,0,0:0:0:0:
386,12,24656,1,10,0:0:0:0:
419,33,24761,1,0,0:0:0:0:
444,64,24867,1,10,0:3:0:0:
454,102,24973,1,0,0:0:0:0:
440,139,25078,1,10,0:0:0:0:
417,172,25184,1,0,0:0:0:0:
411,211,25290,1,2,0:0:0:0:
424,248,25396,1,0,0:0:0:0:
450,277,25501,6,0,P|464:324|504:365,1,100,14|2,0:0|0:0,0:0:0:0:
384,365,25819,2,0,L|228:364,1,150,10|10,0:0|0:3,0:0:0:0:
253,341,26241,1,0,0:0:0:0:
275,320,26347,2,0,P|225:298|179:242,1,100,10|0,0:0|0:0,0:0:0:0:
100,289,26664,2,0,L|135:115,1,150,10|10,0:0|0:3,0:0:0:0:
109,119,27087,1,0,0:0:0:0:
88,96,27193,6,0,P|149:59|166:23,1,100,10|0,0:0|0:0,0:0:0:0:
226,100,27510,2,0,P|275:32|351:-2,1,150,10|10,0:0|0:3,0:0:0:0:
353,23,27933,1,0,0:0:0:0:
375,43,28039,2,0,L|462:38,2,50,10|0|8,0:0|0:0|0:3,0:0:0:0:
442,118,28356,2,0,L|529:113,2,50,10|0|0,0:0|0:0|0:0,0:0:0:0:
351,132,28673,5,8,0:3:0:0:
351,132,28779,1,8,0:3:0:0:
351,132,28884,2,0,P|303:163|253:170,1,100,10|2,0:0|0:0,0:0:0:0:
278,270,29202,2,0,P|197:286|132:333,1,150,10|10,0:0|0:3,0:0:0:0:
114,309,29625,1,0,0:0:0:0:
88,294,29730,2,0,L|84:158,1,100,10|0,0:0|0:0,0:0:0:0:
0,159,30047,2,0,P|60:103|89:27,1,150,10|10,0:0|0:3,0:0:0:0:
113,53,30470,1,0,0:0:0:0:
140,64,30576,6,0,L|243:43,1,100,10|0,0:0|0:0,0:0:0:0:
245,136,30893,2,0,L|404:103,1,150,10|10,0:0|0:3,0:0:0:0:
431,109,31316,1,0,0:0:0:0:
467,126,31422,1,10,0:0:0:0:
484,162,31528,1,0,0:0:0:0:
491,200,31633,1,10,0:3:0:0:
481,239,31739,1,0,0:0:0:0:
483,279,31845,1,10,0:0:0:0:
505,311,31950,1,0,0:0:0:0:
466,301,32056,1,2,0:0:0:0:
425,298,32162,1,0,0:0:0:0:
385,306,32268,6,0,L|317:340,1,50,14|0,0:3|0:0,0:0:0:0:
293,259,32479,2,0,L|225:293,1,50,10|0,0:3|0:0,0:0:0:0:
322,181,32691,2,0,L|288:113,1,50,10|0,0:0|0:0,0:0:0:0:
378,99,32902,2,0,L|344:31,1,50,10|0,0:3|0:0,0:0:0:0:
204,57,33113,6,0,L|272:23,1,50,10|0,0:3|0:0,0:0:0:0:
296,104,33325,2,0,L|363:68,1,50,10|0,0:3|0:0,0:0:0:0:
267,182,33536,2,0,L|301:250,1,50,10|0,0:0|0:0,0:0:0:0:
211,264,33747,2,0,L|245:332,1,50,10|0,0:3|0:0,0:0:0:0:
366,335,33959,5,12,0:3:0:0:
475,264,34171,1,0,0:0:0:0:
416,148,34382,2,0,P|315:92|277:-5,1,200,8|8,0:0|0:3,0:0:0:0:
151,41,35016,1,0,0:0:0:0:
151,41,35228,1,8,0:0:0:0:
52,307,35651,5,8,0:3:0:0:
150,223,35862,1,0,0:0:0:0:
213,336,36074,2,0,P|312:334|424:364,1,200,8|8,0:0|0:3,0:0:0:0:
504,268,36708,1,0,0:0:0:0:
504,268,36919,1,8,0:0:0:0:
186,50,37342,5,12,0:3:0:0:
65,98,37554,1,0,0:0:0:0:
168,176,37765,2,0,P|186:228|181:291,1,100,8|0,0:0|0:0,0:0:0:0:
483,103,38188,5,12,0:3:0:0:
354,125,38400,1,0,0:0:0:0:
438,223,38611,1,8,0:0:0:0:
267,362,38822,5,8,0:3:0:0:
290,306,38928,1,8,0:3:0:0:
311,249,39034,1,14,0:3:0:0:
256,192,39140,12,0,40303,0:0:0:0:
142,314,50452,6,0,P|158:250|198:202,1,100,2|8,0:3|0:0,0:0:0:0:
186,211,50769,1,8,0:0:0:0:
194,200,50875,1,12,0:0:0:0:
166,73,51086,2,0,P|120:25|62:4,1,100,8|8,0:3|0:0,0:0:0:0:
305,75,51509,2,0,P|382:155|481:191,1,200,4|8,0:0|0:3,0:0:0:0:
344,329,52144,6,0,P|278:324|220:347,1,100,2|8,0:3|0:0,0:0:0:0:
232,339,52461,1,8,0:2:0:0:
219,343,52567,1,12,0:0:0:0:
46,222,52778,1,8,0:3:0:0:
206,349,52989,1,8,0:0:0:0:
35,213,53201,2,0,P|23:115|83:20,1,200,4|8,0:0|0:3,0:0:0:0:
199,53,53835,1,6,0:3:0:0:
346,280,54047,5,8,0:0:0:0:
379,271,54152,1,8,0:0:0:0:
413,262,54258,2,0,P|439:216|439:163,1,100,14|8,0:0|0:3,0:0:0:0:
504,56,54681,1,8,0:0:0:0:
381,12,54892,1,2,0:0:0:0:
348,21,54997,1,0,0:0:0:0:
314,30,55103,2,0,P|288:76|288:129,1,100,2|8,0:0|0:3,0:0:0:0:
101,186,55527,1,10,0:0:0:0:
144,193,55632,1,2,0:0:0:0:
189,198,55738,1,0,0:0:0:0:
448,262,55950,6,0,P|386:242|333:245,1,100,2|8,0:0|0:3,0:0:0:0:
293,125,56373,1,8,0:0:0:0:
227,320,56584,1,2,0:0:0:0:
202,341,56690,1,0,0:0:0:0:
174,356,56795,2,0,P|122:358|61:343,1,100,2|8,0:0|0:3,0:0:0:0:
6,237,57218,1,10,0:0:0:0:
31,216,57324,1,2,0:0:0:0:
59,201,57429,2,0,P|111:199|172:214,1,100,0|2,0:0|0:0,0:0:0:0:
189,81,57853,5,8,0:3:0:0:
411,11,58064,1,8,0:0:0:0:
338,118,58276,1,2,0:0:0:0:
332,137,58381,1,0,0:0:0:0:
326,156,58487,2,0,L|342:278,1,100,2|8,0:0|0:3,0:0:0:0:
255,355,58910,1,10,0:0:0:0:
468,326,59121,5,0,0:0:0:0:
474,307,59226,1,0,0:0:0:0:
480,288,59333,2,0,L|464:166,1,100,2|8,0:0|0:3,0:0:0:0:
506,63,59756,1,10,0:0:0:0:
250,140,59967,1,2,0:0:0:0:
224,131,60073,1,0,0:0:0:0:
198,124,60179,1,2,0:0:0:0:
512,55,60390,5,8,0:3:0:0:
252,174,60601,1,10,0:0:0:0:
211,159,60707,1,2,0:0:0:0:
170,147,60813,1,0,0:0:0:0:
411,193,61024,5,2,0:3:0:0:
411,193,61236,1,8,0:3:0:0:
411,193,61447,1,8,0:0:0:0:
317,102,61659,5,0,0:0:0:0:
442,67,61870,1,8,0:3:0:0:
411,193,62082,1,0,0:0:0:0:
375,322,62293,1,8,0:0:0:0:
500,287,62504,5,0,0:0:0:0:
431,55,62716,1,2,0:3:0:0:
306,90,62927,1,8,0:3:0:0:
387,336,63139,1,8,0:0:0:0:
512,301,63350,5,0,0:0:0:0:
419,39,63562,1,8,0:3:0:0:
399,350,63773,1,0,0:0:0:0:
294,74,63985,1,8,0:0:0:0:
176,346,64196,5,8,0:2:0:0:
186,315,64302,1,8,0:2:0:0:
202,287,64407,2,0,P|243:256|305:239,1,100,12|8,0:0|0:3,0:0:0:0:
415,273,64830,1,8,0:0:0:0:
175,175,65042,2,0,P|86:118|46:12,1,200,4|8,0:3|0:3,0:0:0:0:
43,195,65676,6,0,L|33:314,1,100,2|8,0:3|0:0,0:0:0:0:
33,310,65993,1,8,0:0:0:0:
32,325,66099,1,12,0:0:0:0:
316,323,66310,1,8,0:3:0:0:
32,340,66522,1,8,0:0:0:0:
329,316,66733,2,0,P|389:242|497:205,1,200,4|8,0:0|0:0,0:0:0:0:
490,194,67262,1,8,0:0:0:0:
496,183,67368,1,8,0:0:0:0:
385,115,67579,1,8,0:0:0:0:
377,101,67685,1,8,0:0:0:0:
370,87,67791,5,12,0:0:0:0:
338,102,67896,1,0,0:0:0:0:
305,115,68002,1,0,0:0:0:0:
270,120,68108,1,0,0:0:0:0:
235,118,68213,1,10,0:0:0:0:
203,102,68319,1,0,0:0:0:0:
176,78,68425,1,0,0:0:0:0:
153,50,68531,1,0,0:0:0:0:
148,84,68636,1,2,0:0:0:0:
141,118,68742,1,0,0:0:0:0:
125,149,68848,1,0,0:0:0:0:
100,173,68954,1,0,0:0:0:0:
72,194,69059,1,10,0:0:0:0:
54,224,69165,1,0,0:0:0:0:
50,258,69271,6,0,P|154:308|210:383,1,200,2|2,0:0|0:0,0:0:0:0:
233,352,69799,1,0,0:0:0:0:
267,340,69905,1,8,0:0:0:0:
303,338,70011,1,0,0:0:0:0:
336,348,70117,2,0,P|372:259|416:212,1,150,2|0,0:0|0:0,0:0:0:0:
432,152,70539,6,0,P|428:127|419:103,1,50,2|0,0:0|0:0,0:0:0:0:
379,43,70751,2,0,P|359:27|336:17,1,50,10|0,0:0|0:0,0:0:0:0:
265,7,70962,2,0,P|240:10|216:19,1,50,2|0,0:0|0:0,0:0:0:0:
197,113,71174,6,0,P|94:79|-2:78,1,200,6|8,0:0|0:0,0:0:0:0:
19,65,71702,1,0,0:0:0:0:
34,52,71808,1,2,0:0:0:0:
50,39,71914,1,0,0:0:0:0:
66,27,72020,1,2,0:0:0:0:
125,333,72231,2,0,L|139:221,1,100,0|10,0:0|0:0,0:0:0:0:
120,222,72549,1,0,0:0:0:0:
103,210,72654,1,2,0:0:0:0:
314,48,72865,6,0,P|376:58|427:89,1,100,0|2,0:0|0:0,0:0:0:0:
428,60,73182,1,0,0:0:0:0:
448,45,73288,1,8,0:0:0:0:
352,313,73500,1,2,0:0:0:0:
167,103,73711,1,0,0:0:0:0:
152,123,73817,1,0,0:0:0:0:
135,142,73923,2,0,L|1:154,1,100,2|10,0:0|0:0,0:0:0:0:
317,130,74345,1,2,0:0:0:0:
10,154,74557,5,6,0:0:0:0:
47,289,74980,1,8,0:0:0:0:
186,302,75403,1,2,0:0:0:0:
0,164,75826,5,8,0:0:0:0:
37,299,76037,1,0,0:0:0:0:
176,312,76248,2,0,P|276:324|366:375,1,200,6|8,0:0|0:0,0:0:0:0:
449,56,77094,1,2,0:0:0:0:
339,126,77306,2,0,L|311:262,1,100,0|8,0:0|0:0,0:0:0:0:
234,49,77729,1,0,0:0:0:0:
234,49,77940,2,0,L|190:261,1,200,6|8,0:0|0:0,0:0:0:0:
507,172,78786,5,2,0:0:0:0:
470,307,79209,1,8,0:0:0:0:
331,320,79632,2,0,P|231:332|141:383,1,200,6|8,0:0|0:0,0:0:0:0:
9,341,80266,2,0,P|11:241|50:150,1,200,4|4,0:0|0:0,0:0:0:0:
2,18,80900,2,0,L|123:14,1,100,8|4,0:0|0:0,0:0:0:0:
349,145,81323,6,0,P|289:120|260:97,1,100,8|8,0:3|0:3,0:0:0:0:
228,111,81640,1,8,0:3:0:0:
196,127,81746,2,0,L|75:131,1,100,8|0,0:0|0:0,0:0:0:0:
415,23,82169,1,8,0:3:0:0:
423,57,82275,1,8,0:3:0:0:
431,90,82380,1,8,0:3:0:0:
393,307,82592,1,8,0:0:0:0:
385,273,82698,1,8,0:3:0:0:
377,240,82803,1,8,0:3:0:0:
74,314,83015,5,8,0:3:0:0:
108,308,83120,1,8,0:3:0:0:
142,302,83226,1,8,0:3:0:0:
176,296,83332,1,8,0:3:0:0:
210,290,83438,2,0,L|240:161,1,100,8|0,0:0|0:0,0:0:0:0:
462,324,83861,1,8,0:3:0:0:
428,316,83966,1,8,0:3:0:0:
393,308,84072,1,8,0:3:0:0:
227,99,84283,1,8,0:0:0:0:
261,107,84388,1,8,0:3:0:0:
296,115,84494,1,8,0:3:0:0:
28,45,84706,5,8,0:3:0:0:
49,72,84812,1,8,0:3:0:0:
61,104,84918,1,8,0:3:0:0:
67,138,85023,1,8,0:3:0:0:
62,172,85129,2,0,P|82:227|109:261,1,100,8|0,0:0|0:0,0:0:0:0:
324,50,85552,1,8,0:3:0:0:
309,81,85658,1,8,0:3:0:0:
296,113,85764,1,8,0:3:0:0:
423,287,85975,1,8,0:0:0:0:
408,318,86081,1,8,0:3:0:0:
395,350,86186,6,0,L|278:363,1,100,8|8,0:3|0:3,0:0:0:0:
267,339,86504,1,8,0:3:0:0:
234,325,86609,1,8,0:3:0:0:
198,323,86715,1,8,0:3:0:0:
165,335,86821,1,8,0:0:0:0:
390,166,87032,1,0,0:0:0:0:
104,61,87244,1,8,0:3:0:0:
137,71,87349,1,8,0:3:0:0:
171,79,87455,1,8,0:3:0:0:
448,54,87667,1,8,0:0:0:0:
415,44,87772,1,8,0:3:0:0:
381,36,87878,1,8,0:3:0:0:
65,300,88089,6,0,L|291:285,1,200,4|8,0:0|0:0,0:0:0:0:
473,178,88724,2,0,L|247:163,1,200,2|0,0:0|0:0,0:0:0:0:
57,60,89358,2,0,L|251:48,1,150,8|0,0:0|0:0,0:0:0:0:
256,48,89781,5,4,0:0:0:0:
388,135,89992,1,2,0:0:0:0:
126,215,90204,1,8,0:0:0:0:
388,215,90415,1,0,0:0:0:0:
126,135,90627,1,4,0:0:0:0:
458,177,90838,1,2,0:0:0:0:
56,177,91050,1,8,0:0:0:0:
363,117,91473,6,0,P|399:70|440:42,1,100,14|0,0:0|0:0,0:0:0:0:
310,191,91895,2,0,P|274:238|233:266,1,100,8|2,0:0|0:0,0:0:0:0:
237,273,92213,1,0,0:0:0:0:
232,284,92318,1,2,0:0:0:0:
324,376,92530,1,8,0:3:0:0:
269,101,92741,5,10,0:0:0:0:
258,93,92847,1,2,0:0:0:0:
248,85,92953,2,0,P|201:49|173:8,1,100,0|2,0:0|0:0,0:0:0:0:
382,119,93376,2,0,P|431:112|476:92,1,100,8|8,0:3|0:0,0:0:0:0:
331,230,93798,1,2,0:0:0:0:
322,222,93904,1,0,0:0:0:0:
312,215,94010,2,0,L|291:332,1,100,2|8,0:0|0:3,0:0:0:0:
29,182,94433,5,10,0:0:0:0:
101,289,94644,1,0,0:0:0:0:
242,130,94856,1,2,0:0:0:0:
258,121,94961,1,2,0:0:0:0:
275,113,95067,1,8,0:3:0:0:
89,309,95279,5,8,0:0:0:0:
205,115,95490,1,2,0:0:0:0:
239,94,95595,1,0,0:0:0:0:
277,76,95701,1,2,0:0:0:0:
489,208,95913,5,8,0:3:0:0:
452,83,96124,1,10,0:0:0:0:
363,178,96336,1,0,0:0:0:0:
400,302,96547,5,2,0:0:0:0:
408,312,96653,1,2,0:0:0:0:
418,322,96759,2,0,P|469:342|509:379,1,100,8|8,0:3|0:0,0:0:0:0:
258,331,97182,1,2,0:0:0:0:
250,321,97288,1,0,0:0:0:0:
240,311,97394,2,0,P|189:291|149:254,1,100,2|8,0:0|0:3,0:0:0:0:
321,197,97816,1,10,0:0:0:0:
321,197,97922,1,2,0:0:0:0:
321,197,98027,1,0,0:0:0:0:
122,88,98239,5,2,0:3:0:0:
207,187,98450,1,8,0:3:0:0:
172,312,98662,1,8,0:0:0:0:
88,213,98873,1,0,0:0:0:0:
112,35,99085,5,8,0:3:0:0:
237,180,99296,1,0,0:0:0:0:
185,364,99508,1,8,0:0:0:0:
62,219,99719,1,0,0:0:0:0:
122,88,99930,5,2,0:3:0:0:
62,219,100142,1,8,0:3:0:0:
172,312,100353,1,8,0:0:0:0:
237,180,100565,1,0,0:0:0:0:
112,35,100776,5,8,0:3:0:0:
88,213,100988,1,0,0:0:0:0:
185,364,101199,1,8,0:0:0:0:
207,187,101411,5,8,0:0:0:0:
199,199,101516,1,8,0:0:0:0:
191,212,101622,2,0,L|217:318,1,100,12|8,0:0|0:3,0:0:0:0:
95,138,102045,1,8,0:0:0:0:
339,216,102256,2,0,L|291:21,1,200,4|8,0:0|0:3,0:0:0:0:
212,299,102891,6,0,P|264:313|313:354,1,100,2|8,0:3|0:0,0:0:0:0:
319,335,103208,1,8,0:0:0:0:
336,331,103314,1,12,0:0:0:0:
278,93,103525,1,8,0:3:0:0:
350,327,103736,1,8,0:0:0:0:
261,84,103948,2,0,P|162:102|79:180,1,200,4|8,0:0|0:3,0:0:0:0:
9,61,104582,1,6,0:3:0:0:
128,323,104794,5,8,0:0:0:0:
165,306,104899,1,8,0:0:0:0:
199,292,105005,2,0,L|188:191,1,100,14|8,0:0|0:3,0:0:0:0:
276,97,105428,1,8,0:0:0:0:
156,47,105639,1,2,0:0:0:0:
119,64,105744,1,0,0:0:0:0:
85,78,105850,2,0,L|96:179,1,100,2|8,0:0|0:3,0:0:0:0:
366,349,106274,5,10,0:0:0:0:
361,300,106379,1,2,0:0:0:0:
355,250,106485,2,0,P|374:185|404:151,1,100,0|2,0:0|0:0,0:0:0:0:
509,101,106908,1,8,0:3:0:0:
231,14,107120,1,8,0:0:0:0:
173,139,107331,5,2,0:0:0:0:
148,118,107437,1,0,0:0:0:0:
120,103,107542,2,0,P|68:101|7:116,1,100,2|8,0:0|0:3,0:0:0:0:
6,300,107965,1,10,0:0:0:0:
31,321,108071,1,2,0:0:0:0:
59,336,108176,2,0,P|111:338|172:323,1,100,0|2,0:0|0:0,0:0:0:0:
278,378,108600,5,8,0:3:0:0:
461,262,108811,1,8,0:0:0:0:
323,112,109023,1,2,0:0:0:0:
317,131,109128,1,0,0:0:0:0:
311,150,109234,2,0,L|327:272,1,100,2|8,0:0|0:3,0:0:0:0:
179,374,109657,1,10,0:0:0:0:
185,355,109762,1,2,0:0:0:0:
191,336,109868,2,0,L|175:214,1,100,0|2,0:0|0:0,0:0:0:0:
67,168,110291,5,8,0:3:0:0:
263,25,110503,2,0,P|316:57|385:61,1,100,8|2,0:0|0:0,0:0:0:0:
375,43,110820,1,0,0:0:0:0:
398,23,110926,1,2,0:0:0:0:
512,217,111137,2,0,P|459:185|390:181,1,100,8|10,0:3|0:0,0:0:0:0:
400,199,111454,1,2,0:0:0:0:
377,219,111560,1,0,0:0:0:0:
151,14,111771,5,2,0:3:0:0:
185,140,111983,1,8,0:3:0:0:
273,47,112194,1,8,0:0:0:0:
308,173,112406,1,0,0:0:0:0:
398,80,112617,1,8,0:3:0:0:
308,173,112829,1,0,0:0:0:0:
273,47,113040,1,8,0:0:0:0:
185,140,113252,1,0,0:0:0:0:
151,14,113463,5,2,0:3:0:0:
219,265,113674,1,8,0:3:0:0:
398,80,113886,1,8,0:0:0:0:
308,173,114097,1,0,0:0:0:0:
273,47,114309,1,8,0:3:0:0:
159,169,114520,5,8,0:0:0:0:
151,183,114626,1,8,0:0:0:0:
143,197,114732,1,8,0:0:0:0:
135,211,114837,1,8,0:0:0:0:
127,225,114943,1,8,0:0:0:0:
119,239,115049,1,8,0:0:0:0:
113,253,115155,2,0,P|75:299|35:320,1,100,12|8,0:0|0:3,0:0:0:0:
153,381,115577,5,8,0:0:0:0:
24,140,115789,2,0,P|100:48|180:6,1,200,4|8,0:0|0:3,0:0:0:0:
280,186,116423,2,0,P|291:137|285:88,1,100,8|8,0:0|0:0,0:0:0:0:
269,82,116740,1,8,0:0:0:0:
252,79,116846,1,12,0:0:0:0:
370,290,117058,2,0,P|417:276|457:245,1,100,8|8,0:3|0:0,0:0:0:0:
231,295,117480,2,0,P|135:322|56:383,1,200,4|8,0:0|0:3,0:0:0:0:
7,261,118115,1,8,0:0:0:0:
295,152,118326,5,8,0:0:0:0:
277,111,118432,1,8,0:0:0:0:
248,77,118538,2,0,P|184:59|137:23,1,100,12|8,0:0|0:3,0:0:0:0:
35,89,118961,1,8,0:0:0:0:
308,4,119172,2,0,P|419:35|500:97,1,200,4|8,0:0|0:3,0:0:0:0:
272,313,119806,5,8,0:0:0:0:
274,182,120018,1,0,0:0:0:0:
391,235,120229,1,8,0:3:0:0:
380,105,120441,6,8,P|395:83|418:68,2,50,8|8|8,0:3|0:3|0:0,0:0:0:0:
174,73,120864,2,8,P|152:58|137:35,2,50,8|8|8,0:3|0:3|0:3,0:3:0:0:
142,279,121287,2,8,P|127:301|104:316,2,50,8|8|8,0:3|0:3|0:0,0:3:0:0:
348,311,121709,5,0,0:0:0:0:
232,252,121921,1,4,0:0:0:0:
213,123,122132,1,8,0:3:0:0:
329,182,122344,1,8,0:0:0:0:
82,384,122555,6,0,P|175:375|268:322,1,200,4|8,0:0|0:3,0:0:0:0:
496,336,123190,2,0,P|450:318|380:309,1,100,8|0,0:0|0:0,0:0:0:0:
375,24,123612,5,4,0:0:0:0:
252,62,123824,1,8,0:3:0:0:
445,134,124035,1,8,0:0:0:0:
321,172,124247,2,0,P|280:262|282:361,1,200,4|8,0:0|0:3,0:0:0:0:
152,366,124881,1,8,0:0:0:0:
86,92,125093,5,8,0:0:0:0:
99,118,125198,1,8,0:0:0:0:
113,145,125304,2,0,P|181:195|198:227,1,100,12|8,0:0|0:3,0:0:0:0:
236,328,125727,1,8,0:0:0:0:
282,93,125938,2,0,P|381:49|484:49,1,200,4|8,0:0|0:3,0:0:0:0:
467,213,126573,6,0,L|348:239,1,100,8|8,0:0|0:0,0:0:0:0:
390,280,126890,1,8,0:0:0:0:
418,322,126996,1,8,0:0:0:0:
360,115,127207,1,8,0:0:0:0:
378,76,127314,1,8,0:0:0:0:
247,374,127524,5,8,0:0:0:0:
244,332,127630,1,8,0:0:0:0:
221,41,127841,1,8,0:0:0:0:
224,83,127948,1,8,0:0:0:0:
108,300,128159,5,8,0:0:0:0:
90,338,128265,1,8,0:0:0:0:
78,135,128476,1,8,0:0:0:0:
50,93,128582,1,8,0:0:0:0:
23,51,128687,5,12,0:0:0:0:
221,41,128899,1,8,0:3:0:0:
378,76,129110,1,8,0:0:0:0:
464,172,129321,2,0,P|381:227|313:332,1,200,4|8,0:0|0:3,0:0:0:0:
196,342,129956,1,8,0:0:0:0:
196,342,130167,1,0,0:0:0:0:
144,77,130379,6,0,P|188:94|243:133,1,100,4|8,0:0|0:3,0:0:0:0:
339,50,130802,1,8,0:0:0:0:
71,190,131013,2,0,P|130:263|170:389,1,200,4|8,0:0|0:3,0:0:0:0:
296,366,131647,1,8,0:0:0:0:
501,75,131859,5,8,0:0:0:0:
494,123,131965,1,8,0:0:0:0:
483,170,132070,2,0,L|354:193,1,100,12|8,0:0|0:3,0:0:0:0:
337,98,132493,1,8,0:0:0:0:
453,298,132705,2,0,L|238:336,1,200,4|8,0:0|0:3,0:0:0:0:
119,82,133339,1,8,0:0:0:0:
119,82,133762,5,8,0:3:0:0:
18,247,133973,1,8,0:3:0:0:
32,226,134079,1,8,0:3:0:0:
46,205,134185,1,8,0:0:0:0:
244,340,134396,1,8,0:3:0:0:
228,307,134502,1,8,0:3:0:0:
211,273,134608,1,8,0:3:0:0:
460,109,134819,1,8,0:3:0:0:
404,104,134925,1,8,0:3:0:0:
347,101,135031,1,8,0:0:0:0:
119,82,135242,1,8,0:3:0:0:
119,82,135453,5,12,0:0:0:0:
372,14,135876,1,8,0:0:0:0:
477,90,136088,2,0,L|489:289,1,200,4|8,0:0|0:3,0:0:0:0:
393,378,136722,1,8,0:0:0:0:
109,336,136934,5,8,0:0:0:0:
122,289,137039,1,8,0:0:0:0:
148,244,137145,1,12,0:0:0:0:
425,282,137356,1,8,0:3:0:0:
179,206,137568,1,8,0:0:0:0:
454,239,137779,2,0,P|405:150|306:95,1,200,4|8,0:0|0:3,0:0:0:0:
212,170,138414,1,8,0:0:0:0:
488,337,138625,5,8,0:0:0:0:
448,330,138731,1,8,0:0:0:0:
409,320,138837,2,0,L|398:203,1,100,12|8,0:0|0:3,0:0:0:0:
448,100,139259,1,8,0:0:0:0:
307,373,139471,2,0,L|286:153,1,200,4|8,0:0|0:3,0:0:0:0:
340,54,140105,1,8,0:0:0:0:
5,268,140317,5,8,0:0:0:0:
11,219,140422,1,8,0:0:0:0:
18,171,140528,2,0,P|37:124|69:86,1,100,12|8,0:0|0:0,0:0:0:0:
184,23,140845,2,0,P|231:11|281:15,1,100,8|8,0:0|0:0,0:0:0:0:
403,66,141162,2,0,P|439:99|464:142,1,100,8|8,0:0|0:0,0:0:0:0:
193,377,141585,2,0,L|208:262,1,100,8|8,0:0|0:0,0:0:0:0:
255,265,141903,1,8,0:3:0:0:
302,251,142008,1,8,0:3:0:0:
476,66,142220,6,0,L|461:181,1,100,10|0,0:0|0:0,0:0:0:0:
383,187,142537,2,0,L|363:339,1,150,10|10,0:0|0:3,0:0:0:0:
324,366,142960,1,0,0:0:0:0:
275,376,143065,1,2,0:0:0:0:
230,353,143171,2,0,P|171:337|114:337,1,100,8|2,0:3|0:0,0:0:0:0:
89,252,143488,6,0,P|116:210|153:176,1,100,10|10,0:0|0:3,0:0:0:0:
139,154,143806,1,0,0:0:0:0:
124,134,143911,1,2,0:0:0:0:
107,115,144017,2,0,L|212:120,1,100,8|0,0:3|0:0,0:0:0:0:
266,54,144334,2,0,L|371:59,1,100,10|10,0:0|0:3,0:0:0:0:
391,16,144651,1,0,0:0:0:0:
440,14,144757,1,10,0:3:0:0:
477,43,144862,1,10,0:3:0:0:
473,93,144968,1,0,0:0:0:0:
431,121,145074,1,8,0:3:0:0:
384,106,145180,1,10,0:0:0:0:
495,366,145391,5,10,0:3:0:0:
466,324,145497,1,8,0:3:0:0:
440,280,145603,2,0,L|316:270,1,100,14|0,0:0|0:0,0:0:0:0:
289,353,145920,2,0,P|241:317|183:296,1,100,10|0,0:0|0:0,0:0:0:0:
175,310,146237,1,10,0:3:0:0:
146,319,146343,1,8,0:3:0:0:
117,328,146449,2,0,L|107:206,1,100,10|2,0:0|0:0,0:0:0:0:
174,162,146766,6,0,P|153:103|113:62,1,100,10|0,0:0|0:0,0:0:0:0:
157,63,147083,1,10,0:3:0:0:
184,51,147189,1,0,0:0:0:0:
211,40,147294,1,10,0:3:0:0:
239,29,147400,2,0,L|361:25,1,100,8|2,0:0|0:0,0:0:0:0:
411,120,147717,2,0,L|289:124,1,100,10|2,0:0|0:0,0:0:0:0:
260,125,148034,1,0,0:0:0:0:
209,127,148140,1,10,0:3:0:0:
160,114,148246,1,0,0:0:0:0:
121,81,148352,1,2,0:0:0:0:
91,40,148457,1,0,0:0:0:0:
98,89,148563,1,10,0:0:0:0:
99,139,148669,1,0,0:0:0:0:
86,187,148774,1,2,0:0:0:0:
74,235,148880,1,0,0:0:0:0:
90,282,148986,6,0,P|131:311|167:362,1,100,14|0,0:0|0:0,0:0:0:0:
270,342,149303,2,0,P|283:268|279:186,1,150,10|10,0:0|0:3,0:0:0:0:
329,204,149726,1,0,0:0:0:0:
377,215,149832,1,2,0:0:0:0:
425,225,149937,2,0,L|416:113,1,100,8|2,0:3|0:0,0:0:0:0:
500,67,150254,6,0,P|459:23|424:4,1,100,10|10,0:0|0:3,0:0:0:0:
402,25,150572,1,0,0:0:0:0:
385,49,150677,1,2,0:0:0:0:
368,74,150783,2,0,L|248:83,1,100,8|2,0:3|0:0,0:0:0:0:
207,8,151100,2,0,P|162:43|106:59,1,100,10|8,0:0|0:3,0:0:0:0:
88,20,151417,1,0,0:0:0:0:
40,26,151523,1,10,0:3:0:0:
14,69,151629,1,10,0:3:0:0:
28,115,151735,1,0,0:0:0:0:
75,126,151840,1,8,0:3:0:0:
120,106,151946,1,10,0:0:0:0:
301,357,152157,5,8,0:3:0:0:
257,332,152263,1,8,0:3:0:0:
212,309,152369,2,0,L|211:180,1,100,14|0,0:0|0:0,0:0:0:0:
287,151,152686,2,0,P|239:115|181:94,1,100,10|0,0:0|0:0,0:0:0:0:
242,69,153003,1,10,0:3:0:0:
282,39,153109,1,8,0:3:0:0:
318,14,153215,2,0,L|190:11,1,100,10|0,0:0|0:0,0:0:0:0:
348,96,153532,6,0,L|476:99,1,100,10|0,0:0|0:0,0:0:0:0:
491,123,153849,1,10,0:3:0:0:
511,168,153955,1,0,0:0:0:0:
501,216,154060,1,10,0:3:0:0:
484,263,154166,2,0,P|468:324|472:378,1,100,8|2,0:0|0:0,0:0:0:0:
370,384,154484,2,0,P|327:358|293:322,1,100,10|2,0:0|0:0,0:0:0:0:
268,278,154800,1,0,0:0:0:0:
234,240,154906,1,10,0:3:0:0:
192,211,155012,1,0,0:0:0:0:
147,188,155118,1,2,0:0:0:0:
194,173,155223,1,0,0:0:0:0:
238,149,155329,1,10,0:0:0:0:
267,108,155435,1,0,0:0:0:0:
292,65,155540,1,2,0:0:0:0:
333,37,155646,1,0,0:0:0:0:
382,27,155752,6,0,P|423:56|459:107,1,100,12|8,0:3|0:3,0:0:0:0:
477,89,156069,1,8,0:3:0:0:
501,83,156175,1,8,0:0:0:0:
366,232,156387,1,8,0:3:0:0:
385,247,156492,1,8,0:3:0:0:
402,264,156598,2,0,P|373:305|322:341,1,100,8|8,0:3|0:3,0:0:0:0:
309,330,156915,2,0,L|330:390,1,50,8|8,0:3|0:0,0:0:0:0:
148,283,157232,2,8,L|125:221,1,50,8|8,0:3|0:3,0:3:0:0:
140,212,157444,6,0,P|97:155|25:119,1,150,2|0,0:0|0:0,0:0:0:0:
39,55,157867,2,0,P|99:12|173:0,1,150,2|0,0:0|0:0,0:0:0:0:
224,40,158290,2,0,P|230:114|204:183,1,150,2|0,0:0|0:0,0:0:0:0:
192,247,158713,2,0,P|233:302|323:351,1,150,2|0,0:0|0:0,0:0:0:0:
365,351,159135,5,2,0:0:0:0:
494,204,159453,1,2,0:0:0:0:
362,363,159770,1,2,0:0:0:0:
205,269,159981,1,10,0:3:0:0:
174,286,160087,1,8,0:3:0:0:
143,301,160193,1,8,0:0:0:0:
240,115,160404,1,10,0:3:0:0:
209,132,160510,1,8,0:3:0:0:
178,147,160616,1,8,0:0:0:0:
410,145,160827,6,0,P|379:77|325:25,1,150,2|0,0:0|0:0,0:0:0:0:
263,3,161250,2,0,P|189:15|125:54,1,150,2|0,0:0|0:0,0:0:0:0:
88,107,161673,2,0,P|80:181|102:252,1,150,2|0,0:0|0:0,0:0:0:0:
147,298,162096,2,0,P|216:324|291:322,1,150,2|0,0:0|0:0,0:0:0:0:
356,326,162519,6,0,P|400:334|466:386,1,100,8|8,0:3|0:3,0:0:0:0:
472,348,162836,1,8,0:3:0:0:
494,328,162941,1,8,0:0:0:0:
363,63,163153,2,0,L|385:145,1,50,8|8,0:3|0:3,0:0:0:0:
342,167,163364,2,0,P|306:205|289:263,1,100,8|8,0:3|0:3,0:0:0:0:
258,272,163681,1,8,0:3:0:0:
224,293,163787,1,8,0:0:0:0:
7,130,163999,2,0,L|84:150,1,50,0|8,0:0|0:3,0:0:0:0:
118,125,164210,6,0,P|168:179|187:255,1,150,2|0,0:0|0:0,0:0:0:0:
275,323,164633,2,0,L|441:279,1,150,2|0,0:0|0:0,0:0:0:0:
473,140,165056,2,0,L|307:184,1,150,2|0,0:0|0:0,0:0:0:0:
236,30,165479,2,0,P|161:77|126:147,1,150,2|0,0:0|0:0,0:0:0:0:
0,184,165902,5,2,0:0:0:0:
187,235,166219,1,2,0:0:0:0:
48,371,166536,5,10,0:0:0:0:
0,184,166747,1,2,0:0:0:0:
187,235,166959,1,8,0:0:0:0:
55,354,167170,1,8,0:3:0:0:
15,201,167381,1,8,0:0:0:0:
165,243,167593,5,12,0:0:0:0:
187,235,167910,1,8,0:0:0:0:
208,227,168228,1,8,0:0:0:0:
229,219,168545,1,8,0:0:0:0:
406,360,168862,6,0,L|385:292,1,50,8|0,0:3|0:0,0:0:0:0:
497,262,169073,2,0,L|427:246,1,50,8|0,0:3|0:0,0:0:0:0:
483,346,169285,5,10,0:3:0:0:
346,101,169708,1,8,0:0:0:0:
54,328,170131,6,0,L|111:309,1,50,10|0,0:3|0:0,0:0:0:0:
84,210,170342,2,0,L|128:249,1,50,2|0,0:0|0:0,0:0:0:0:
202,176,170554,2,0,L|189:234,1,50,10|0,0:0|0:0,0:0:0:0:
291,258,170765,2,0,L|234:276,1,50,2|0,0:0|0:0,0:0:0:0:
192,363,170976,5,10,0:3:0:0:
470,335,171399,1,10,0:0:0:0:
501,198,171611,1,10,0:3:0:0:
363,224,171822,1,2,0:0:0:0:
174,267,172034,6,0,L|119:263,1,50,10|0,0:3|0:0,0:0:0:0:
5,175,172245,2,0,L|60:179,1,50,8|0,0:0|0:0,0:0:0:0:
224,122,172457,2,0,L|169:118,1,50,2|0,0:0|0:0,0:0:0:0:
80,47,172668,5,10,0:3:0:0:
35,340,173091,1,8,0:0:0:0:
152,284,173302,1,0,0:0:0:0:
175,302,173408,1,0,0:0:0:0:
198,321,173514,2,0,L|354:284,2,150,2|2|2,0:0|0:0|0:0,0:0:0:0:
64,64,174571,2,2,L|105:11,7,50,2|2|2|2|2|2|2|2,0:0|0:0|0:0|0:0|0:0|0:0|0:0|0:0,0:0:0:0:
87,101,175417,5,10,0:3:0:0:
102,137,175522,1,2,0:0:0:0:
104,177,175628,1,8,0:0:0:0:
91,215,175734,1,2,0:0:0:0:
84,254,175840,1,10,0:3:0:0:
98,290,175945,1,0,0:0:0:0:
123,321,176051,2,0,L|262:309,1,100,10|2,0:3|0:0,0:0:0:0:
341,365,176474,1,8,0:0:0:0:
504,125,176685,1,8,0:3:0:0:
477,167,176791,1,8,0:3:0:0:
432,190,176897,2,0,L|301:177,1,100,10|0,0:3|0:0,0:0:0:0:
210,21,177320,5,10,0:0:0:0:
170,24,177426,1,0,0:0:0:0:
132,35,177531,1,10,0:3:0:0:
106,65,177637,1,0,0:0:0:0:
89,101,177743,2,0,L|74:228,1,100,10|2,0:3|0:0,0:0:0:0:
1,306,178166,1,8,0:0:0:0:
263,384,178377,1,8,0:3:0:0:
240,344,178483,1,8,0:3:0:0:
203,317,178588,2,0,L|218:190,1,100,10|2,0:3|0:0,0:0:0:0:
220,173,178906,1,0,0:0:0:0:
225,143,179011,6,0,L|218:94,1,50,10|0,0:0|0:0,0:0:0:0:
385,20,179223,2,0,L|335:27,1,50,2|0,0:0|0:0,0:0:0:0:
469,148,179434,2,0,L|506:361,1,200,2|8,0:0|0:0,0:0:0:0:
233,282,180069,2,0,P|143:334|26:344,1,200,2|10,0:0|0:3,0:0:0:0:
50,183,180703,2,0,P|92:157|141:150,1,100,8|0,0:0|0:0,0:0:0:0:
270,174,181126,5,2,0:0:0:0:
451,104,181443,1,2,0:0:0:0:
264,189,181760,5,2,0:0:0:0:
467,109,181972,1,8,0:0:0:0:
257,204,182183,1,8,0:3:0:0:
483,114,182394,1,8,0:0:0:0:
251,217,182606,1,8,0:3:0:0:
499,118,182817,5,6,0:0:0:0:
450,188,183029,1,0,0:0:0:0:
483,266,183240,1,0,0:0:0:0:
438,339,183452,1,0,0:0:0:0:
359,304,183663,2,0,P|256:307|169:362,1,197.999999395752,10|2,0:0|0:0,0:0:0:0:
93,331,184509,5,0,0:0:0:0:
14,178,184932,1,2,0:0:0:0:
149,73,185355,1,8,0:0:0:0:
83,128,185566,2,0,L|131:273,1,131.999999597168,0|0,0:0|0:0,0:0:0:0:
383,153,186201,5,10,0:0:0:0:
383,153,186412,2,0,P|314:168|251:213,1,131.999999597168,8|0,0:0|0:0,0:0:0:0:
182,174,187046,2,0,P|158:105|172:33,1,131.999999597168,10|0,0:0|0:0,0:0:0:0:
86,13,187681,1,8,0:0:0:0:
275,88,187892,6,0,L|432:110,1,131.999999597168,2|0,0:0|0:0,0:0:0:0:
436,186,188526,1,0,0:0:0:0:
472,264,188738,1,8,0:0:0:0:
226,333,188949,5,2,0:0:0:0:
308,354,189161,1,0,0:0:0:0:
331,272,189372,1,2,0:0:0:0:
248,249,189584,5,8,0:0:0:0:
248,249,189795,2,0,L|174:113,1,131.999999597168,10|2,0:0|0:0,0:0:0:0:
103,106,190429,1,8,0:0:0:0:
405,149,190641,5,2,0:0:0:0:
433,68,190853,1,0,0:0:0:0:
352,38,191064,1,8,0:0:0:0:
323,119,191275,2,0,P|256:142|174:131,1,131.999999597168,10|0,0:0|0:0,0:0:0:0:
144,68,191910,1,0,0:0:0:0:
101,142,192121,1,8,0:0:0:0:
117,225,192332,1,0,0:0:0:0:
188,272,192544,1,0,0:0:0:0:
273,272,192755,1,0,0:0:0:0:
338,216,192967,5,8,0:0:0:0:
353,300,193178,2,0,P|417:338|504:341,1,131.999999597168,8|0,0:0|0:0,0:0:0:0:
473,345,193813,1,10,0:0:0:0:
376,48,194235,1,8,0:0:0:0:
292,67,194447,1,0,0:0:0:0:
290,152,194658,2,0,P|244:208|174:246,1,131.999999597168,10|0,0:0|0:0,0:0:0:0:
465,368,195504,5,10,0:0:0:0:
434,355,195610,1,8,0:0:0:0:
404,343,195716,2,0,L|397:272,1,65.999999798584,8|8,0:0|0:0,0:0:0:0:
391,191,196139,1,0,0:0:0:0:
316,374,196350,6,0,L|309:303,1,65.999999798584,10|0,0:0|0:0,0:0:0:0:
218,302,196773,2,0,L|211:231,1,65.999999798584,2|0,0:0|0:0,0:0:0:0:
133,370,197196,1,8,0:0:0:0:
47,212,197407,6,0,L|118:205,1,65.999999798584,2|0,0:0|0:0,0:0:0:0:
198,198,197830,1,8,0:0:0:0:
119,114,198042,2,0,L|190:107,1,65.999999798584,2|0,0:0|0:0,0:0:0:0:
34,30,198464,2,0,L|105:23,1,65.999999798584,10|0,0:0|0:0,0:0:0:0:
2,126,198887,1,8,0:0:0:0:
280,48,199099,6,0,L|287:119,1,65.999999798584,2|0,0:0|0:0,0:0:0:0:
294,199,199522,1,0,0:0:0:0:
193,335,199733,2,0,P|207:300|239:266,1,65.999999798584,10|8,0:0|0:0,0:0:0:0:
421,313,200156,2,0,P|399:282|360:256,1,65.999999798584,2|0,0:0|0:0,0:0:0:0:
313,372,200579,1,8,0:0:0:0:
181,127,200790,6,0,L|94:124,1,65.999999798584,2|0,0:0|0:0,0:0:0:0:
29,118,201213,1,8,0:0:0:0:
255,44,201424,2,0,P|283:19|327:5,1,65.999999798584,2|0,0:0|0:0,0:0:0:0:
246,222,201848,2,0,P|268:252|308:275,1,65.999999798584,10|0,0:0|0:0,0:0:0:0:
421,145,202270,1,8,0:0:0:0:
131,243,202482,5,2,0:0:0:0:
54,282,202693,1,2,0:0:0:0:
93,359,202905,1,0,0:0:0:0:
169,319,203116,5,10,0:0:0:0:
169,319,203328,2,0,P|223:341|310:339,1,131.999999597168,8|2,0:0|0:0,0:0:0:0:
376,372,203962,5,8,0:0:0:0:
449,327,204173,1,0,0:0:0:0:
429,243,204385,1,2,0:0:0:0:
345,222,204596,1,8,0:0:0:0:
296,151,204808,2,0,L|304:11,2,131.999999597168,2|8|2,0:0|0:0|0:0,0:0:0:0:
219,189,205865,5,8,0:0:0:0:
154,221,206076,1,10,0:0:0:0:
100,248,206288,1,8,0:0:0:0:
58,269,206499,1,14,0:0:0:0:
256,192,206605,12,0,209883,0:0:0:0:
297,29,213266,5,0,0:0:0:0:
360,85,213477,2,0,P|358:159|324:220,1,131.999999597168,2|0,0:0|0:0,0:0:0:0:
94,237,214957,5,0,0:0:0:0:
111,155,215169,2,0,P|176:120|249:114,1,131.999999597168,2|0,0:0|0:0,0:0:0:0:
296,335,216226,6,0,P|233:296|197:236,1,131.999999597168,2|4,0:0|0:0,0:0:0:0:
256,192,216755,12,8,217917,0:0:0:0:
346,143,218129,5,8,0:0:0:0:
473,120,218340,1,8,0:0:0:0:
347,274,218552,5,8,0:0:0:0:
220,297,218763,1,8,0:0:0:0:
30,204,218975,5,8,0:0:0:0:
157,181,219186,1,8,0:0:0:0:
231,43,219398,5,8,0:0:0:0:
256,170,219609,1,8,0:0:0:0:
263,199,219715,1,8,0:0:0:0:
269,228,219820,1,8,0:0:0:0:
276,257,219926,1,8,0:0:0:0:
284,285,220032,2,0,L|394:235,1,100,12|8,0:0|0:3,0:0:0:0:
494,295,220455,1,8,0:0:0:0:
168,194,220666,2,0,L|370:102,1,200,4|8,0:0|0:3,0:0:0:0:
473,155,221301,1,8,0:0:0:0:
80,5,221512,5,8,0:0:0:0:
112,14,221618,1,8,0:0:0:0:
145,23,221724,2,0,L|134:138,1,100,12|8,0:0|0:3,0:0:0:0:
46,217,222146,1,8,0:0:0:0:
365,352,222358,2,0,P|310:259|225:199,1,200,4|8,0:0|0:3,0:0:0:0:
153,312,222992,1,8,0:0:0:0:
466,82,223204,5,8,0:0:0:0:
426,60,223309,1,8,0:0:0:0:
382,44,223415,2,0,L|270:74,1,100,12|8,0:0|0:3,0:0:0:0:
169,10,223838,1,8,0:0:0:0:
49,312,224049,2,0,P|63:206|128:127,1,200,4|8,0:0|0:3,0:0:0:0:
381,133,224684,2,0,L|245:128,1,100,8|8,0:0|0:0,0:0:0:0:
253,151,225001,5,8,0:0:0:0:
226,174,225107,2,0,L|90:169,1,100,8|8,0:0|0:0,0:0:0:0:
2,277,225424,2,0,L|138:282,1,100,8|8,0:0|0:0,0:0:0:0:
297,374,225741,2,0,L|161:369,1,100,8|8,0:0|0:0,0:0:0:0:
508,273,226058,2,0,L|372:268,1,100,8|8,0:0|0:0,0:0:0:0:
262,132,226375,2,0,L|398:137,1,100,8|8,0:0|0:0,0:0:0:0:
392,117,226692,1,8,0:0:0:0:
422,98,226798,5,12,0:0:0:0:
209,40,227010,1,8,0:3:0:0:
104,232,227221,1,8,0:0:0:0:
332,342,227433,2,0,P|306:242|246:155,1,200,4|8,0:0|0:3,0:0:0:0:
92,63,228067,1,8,0:0:0:0:
33,303,228278,5,8,0:0:0:0:
82,313,228384,1,8,0:0:0:0:
131,328,228490,1,12,0:0:0:0:
213,83,228701,1,8,0:3:0:0:
177,341,228913,1,8,0:0:0:0:
326,32,229124,2,0,P|425:32|512:78,1,200,4|8,0:0|0:3,0:0:0:0:
433,314,229758,1,8,0:0:0:0:
245,6,229970,5,8,0:0:0:0:
230,46,230076,1,8,0:0:0:0:
214,84,230181,1,12,0:0:0:0:
14,171,230393,1,8,0:3:0:0:
93,375,230604,1,8,0:0:0:0:
331,277,230816,2,0,P|408:218|514:188,1,200,4|8,0:0|0:3,0:0:0:0:
291,34,231450,1,8,0:0:0:0:
170,254,231661,2,0,L|88:153,1,100,0|8,0:0|0:3,0:0:0:0:
413,348,232084,5,8,0:3:0:0:
437,304,232190,1,8,0:3:0:0:
477,274,232296,1,8,0:0:0:0:
290,33,232507,1,8,0:3:0:0:
341,32,232613,1,8,0:3:0:0:
386,51,232719,1,8,0:3:0:0:
123,238,232930,1,8,0:3:0:0:
167,213,233036,1,8,0:3:0:0:
214,206,233142,1,8,0:0:0:0:
434,170,233353,1,8,0:3:0:0:
123,238,233564,6,0,L|136:113,1,100,4|8,0:0|0:3,0:0:0:0:
27,14,233987,1,8,0:0:0:0:
323,102,234199,2,0,L|302:300,1,200,4|8,0:0|0:3,0:0:0:0:
466,374,234833,1,8,0:0:0:0:
65,277,235045,5,8,0:0:0:0:
110,264,235150,1,8,0:0:0:0:
154,249,235256,2,0,L|140:142,1,100,12|8,0:0|0:3,0:0:0:0:
407,118,235679,1,8,0:0:0:0:
251,333,235890,2,0,P|336:365|445:368,1,200,4|8,0:0|0:3,0:0:0:0:
131,375,236525,1,8,0:0:0:0:
64,28,236736,5,8,0:0:0:0:
50,77,236842,1,8,0:0:0:0:
34,127,236948,1,12,0:0:0:0:
177,380,237159,1,8,0:3:0:0:
16,177,237371,1,8,0:0:0:0:
386,160,237582,2,0,P|277:177|193:219,1,200,4|8,0:0|0:3,0:0:0:0:
484,259,238216,2,0,P|479:320|457:385,1,100,8|0,0:0|0:0,0:0:0:0:
110,80,238639,6,0,L|182:75,1,50,8|0,0:3|1:0,0:0:0:0:
402,304,238956,2,0,L|352:307,1,50,8|0,0:3|1:0,0:0:0:0:
256,192,239274,5,8,0:3:0:0:
396,8,239485,5,8,0:3:0:0:
399,58,239590,1,8,0:0:0:0:
115,375,239802,1,8,0:3:0:0:
112,325,239907,1,8,0:0:0:0:
479,369,240119,1,8,0:3:0:0:
470,355,240225,1,8,0:3:0:0:
461,341,240331,5,14,0:0:0:0:
415,362,240437,1,0,0:0:0:0:
366,371,240542,1,2,0:0:0:0:
316,363,240648,1,0,0:0:0:0:
271,340,240754,1,8,0:0:0:0:
236,304,240859,1,0,0:0:0:0:
191,281,240965,6,0,P|124:205|9:191,1,200,6|10,0:0|0:3,0:0:0:0:
28,136,241494,1,8,0:3:0:0:
42,88,241599,1,10,0:0:0:0:
74,50,241705,1,0,0:0:0:0:
115,22,241811,1,0,0:0:0:0:
164,15,241917,1,0,0:0:0:0:
212,27,242022,6,0,L|339:19,1,100,6|2,0:0|0:0,0:0:0:0:
350,52,242340,1,0,0:0:0:0:
387,84,242445,1,8,0:0:0:0:
141,150,242657,1,6,0:0:0:0:
187,166,242762,1,0,0:0:0:0:
233,185,242868,1,0,0:0:0:0:
50,355,243080,1,10,0:3:0:0:
98,346,243185,1,8,0:3:0:0:
147,338,243291,1,10,0:0:0:0:
73,52,243502,1,0,0:0:0:0:
62,101,243608,1,0,0:0:0:0:
49,149,243714,6,0,L|1:193,3,50,6|0|2|0,0:0|0:0|0:0|0:0,0:0:0:0:
124,271,244137,2,0,L|104:333,3,50,8|0|6|0,0:0|0:0|0:0|0:0,0:0:0:0:
275,303,244560,2,0,L|289:366,3,50,0|0|10|8,0:0|0:0|0:3|0:3,0:0:0:0:
449,252,244983,2,0,L|493:300,3,50,10|0|0|0,0:0|0:0|0:0|0:0,0:0:0:0:
396,241,245405,5,6,0:0:0:0:
350,220,245511,1,0,0:0:0:0:
314,184,245617,1,2,0:0:0:0:
294,137,245723,1,0,0:0:0:0:
296,87,245828,1,8,0:0:0:0:
272,42,245934,1,0,0:0:0:0:
227,19,246040,1,6,0:0:0:0:
177,11,246146,1,0,0:0:0:0:
132,33,246251,1,0,0:0:0:0:
105,75,246357,1,0,0:0:0:0:
100,124,246463,1,10,0:3:0:0:
117,170,246568,1,8,0:3:0:0:
133,217,246674,2,0,P|136:286|116:333,1,100,10|0,0:0|0:0,0:0:0:0:
94,353,246991,1,0,0:0:0:0:
45,366,247097,1,6,0:0:0:0:
426,351,247309,5,2,0:0:0:0:
380,330,247414,1,0,0:0:0:0:
355,286,247520,1,8,0:0:0:0:
361,236,247626,1,0,0:0:0:0:
392,197,247731,1,6,0:0:0:0:
401,147,247837,1,0,0:0:0:0:
403,96,247943,1,0,0:0:0:0:
372,56,248049,1,0,0:0:0:0:
324,41,248154,1,10,0:3:0:0:
277,59,248260,1,8,0:3:0:0:
254,103,248366,6,0,L|141:95,1,100,10|0,0:0|0:0,0:0:0:0:
104,92,248683,1,0,0:0:0:0:
53,89,248789,1,6,0:0:0:0:
322,202,249000,1,2,0:0:0:0:
271,199,249106,1,0,0:0:0:0:
221,195,249212,1,8,0:0:0:0:
504,330,249423,1,6,0:0:0:0:
453,327,249529,1,0,0:0:0:0:
403,323,249635,1,0,0:0:0:0:
352,18,249846,1,10,0:3:0:0:
395,43,249952,1,8,0:3:0:0:
428,79,250057,2,0,L|536:73,1,100,10|0,0:0|0:0,0:0:0:0:
84,120,250480,6,0,L|25:151,3,50,6|0|2|0,0:0|0:0|0:0|0:0,0:0:0:0:
149,279,250903,2,0,L|146:345,3,50,8|0|6|0,0:0|0:0|0:0|0:0,0:0:0:0:
321,344,251326,2,0,L|377:379,3,50,0|0|10|8,0:0|0:0|0:3|0:3,0:0:0:0:
444,216,251749,2,0,L|503:184,3,50,10|0|0|0,0:0|0:0|0:0|0:0,0:0:0:0:
423,31,252172,6,0,L|291:24,1,100,14|0,0:0|0:0,0:0:0:0:
96,96,252489,2,0,L|228:89,1,100,10|0,0:0|0:0,0:0:0:0:
423,159,252806,2,0,L|291:152,1,100,14|0,0:0|0:0,0:0:0:0:
96,224,253123,2,0,L|228:217,1,100,10|0,0:0|0:0,0:0:0:0:
426,298,253440,6,0,L|472:254,1,50,2|0,0:0|0:0,0:0:0:0:
331,264,253652,2,0,L|315:202,1,50,0|0,0:0|0:0,0:0:0:0:
350,350,253863,5,14,0:0:0:0:
350,350,254498,1,6,0:0:0:0:
350,350,255132,5,8,0:0:0:0:
162,34,255343,1,12,0:0:0:0:
