osu file format v13

[General]
AudioFilename: Dead To The World.mp3
AudioLeadIn: 0
PreviewTime: 67787
Countdown: 0
SampleSet: Soft
StackLeniency: 0.7
Mode: 0
LetterboxInBreaks: 0
WidescreenStoryboard: 0

[Editor]
Bookmarks: 40300,50660,182814,209880
DistanceSpacing: 1.6
BeatDivisor: 4
GridSize: 32
TimelineZoom: 1

[Metadata]
Title:Dead to the World
TitleUnicode:Dead to the World
Artist:Nightwish
ArtistUnicode:Nightwish
Creator:Xanandra
Version:Hard
Source:
Tags:tarja turunen power metal Sieg Shiro Odaril Nwolf Century Child
BeatmapID:368499
BeatmapSetID:149115

[Difficulty]
HPDrainRate:5
CircleSize:4
OverallDifficulty:5
ApproachRate:7
SliderMultiplier:1.5
SliderTickRate:2

[Events]
//Background and Video events
0,0,"bg.jpg",0,0
//Break Periods
2,40725,49183
2,210083,212366
//Storyboard Layer 0 (Background)
//Storyboard Layer 1 (Fail)
//Storyboard Layer 2 (Pass)
//Storyboard Layer 3 (Foreground)
//Storyboard Sound Samples
//Background Colour Transformations
3,100,0,0,0

[TimingPoints]
5203,422.892585283338,4,2,1,60,1,0
39140,-100,4,2,3,60,0,0
40408,-100,4,2,1,60,0,0
50346,-100,4,2,2,60,0,0
50558,-100,4,2,1,60,0,0
52038,-100,4,2,2,60,0,0
52249,-100,4,2,1,60,0,0
53729,-100,4,3,0,60,0,0
53941,-100,4,2,1,60,0,0
60919,-100,4,3,0,60,0,0
61130,-100,4,2,1,60,0,0
62610,-100,4,3,0,60,0,0
62822,-100,4,2,1,60,0,0
65570,-100,4,2,2,60,0,0
65782,-100,4,2,1,60,0,0
74663,-100,4,2,2,60,0,0
81323,-100,4,2,1,60,0,0
88089,-100,4,2,2,60,0,0
91473,-100,4,2,1,60,0,0
98133,-100,4,2,2,60,0,0
98345,-100,4,2,1,60,0,0
99825,-100,4,2,2,60,0,0
100036,-100,4,2,1,60,0,0
102785,-100,4,2,2,60,0,0
102996,-100,4,2,1,60,0,0
104477,-100,4,2,2,60,0,0
104688,-100,4,2,1,60,0,0
111666,-100,4,2,2,60,0,0
111877,-100,4,2,1,60,0,0
113357,-100,4,2,2,60,0,0
113569,-100,4,2,1,60,0,0
126996,-100,4,3,2,60,0,0
128687,-100,4,2,1,60,0,0
140528,-100,4,3,2,60,0,0
141797,-100,4,2,1,60,0,0
157444,-100,4,2,2,60,0,0
159135,-100,4,2,1,60,0,0
160827,-100,4,2,2,60,0,0
162519,-100,4,2,1,60,0,0
164210,-100,4,2,2,60,0,0
165902,-100,4,2,1,60,0,0
182817,-151.515151515152,4,2,3,40,0,0
213054,-151.515151515152,4,2,3,10,0,0
214534,-151.515151515152,4,2,3,20,0,0
216014,-151.515151515152,4,2,3,30,0,0
216649,-100,4,2,3,40,0,1
216755,-100,4,2,1,20,0,1
218235,-100,4,2,1,30,0,1
218658,-100,4,2,1,40,0,1
219080,-100,4,2,1,50,0,1
219503,-100,4,2,1,60,0,1
219926,-100,4,2,1,60,0,0
220032,-100,4,2,1,60,0,1
225107,-100,4,3,2,60,0,0
226798,-100,4,2,1,60,0,1
238639,-100,4,2,1,60,0,0
240331,-100,4,2,1,60,0,1
253440,-100,4,2,1,60,0,0
254392,-100,4,2,3,60,0,0
254603,-100,4,2,1,60,0,0
255343,-100,4,2,1,60,0,1
255555,-100,4,2,1,60,0,0

[Colours]
Combo1 : 255,255,0
Combo2 : 185,185,185
Combo3 : 245,0,0
Combo4 : 150,150,150

[HitObjects]
160,250,5202,5,8,0:0:0:0:
117,112,8374,5,8,0:0:0:0:
117,112,8586,1,8,0:0:0:0:
335,318,10277,5,12,0:2:0:0:
335,318,11123,1,12,0:0:0:0:
393,172,11546,1,12,0:0:0:0:
257,87,12392,5,12,0:2:0:0:
256,192,12603,12,8,15140,0:0:0:0:
256,160,17043,5,12,0:0:0:0:
168,136,17889,5,12,0:0:0:0:
256,96,18101,1,8,0:0:0:0:
344,136,18312,1,8,0:0:0:0:
295,324,18735,6,0,B|154:317,1,112.5,6|2,0:0|0:0,0:0:0:0:
152,280,19158,1,10,0:0:0:0:
55,287,19369,1,8,0:3:0:0:
98,199,19581,2,0,B|239:206,1,112.5,2|2,0:0|0:0,0:0:0:0:
248,234,20004,1,10,0:0:0:0:
300,152,20215,1,8,0:3:0:0:
395,174,20427,6,0,P|421:118|403:54,1,112.5,2|0,0:0|0:0,0:0:0:0:
445,33,20850,1,10,0:0:0:0:
349,13,21061,1,8,0:3:0:0:
262,58,21272,1,0,0:0:0:0:
218,79,21378,2,0,L|132:64,1,75,10|0,0:3|0:0,0:0:0:0:
100,87,21695,1,10,0:0:0:0:
150,170,21907,5,10,0:3:0:0:
150,170,22012,1,0,0:0:0:0:
150,170,22118,2,0,P|120:232|73:257,1,112.5,10|0,0:3|0:0,0:0:0:0:
77,302,22541,1,10,0:0:0:0:
140,376,22753,1,10,0:3:0:0:
140,376,22858,1,0,0:0:0:0:
140,376,22964,2,0,L|262:374,1,112.5,10|0,0:3|0:0,0:0:0:0:
287,339,23387,1,10,0:0:0:0:
260,245,23598,1,10,0:3:0:0:
344,197,23810,5,2,0:3:0:0:
335,149,23915,2,0,P|351:115|399:91,1,75,8|0,0:3|0:0,0:0:0:0:
431,92,24232,1,10,0:0:0:0:
435,189,24444,1,10,0:3:0:0:
435,189,24550,1,0,0:0:0:0:
435,189,24656,2,0,L|514:191,1,75,10|8,0:0|0:3,0:0:0:0:
472,280,25078,2,0,L|393:278,1,75,10|0,0:0|0:0,0:0:0:0:
342,359,25501,6,0,P|289:326|256:253,1,112.5,6|0,0:0|0:0,0:0:0:0:
214,282,25924,1,10,0:0:0:0:
148,209,26136,1,0,0:3:0:0:
209,133,26347,2,0,P|178:86|130:58,1,112.5,2|0,0:0|0:0,0:0:0:0:
125,9,26770,1,10,0:0:0:0:
27,16,26981,1,8,0:3:0:0:
26,113,27193,6,0,L|16:233,1,112.5,2|0,0:0|0:0,0:0:0:0:
40,267,27616,1,10,0:0:0:0:
118,324,27827,1,8,0:3:0:0:
196,265,28039,1,2,0:0:0:0:
243,274,28145,2,0,P|274:305|272:355,1,75,8|0,0:3|0:0,0:0:0:0:
261,380,28462,1,10,0:0:0:0:
358,374,28673,5,10,0:3:0:0:
358,374,28779,1,0,0:0:0:0:
358,374,28884,2,0,L|483:367,1,112.5,10|0,0:3|0:0,0:0:0:0:
504,332,29307,1,10,0:0:0:0:
458,245,29519,1,10,0:3:0:0:
458,245,29625,1,0,0:0:0:0:
458,245,29730,2,0,L|333:252,1,112.5,10|0,0:3|0:0,0:0:0:0:
312,287,30153,1,10,0:0:0:0:
248,212,30365,1,10,0:3:0:0:
183,285,30576,5,2,0:0:0:0:
141,260,30681,2,0,L|116:180,1,75,8|0,0:3|0:0,0:0:0:0:
73,169,30999,1,10,0:0:0:0:
126,88,31210,1,10,0:3:0:0:
126,88,31316,1,0,0:0:0:0:
126,88,31422,2,0,L|210:61,1,75,8|10,0:0|0:3,0:3:0:0:
263,137,31845,2,0,L|179:164,1,75,10|10,0:0|0:3,0:0:0:0:
96,179,32267,5,14,0:3:0:0:
103,276,32479,1,10,0:3:0:0:
174,342,32691,1,10,0:0:0:0:
271,343,32902,1,10,0:3:0:0:
348,282,33114,1,10,0:3:0:0:
348,282,33325,1,10,0:3:0:0:
437,319,33536,6,0,P|456:317|486:309,4,37.5,10|0|10|0|12,0:0|0:0|0:3|0:0|0:3,0:0:0:0:
361,381,34171,1,0,0:0:0:0:
271,343,34382,2,0,P|217:296|138:279,1,150,8|8,0:0|0:3,0:0:0:0:
44,273,35016,1,0,0:0:0:0:
55,176,35228,2,0,L|47:16,1,150,8|8,0:0|0:3,0:0:0:0:
47,27,35862,1,0,0:0:0:0:
47,27,36074,1,8,0:0:0:0:
198,150,36497,5,8,0:3:0:0:
198,150,36709,1,0,0:0:0:0:
198,150,36919,2,0,L|205:300,1,150,8|4,0:0|0:0,0:0:0:0:
294,262,37554,2,0,L|300:363,1,75,0|8,0:0|0:0,0:0:0:0:
391,369,37977,1,0,0:0:0:0:
476,324,38188,2,0,L|470:223,1,75,12|0,0:3|0:0,0:0:0:0:
381,211,38611,1,8,0:0:0:0:
374,114,38822,5,8,0:3:0:0:
374,114,38928,1,8,0:3:0:0:
374,114,39034,1,14,0:3:0:0:
256,192,39140,12,0,40303,0:0:0:0:
122,220,50452,6,0,B|132:179|125:130,1,75,2|8,0:3|0:0,0:0:0:0:
126,146,50769,1,8,0:0:0:0:
126,146,50875,1,12,0:0:0:0:
210,98,51086,2,0,B|240:123|287:121,1,75,8|8,0:3|0:0,0:0:0:0:
359,177,51509,2,0,B|369:258|290:302,1,150,4|8,0:0|0:3,0:0:0:0:
364,366,52143,1,2,0:3:0:0:
449,318,52355,5,8,0:0:0:0:
449,318,52461,1,8,0:2:0:0:
449,318,52566,2,0,B|426:224,1,75,12|8,0:0|0:3,0:0:0:0:
504,180,52989,1,8,0:0:0:0:
430,116,53201,2,0,B|383:179|293:166,1,150,4|8,0:0|0:3,0:0:0:0:
245,83,53835,1,6,0:3:0:0:
169,144,54047,5,8,0:0:0:0:
169,144,54152,1,8,0:0:0:0:
169,144,54258,2,0,B|188:237,1,75,14|8,0:0|0:3,0:0:0:0:
92,252,54681,2,0,B|111:345,1,75,8|2,0:0|0:0,0:0:0:0:
197,362,55104,2,0,B|236:287|324:296,1,150,2|10,0:0|0:0,0:0:0:0:
319,197,55738,1,0,0:0:0:0:
404,244,55950,6,0,B|403:300|459:319,2,75,2|8|8,0:0|0:3|0:0,0:0:0:0:
488,194,56584,1,2,0:0:0:0:
400,150,56795,2,0,B|409:64|335:14,2,150,2|10|2,0:0|0:0|0:0,0:0:0:0:
334,223,57853,6,0,B|247:238,1,75,8|8,0:3|0:0,0:0:0:0:
294,327,58276,2,0,B|120:357,1,150,2|8,0:0|0:3,0:0:0:0:
65,296,58910,1,10,0:0:0:0:
66,198,59121,1,0,0:0:0:0:
162,179,59333,6,0,B|245:146|229:60,1,150,2|10,0:0|0:0,0:0:0:0:
145,12,59967,2,0,B|62:45|77:130,1,150,2|8,0:0|0:3,0:0:0:0:
27,214,60601,2,0,B|80:280,1,75,10|0,0:0|0:0,0:0:0:0:
140,200,61024,2,0,B|189:131|271:152,1,150,2|8,0:3|0:0,0:0:0:0:
304,244,61659,2,0,B|255:312|173:290,1,150,0|0,0:0|0:0,0:0:0:0:
94,356,62293,6,0,B|63:266,1,75,8|0,0:0|0:0,0:0:0:0:
146,224,62716,2,0,B|115:134,1,75,2|8,0:3|0:3,0:0:0:0:
47,216,63139,2,0,B|16:126,1,75,8|0,0:0|0:0,0:0:0:0:
98,83,63562,2,0,B|67:-7,2,75,8|0|8,0:3|0:0|0:0,0:0:0:0:
192,108,64196,5,8,0:2:0:0:
192,108,64302,1,8,0:2:0:0:
192,108,64407,2,0,B|202:160|152:189,1,75,12|8,0:0|0:3,0:0:0:0:
257,219,64830,1,8,0:0:0:0:
170,265,65042,2,0,B|186:352|272:357,1,150,4|8,0:3|0:3,0:0:0:0:
364,324,65676,2,0,B|396:295|377:256,1,75,2|8,0:3|0:0,0:0:0:0:
377,256,65993,1,8,0:0:0:0:
377,256,66099,1,12,0:0:0:0:
472,238,66310,6,0,B|433:156,1,75,8|8,0:3|0:0,0:0:0:0:
342,167,66733,2,0,B|326:80|420:42,1,150,4|8,0:0|0:0,0:0:0:0:
408,47,67262,1,8,0:0:0:0:
408,47,67368,1,8,0:0:0:0:
317,12,67579,1,8,0:0:0:0:
317,12,67685,1,8,0:0:0:0:
317,12,67791,6,0,B|221:5,1,75,12|0,0:0|0:0,0:0:0:0:
160,60,68213,2,0,B|137:96|158:131,1,75,10|0,0:0|0:0,0:0:0:0:
75,78,68636,2,0,B|-1:118|-1:199,1,150,2|10,0:0|0:0,0:0:0:0:
96,206,69271,2,0,B|95:287|19:327,1,150,2|2,0:0|0:0,0:0:0:0:
111,363,69905,1,8,0:0:0:0:
177,291,70117,2,0,B|217:367|301:354,1,150,2|2,0:0|0:0,0:0:0:0:
310,257,70751,2,0,B|290:219|247:225,1,75,10|2,0:0|0:0,0:0:0:0:
220,131,71174,6,0,B|240:47|325:38,1,150,6|8,0:0|0:0,0:0:0:0:
414,1,71808,1,2,0:0:0:0:
424,98,72020,2,0,B|460:175|400:235,1,150,2|10,0:0|0:0,0:0:0:0:
498,240,72654,2,0,B|444:305|488:379,1,150,2|2,0:0|0:0,0:0:0:0:
390,372,73288,1,8,0:0:0:0:
390,372,73500,2,0,B|233:368,1,150,2|2,0:0|0:0,0:0:0:0:
142,357,74134,1,10,0:0:0:0:
83,279,74345,1,2,0:0:0:0:
117,187,74557,6,0,B|127:96|39:76,3,150,6|8|2|8,0:0|0:0|0:0|0:0,0:0:0:0:
102,0,76037,2,0,B|172:105|300:55,1,225,2|8,0:0|0:0,0:0:0:0:
128,150,77094,1,2,0:0:0:0:
79,234,77306,2,0,B|86:288|143:294,1,75,0|8,0:0|0:0,0:0:0:0:
217,267,77729,2,0,B|221:207|264:162|325:150|384:168,1,225,2|8,0:0|0:0,0:0:0:0:
489,3,78786,6,0,B|486:42|457:72|420:85|378:68,1,150,2|8,0:0|0:0,0:0:0:0:
183,78,79632,2,0,B|185:38|214:8|252:-4|294:13,1,150,6|8,0:0|0:0,0:0:0:0:
293,12,80266,1,4,0:0:0:0:
363,194,80689,1,4,0:0:0:0:
419,273,80900,1,8,0:0:0:0:
321,284,81112,2,0,B|232:283|199:355,1,150,4|8,0:0|0:3,0:0:0:0:
142,274,81746,2,0,B|128:228|80:223,1,75,8|0,0:0|0:0,0:0:0:0:
163,159,82169,6,0,B|151:3,1,150,8|8,0:3|0:0,0:0:0:0:
241,46,82803,2,0,B|253:202,1,150,8|8,0:3|0:3,0:0:0:0:
333,251,83438,1,8,0:0:0:0:
333,153,83649,2,0,B|321:-3,1,150,0|8,0:0|0:3,0:0:0:0:
408,47,84283,2,0,B|417:138|508:160,2,150,8|8|8,0:0|0:3|0:0,0:0:0:0:
505,59,85341,1,0,0:0:0:0:
339,162,85764,5,8,0:3:0:0:
407,230,85975,2,0,B|389:311|290:321,2,150,8|8|8,0:0|0:3|0:0,0:0:0:0:
504,231,87032,2,0,B|430:90,1,150,0|8,0:0|0:3,0:0:0:0:
499,24,87667,1,8,0:0:0:0:
305,42,88089,6,0,P|285:107|214:142,1,150,4|8,0:0|0:0,0:0:0:0:
219,240,88724,2,0,P|271:296|359:301,1,150,2|0,0:0|0:0,0:0:0:0:
340,305,89358,1,8,0:0:0:0:
147,273,89781,6,0,B|215:217|170:136,1,150,4|8,0:0|0:0,0:0:0:0:
130,51,90415,1,0,0:0:0:0:
54,113,90627,2,0,B|-14:169|28:246,1,150,4|8,0:0|0:0,0:0:0:0:
70,334,91261,1,0,0:0:0:0:
147,273,91473,6,0,B|213:326,1,75,14|0,0:0|0:0,0:0:0:0:
235,227,91895,2,0,B|301:280,1,75,8|2,0:0|0:0,0:0:0:0:
343,358,92318,2,0,B|382:283|470:292,1,150,2|10,0:0|0:0,0:0:0:0:
419,205,92953,1,0,0:0:0:0:
508,166,93164,6,0,B|509:110|453:91,2,75,2|8|8,0:0|0:3|0:0,0:0:0:0:
410,175,93799,1,2,0:0:0:0:
396,78,94010,2,0,B|311:96|286:181,2,150,2|10|2,0:0|0:0|0:0,0:0:0:0:
311,28,95067,6,0,B|236:12,1,75,8|8,0:3|0:0,0:0:0:0:
186,95,95490,1,2,0:0:0:0:
186,95,95702,2,0,B|111:79,1,75,2|8,0:0|0:3,0:0:0:0:
22,115,96124,1,10,0:0:0:0:
22,115,96336,1,0,0:0:0:0:
86,188,96547,6,0,B|257:168,1,150,2|8,0:0|0:0,0:0:0:0:
219,267,97182,2,0,B|390:247,1,150,2|8,0:0|0:3,0:0:0:0:
418,333,97816,2,0,B|429:290|484:290,1,75,10|0,0:0|0:0,0:0:0:0:
495,195,98239,2,0,B|424:149|440:66,1,150,2|8,0:3|0:0,0:0:0:0:
365,3,98873,6,0,B|319:-1|293:19,1,75,0|8,0:0|0:3,0:0:0:0:
343,103,99296,2,0,B|301:122|289:153,1,75,0|8,0:0|0:0,0:0:0:0:
209,98,99719,2,0,B|182:135|187:168,1,75,0|2,0:0|0:3,0:0:0:0:
284,179,100142,2,0,B|279:224|300:250,1,75,8|8,0:3|0:0,0:0:0:0:
206,278,100565,2,0,B|225:319|256:331,1,75,0|8,0:0|0:3,0:0:0:0:
327,266,100988,2,0,B|364:292|397:287,1,75,0|8,0:0|0:0,0:0:0:0:
487,324,101411,5,8,0:0:0:0:
487,324,101517,1,8,0:0:0:0:
487,324,101622,2,0,B|472:239,1,75,12|8,0:0|0:3,0:0:0:0:
390,198,102045,1,8,0:0:0:0:
471,143,102257,2,0,B|455:56|369:51,1,150,4|8,0:0|0:3,0:0:0:0:
275,77,102891,2,0,B|307:48|288:9,1,75,2|8,0:3|0:0,0:0:0:0:
288,9,103208,1,8,0:0:0:0:
288,9,103314,5,12,0:0:0:0:
193,31,103525,2,0,B|88:21,1,75,8|8,0:3|0:0,0:0:0:0:
142,118,103948,2,0,B|106:198|1:197,1,150,4|8,0:0|0:3,0:0:0:0:
23,196,104477,1,0,0:0:0:0:
23,196,104582,1,6,0:3:0:0:
51,289,104794,5,8,0:0:0:0:
51,289,104899,1,8,0:0:0:0:
51,289,105005,2,0,B|37:334|68:375,2,75,14|8|8,0:0|0:3|0:0,0:0:0:0:
142,323,105639,1,2,0:0:0:0:
126,227,105851,2,0,B|154:137|92:55,1,150,2|10,0:0|0:0,0:0:0:0:
168,3,106485,1,0,0:0:0:0:
242,66,106697,6,0,B|257:26|292:13,2,75,2|8|8,0:0|0:3|0:0,0:0:0:0:
196,152,107331,1,2,0:0:0:0:
293,140,107543,2,0,B|364:100|440:137,1,150,2|10,0:0|0:0,0:0:0:0:
511,198,108177,1,0,0:0:0:0:
462,282,108388,5,2,0:0:0:0:
462,282,108600,2,0,B|478:368,1,75,8|8,0:3|0:0,0:0:0:0:
381,381,109023,1,2,0:0:0:0:
381,381,109234,2,0,P|305:359|215:364,1,150,2|10,0:0|0:0,0:0:0:0:
167,288,109868,1,0,0:0:0:0:
125,376,110080,5,2,0:0:0:0:
125,376,110291,2,0,B|33:366,1,75,8|8,0:3|0:0,0:0:0:0:
15,278,110714,1,2,0:0:0:0:
15,278,110926,2,0,B|25:186,1,75,2|8,0:0|0:3,0:0:0:0:
79,123,111349,2,0,B|-13:113,1,75,10|0,0:0|0:0,0:0:0:0:
51,29,111771,6,0,B|200:45,1,150,2|8,0:3|0:0,0:0:0:0:
200,45,112406,1,0,0:0:0:0:
291,8,112617,1,8,0:3:0:0:
385,29,112829,1,0,0:0:0:0:
457,93,113040,1,8,0:0:0:0:
480,188,113252,1,0,0:0:0:0:
448,280,113463,5,2,0:3:0:0:
372,340,113674,1,8,0:3:0:0:
274,351,113886,1,8,0:0:0:0:
188,305,114097,1,0,0:0:0:0:
139,221,114309,1,8,0:3:0:0:
144,124,114520,5,8,0:0:0:0:
144,124,114626,1,8,0:0:0:0:
144,124,114732,1,8,0:0:0:0:
144,124,114837,1,8,0:0:0:0:
144,124,114943,1,8,0:0:0:0:
144,124,115049,1,8,0:0:0:0:
144,124,115155,2,0,B|227:108,1,75,12|8,0:0|0:3,0:0:0:0:
301,159,115577,1,8,0:0:0:0:
328,65,115789,2,0,B|415:81|420:167,1,150,4|8,0:0|0:3,0:0:0:0:
481,242,116423,2,0,B|440:225|414:260,1,75,8|8,0:0|0:0,0:0:0:0:
414,260,116740,1,8,0:0:0:0:
414,260,116846,5,12,0:0:0:0:
322,292,117057,2,0,B|331:205,1,75,8|8,0:3|0:0,0:0:0:0:
314,120,117480,2,0,B|258:189|168:143,1,150,4|8,0:0|0:3,0:0:0:0:
180,148,118009,1,0,0:0:0:0:
180,148,118115,1,8,0:0:0:0:
235,68,118326,1,8,0:0:0:0:
235,68,118432,1,8,0:0:0:0:
235,68,118538,5,12,0:0:0:0:
159,6,118749,1,8,0:3:0:0:
93,78,118961,1,8,0:0:0:0:
81,174,119172,2,0,B|104:263|10:292,1,150,4|8,0:0|0:3,0:0:0:0:
94,347,119806,2,0,B|144:273|234:288,1,150,8|8,0:0|0:3,0:0:0:0:
316,257,120441,6,0,B|330:233|357:234,2,37.5,8|8|8,0:3|0:3|0:0,0:0:0:0:
266,172,120864,2,0,B|266:144|290:131,2,37.5,8|8|8,0:3|0:3|0:3,0:0:0:0:
174,207,121287,2,0,B|160:182|174:159,2,37.5,8|8|8,0:3|0:3|0:0,0:0:0:0:
225,289,121709,1,0,0:0:0:0:
225,289,121921,6,0,B|226:338|196:364,1,75,4|8,0:0|0:3,0:0:0:0:
298,373,122344,1,8,0:0:0:0:
322,278,122555,2,0,B|415:270|453:345,1,150,4|8,0:0|0:3,0:0:0:0:
500,254,123190,1,8,0:0:0:0:
443,174,123401,1,8,0:0:0:0:
443,174,123507,1,8,0:0:0:0:
443,174,123612,2,0,B|356:180,1,75,12|8,0:0|0:3,0:0:0:0:
273,202,124035,1,8,0:0:0:0:
224,117,124247,2,0,B|229:20|322:4,1,150,4|8,0:0|0:3,0:0:0:0:
362,88,124881,6,0,B|536:76,2,150,8|12|8,0:0|0:0|0:0,0:0:0:0:
264,95,125938,2,0,B|90:107,1,150,4|8,0:0|0:3,0:0:0:0:
45,175,126573,1,8,0:0:0:0:
45,175,126784,1,8,0:0:0:0:
128,230,126996,2,0,B|134:317,1,75,8|8,0:0|0:0,0:0:0:0:
137,353,127313,1,8,0:0:0:0:
218,299,127524,6,8,L|212:237,1,37.5
292,202,127841,2,8,L|298:264,1,37.5
371,176,128159,2,8,L|365:114,1,37.5
452,89,128476,2,8,L|458:151,1,37.5
461,175,128687,6,0,B|483:223|458:256,1,75,12|8,0:0|0:3,0:0:0:0:
503,336,129110,1,8,0:0:0:0:
405,331,129321,2,0,B|338:283|250:312,1,150,4|8,0:0|0:3,0:0:0:0:
262,308,129956,1,8,0:0:0:0:
167,330,130167,1,8,0:0:0:0:
167,330,130273,1,8,0:0:0:0:
167,330,130379,2,0,B|182:241,1,75,12|8,0:0|0:3,0:0:0:0:
103,194,130802,1,8,0:0:0:0:
197,170,131013,2,0,B|227:-8,1,150,4|8,0:0|0:3,0:0:0:0:
221,22,131647,1,8,0:0:0:0:
313,56,131859,5,8,0:0:0:0:
313,56,131965,1,8,0:0:0:0:
313,56,132070,2,0,B|402:71,1,75,12|8,0:0|0:3,0:0:0:0:
384,166,132493,1,8,0:0:0:0:
480,153,132705,2,0,B|511:245|454:315,1,150,4|8,0:0|0:3,0:0:0:0:
380,343,133339,2,0,P|302:326|216:327,1,150,8|8,0:0|0:3,0:0:0:0:
147,276,133973,6,8,P|107:281|79:291,2,37.5,8|8|8,0:3|0:3|0:0,0:3:0:0:
225,217,134396,2,8,P|265:222|293:232,2,37.5,8|8|8,0:3|0:3|0:3,0:3:0:0:
215,119,134819,2,8,P|210:79|200:51,2,37.5,8|8|8,0:3|0:3|0:0,0:3:0:0:
313,117,135242,1,8,0:3:0:0:
403,151,135453,6,0,B|447:80|414:7,1,150,12|8,0:0|0:0,0:0:0:0:
414,7,136088,1,4,0:0:0:0:
228,65,136511,1,8,0:3:0:0:
138,27,136722,2,0,B|54:26,1,75,8|8,0:0|0:0,0:0:0:0:
63,26,137039,1,8,0:0:0:0:
63,26,137145,1,12,0:0:0:0:
27,116,137356,2,0,B|111:117,1,75,8|8,0:3|0:0,0:0:0:0:
199,121,137779,2,0,B|292:127|304:233,1,150,4|8,0:0|0:3,0:0:0:0:
391,251,138414,2,0,B|343:266|338:322,1,75,8|8,0:0|0:0,0:0:0:0:
341,303,138731,1,8,0:0:0:0:
341,303,138837,6,0,B|189:312,1,150,12|8,0:0|0:0,0:0:0:0:
140,228,139471,2,0,B|291:218,1,150,4|8,0:0|0:3,0:0:0:0:
330,129,140105,2,0,B|252:132,1,75,8|8,0:0|0:0,0:0:0:0:
255,131,140422,1,8,0:0:0:0:
255,131,140528,1,8,0:0:0:0:
170,81,140740,5,8,0:0:0:0:
170,81,140845,1,8,0:0:0:0:
121,165,141057,1,8,0:0:0:0:
121,165,141162,1,8,0:0:0:0:
204,215,141374,2,0,B|218:262|177:304,1,75,8|8,0:0|0:0,0:0:0:0:
237,372,141797,1,8,0:0:0:0:
237,372,141903,1,8,0:3:0:0:
237,372,142008,1,8,0:3:0:0:
330,344,142220,6,0,B|471:337,1,112.5,6|2,0:0|0:0,0:0:0:0:
486,317,142643,1,10,0:0:0:0:
508,223,142854,1,8,0:3:0:0:
414,199,143066,2,0,B|273:206,1,112.5,2|2,0:0|0:0,0:0:0:0:
263,235,143489,1,10,0:0:0:0:
212,152,143700,1,8,0:3:0:0:
117,174,143912,6,0,P|91:118|109:54,1,112.5,2|0,0:0|0:0,0:0:0:0:
67,33,144335,1,10,0:0:0:0:
163,13,144546,1,8,0:3:0:0:
250,58,144757,1,0,0:0:0:0:
294,79,144863,2,0,L|380:64,1,75,10|0,0:3|0:0,0:0:0:0:
412,87,145180,1,10,0:0:0:0:
362,170,145392,5,10,0:3:0:0:
362,170,145497,1,0,0:0:0:0:
362,170,145603,2,0,P|392:232|439:257,1,112.5,10|0,0:3|0:0,0:0:0:0:
435,302,146026,1,10,0:0:0:0:
372,376,146238,1,10,0:3:0:0:
372,376,146343,1,0,0:0:0:0:
372,376,146449,2,0,L|250:374,1,112.5,10|0,0:3|0:0,0:0:0:0:
225,339,146872,1,10,0:0:0:0:
252,245,147083,1,10,0:3:0:0:
168,197,147295,5,2,0:3:0:0:
177,149,147400,2,0,P|161:115|113:91,1,75,8|0,0:3|0:0,0:0:0:0:
81,92,147717,1,10,0:0:0:0:
77,189,147929,1,10,0:3:0:0:
77,189,148035,1,0,0:0:0:0:
77,189,148141,2,0,L|-2:191,1,75,10|8,0:0|0:3,0:0:0:0:
40,280,148563,2,0,L|119:278,1,75,10|0,0:0|0:0,0:0:0:0:
170,359,148986,6,0,P|223:326|256:253,1,112.5,6|0,0:0|0:0,0:0:0:0:
298,282,149409,1,10,0:0:0:0:
364,209,149621,1,0,0:3:0:0:
303,133,149832,2,0,P|334:86|382:58,1,112.5,2|0,0:0|0:0,0:0:0:0:
387,9,150255,1,10,0:0:0:0:
485,16,150466,1,8,0:3:0:0:
486,113,150678,6,0,L|496:233,1,112.5,2|0,0:0|0:0,0:0:0:0:
472,267,151101,1,10,0:0:0:0:
394,324,151312,1,8,0:3:0:0:
316,265,151524,1,2,0:0:0:0:
269,274,151630,2,0,P|238:305|240:355,1,75,8|0,0:3|0:0,0:0:0:0:
251,380,151947,1,10,0:0:0:0:
154,374,152158,5,10,0:3:0:0:
154,374,152264,1,0,0:0:0:0:
154,374,152369,2,0,L|29:367,1,112.5,10|0,0:3|0:0,0:0:0:0:
8,332,152792,1,10,0:0:0:0:
54,245,153004,1,10,0:3:0:0:
54,245,153110,1,0,0:0:0:0:
54,245,153215,2,0,L|179:252,1,112.5,10|0,0:3|0:0,0:0:0:0:
200,287,153638,1,10,0:0:0:0:
264,212,153850,1,10,0:3:0:0:
329,285,154061,5,2,0:0:0:0:
371,260,154166,2,0,L|396:180,1,75,8|0,0:3|0:0,0:0:0:0:
433,159,154484,1,10,0:0:0:0:
366,88,154695,1,10,0:3:0:0:
366,88,154801,1,0,0:0:0:0:
366,88,154906,1,10,0:0:0:0:
268,95,155118,1,8,0:3:0:0:
223,181,155329,1,10,0:0:0:0:
254,273,155541,1,0,0:3:0:0:
336,326,155752,6,0,L|485:310,1,150,12|8,0:3|0:0,0:0:0:0:
508,214,156387,1,8,0:3:0:0:
508,214,156598,1,8,0:3:0:0:
440,144,156809,1,8,0:3:0:0:
440,144,157021,1,8,0:0:0:0:
354,195,157232,1,8,0:3:0:0:
354,195,157444,6,0,L|346:286,1,75,2|0,0:0|0:0,0:0:0:0:
259,227,157867,2,0,L|168:219,1,75,2|0,0:0|0:0,0:0:0:0:
231,135,158290,2,0,L|239:44,1,75,2|0,0:0|0:0,0:0:0:0:
326,103,158713,2,0,L|417:111,1,75,2|0,0:0|0:0,0:0:0:0:
428,16,159135,6,0,L|292:3,2,112.5,2|2|2,0:0|0:0|0:0,0:0:0:0:
470,104,159981,1,10,0:3:0:0:
470,104,160193,1,8,0:0:0:0:
401,173,160404,1,10,0:3:0:0:
401,173,160616,1,8,0:0:0:0:
333,102,160827,6,0,P|284:119|254:156,1,75,2|0,0:0|0:0,0:0:0:0:
196,67,161250,2,0,P|186:117|203:162,1,75,2|0,0:0|0:0,0:0:0:0:
98,171,161673,2,0,P|137:204|184:212,1,75,2|0,0:0|0:0,0:0:0:0:
146,308,162096,2,0,P|194:291|225:254,1,75,2|0,0:0|0:0,0:0:0:0:
302,241,162519,6,0,P|374:265|411:343,1,150,8|8,0:3|0:0,0:0:0:0:
478,257,163153,2,0,P|493:182|444:111,1,150,8|8,0:3|0:3,0:0:0:0:
362,97,163787,1,8,0:0:0:0:
362,97,163999,1,0,0:0:0:0:
296,24,164210,6,0,L|206:23,1,75,2|0,0:0|0:0,0:0:0:0:
173,108,164633,2,0,L|263:109,1,75,2|0,0:0|0:0,0:0:0:0:
293,195,165056,2,0,L|203:194,1,75,2|0,0:0|0:0,0:0:0:0:
170,279,165479,2,0,L|260:280,1,75,2|0,0:0|0:0,0:0:0:0:
317,345,165902,6,0,P|341:291|395:255,2,112.5,2|2|10,0:0|0:0|0:0,0:0:0:0:
317,345,166642,1,0,0:0:0:0:
317,345,166747,1,2,0:0:0:0:
406,383,166959,1,8,0:0:0:0:
476,315,167170,2,0,L|462:228,1,75,8|8,0:3|0:0,0:0:0:0:
369,218,167593,6,0,L|398:83,4,112.5,12|8|8|8|8,0:0|0:0|0:0|0:0|0:3,0:0:0:0:
284,266,169073,1,8,0:3:0:0:
284,266,169179,1,0,0:0:0:0:
284,266,169285,2,0,P|241:337|158:367,1,150,2|8,0:0|0:0,0:0:0:0:
8,275,170131,5,10,0:3:0:0:
8,275,170236,1,0,0:0:0:0:
8,275,170342,1,2,0:0:0:0:
87,218,170554,2,0,L|77:175,3,37.5,10|0|2|0,0:0|0:0|0:0|0:0,0:0:0:0:
117,152,170976,2,0,P|126:76|168:9,1,150,10|10,0:3|0:0,0:0:0:0:
246,66,171611,2,0,L|332:66,1,75,10|2,0:3|0:0,0:0:0:0:
321,66,171928,1,0,0:0:0:0:
321,66,172034,1,2,0:0:0:0:
403,117,172245,6,0,L|468:130,3,37.5,10|0|2|0,0:0|0:0|0:0|0:0,0:0:0:0:
469,163,172668,2,0,P|474:240|520:321,1,150,10|8,0:3|0:0,0:0:0:0:
423,356,173302,1,0,0:0:0:0:
355,285,173514,2,0,L|378:146,2,112.5,2|2|2,0:0|0:0|0:0,0:0:0:0:
96,353,174571,6,0,B|160:257|32:161|96:65,1,300,2|10,0:0|0:3,0:0:0:0:
133,33,175522,2,0,L|191:22,5,37.5,2|8|2|2|0|10,0:0|0:0|0:0|0:0|0:0|0:3,0:0:0:0:
267,12,176263,1,2,0:0:0:0:
130,150,176685,6,0,L|217:133,1,75,8|10,0:3|0:3,0:0:0:0:
299,117,177108,2,0,L|357:106,6,37.5,0|0|10|0|2|0|10,0:0|0:0|0:0|0:0|0:0|0:0|0:3,0:0:0:0:
432,92,177954,1,2,0:0:0:0:
301,236,178377,6,0,L|388:219,1,75,8|10,0:3|0:3,0:0:0:0:
470,203,178800,2,0,L|528:192,6,37.5,2|0|10|0|2|0|10,0:0|0:0|0:0|0:0|0:0|0:0|0:3,0:0:0:0:
310,314,179857,5,8,0:0:0:0:
232,253,180069,2,0,P|163:227|87:228,1,150,2|10,0:0|0:3,0:0:0:0:
41,142,180703,1,8,0:0:0:0:
41,142,180914,1,0,0:0:0:0:
133,109,181126,2,0,P|184:128|241:127,2,112.5,2|2|2,0:0|0:0|0:0,0:0:0:0:
199,37,181972,5,8,0:0:0:0:
199,37,182183,1,8,0:3:0:0:
199,37,182394,1,8,0:0:0:0:
199,37,182606,1,8,0:3:0:0:
199,37,182817,5,6,0:0:0:0:
324,9,183240,1,2,0:0:0:0:
324,9,183452,1,0,0:0:0:0:
324,9,183663,1,10,0:0:0:0:
420,94,184086,1,0,0:0:0:0:
420,94,184298,2,0,L|402:249,1,148.499999546814,2|2,0:0|0:0,0:0:0:0:
503,321,185355,1,8,0:0:0:0:
503,321,185566,1,0,0:0:0:0:
376,345,185989,6,0,L|303:329,1,49.499999848938,0|10,0:0|0:0,0:0:0:0:
277,375,186412,2,0,P|206:362|142:310,1,148.499999546814,8|10,0:0|0:0,0:0:0:0:
18,300,187469,1,0,0:0:0:0:
18,300,187681,1,8,0:0:0:0:
18,300,187892,1,2,0:0:0:0:
0,172,188315,1,0,0:0:0:0:
94,84,188738,1,8,0:0:0:0:
222,93,189161,1,0,0:0:0:0:
275,210,189584,5,8,0:0:0:0:
275,210,189795,2,0,P|350:212|422:249,1,148.499999546814,10|8,0:0|0:0,0:0:0:0:
500,147,190852,1,0,0:0:0:0:
405,59,191275,2,0,L|293:73,1,98.999999697876,10|0,0:0|0:0,0:0:0:0:
193,9,192121,1,8,0:0:0:0:
102,97,192544,1,0,0:0:0:0:
146,217,192967,5,8,0:0:0:0:
146,217,193179,2,0,P|185:273|203:362,1,148.499999546814,8|10,0:0|0:0,0:0:0:0:
384,283,194447,1,0,0:0:0:0:
384,283,194658,2,0,L|508:285,1,98.999999697876,10|0,0:0|0:0,0:0:0:0:
508,158,195504,2,0,P|489:132|469:117,1,49.499999848938,10|8,0:0|0:0,0:0:0:0:
412,109,195927,2,0,P|367:129|334:170,1,98.999999697876,8|10,0:0|0:0,0:0:0:0:
335,166,196561,1,0,0:0:0:0:
176,57,197196,6,0,P|128:113|61:143,2,148.499999546814,8|8|10,0:0|0:0|0:0,0:0:0:0:
293,110,198887,1,8,0:0:0:0:
453,311,199733,5,10,0:0:0:0:
453,311,199945,2,0,L|422:147,1,148.499999546814,8|8,0:0|0:0,0:0:0:0:
276,42,201213,2,0,L|130:69,1,148.499999546814,8|10,0:0|0:0,0:0:0:0:
73,185,202270,1,8,0:0:0:0:
303,298,203116,5,10,0:0:0:0:
303,298,203328,2,0,L|334:134,1,148.499999546814,8|8,0:0|0:0,0:0:0:0:
179,32,204596,2,0,L|151:177,1,148.499999546814,8|8,0:0|0:0,0:0:0:0:
271,328,205654,5,0,0:0:0:0:
271,328,205865,1,8,0:0:0:0:
271,328,206076,1,8,0:0:0:0:
271,328,206288,1,8,0:0:0:0:
271,328,206499,1,12,0:0:0:0:
256,192,206711,12,0,209883,0:0:0:0:
106,68,213266,5,0,0:0:0:0:
160,128,213477,2,0,L|169:239,1,98.999999697876,2|0,0:0|0:0,0:0:0:0:
406,316,214957,5,0,0:0:0:0:
352,256,215169,2,0,L|342:144,1,98.999999697876,2|0,0:0|0:0,0:0:0:0:
256,80,216226,5,2,0:0:0:0:
256,80,216649,1,4,0:0:0:0:
256,192,216755,12,0,217917,0:0:0:0:
256,48,218340,5,8,0:0:0:0:
256,48,218552,1,8,0:0:0:0:
256,48,218763,1,8,0:0:0:0:
256,48,218975,1,8,0:0:0:0:
256,48,219186,1,8,0:0:0:0:
256,48,219398,1,8,0:0:0:0:
256,144,219609,6,0,L|256:192,4,37.5,8|8|8|8|12,0:0|0:0|0:0|0:0|0:0,0:0:0:0:
208,256,220243,1,8,0:3:0:0:
208,256,220455,1,8,0:0:0:0:
133,193,220666,2,0,P|64:217|12:282,1,150,4|8,0:0|0:3,0:0:0:0:
85,342,221301,2,0,L|175:356,1,75,8|8,0:0|0:0,0:0:0:0:
159,353,221618,1,8,0:0:0:0:
159,353,221724,1,12,0:0:0:0:
249,317,221935,2,0,L|339:331,1,75,8|8,0:3|0:0,0:0:0:0:
406,378,222358,1,4,0:0:0:0:
495,204,222781,6,0,P|451:215|421:244,1,75,8|8,0:3|0:0,0:0:0:0:
352,173,223204,1,8,0:0:0:0:
352,173,223309,1,8,0:0:0:0:
352,173,223415,2,0,L|185:187,1,150,12|8,0:0|0:0,0:0:0:0:
141,108,224049,2,0,L|308:94,1,150,4|8,0:0|0:3,0:0:0:0:
387,83,224684,1,8,0:0:0:0:
387,83,224895,1,8,0:0:0:0:
318,13,225107,6,0,L|234:20,1,75,8|8,0:0|0:0,0:0:0:0:
194,22,225424,1,8,0:0:0:0:
140,103,225635,2,8,L|91:107,1,37.5
52,175,225952,2,8,L|3:179,1,37.5
35,274,226270,2,0,L|92:270,4,37.5,8|8|0|8|8,0:0|0:0|0:0|0:0|0:0,0:0:0:0:
107,268,226798,6,0,L|190:261,1,75,12|8,0:0|0:3,0:0:0:0:
241,339,227221,1,8,0:0:0:0:
277,248,227433,2,0,P|330:194|357:126,1,150,4|8,0:0|0:3,0:0:0:0:
427,58,228067,1,8,0:0:0:0:
467,146,228278,1,8,0:0:0:0:
467,146,228384,1,8,0:0:0:0:
467,146,228490,2,0,L|469:226,1,75,12|8,0:0|0:3,0:0:0:0:
508,310,228913,1,8,0:0:0:0:
411,295,229124,2,0,P|329:310|271:362,1,150,4|8,0:0|0:3,0:0:0:0:
216,275,229758,1,8,0:0:0:0:
193,370,229970,5,8,0:0:0:0:
193,370,230076,1,8,0:0:0:0:
193,370,230181,2,0,P|139:361|107:341,1,75,12|8,0:0|0:3,0:0:0:0:
23,352,230604,1,8,0:0:0:0:
37,255,230816,2,0,P|16:178|44:83,1,150,4|8,0:0|0:3,0:0:0:0:
126,107,231450,2,0,P|147:184|119:279,1,150,8|8,0:0|0:3,0:0:0:0:
210,311,232084,6,0,L|266:303,2,37.5,8|8|8,0:3|0:3|0:0,0:0:0:0:
247,220,232507,2,0,L|303:212,2,37.5,8|8|8,0:3|0:3|0:3,0:0:0:0:
292,133,232930,2,0,L|348:125,2,37.5,8|8|8,0:3|0:3|0:0,0:0:0:0:
227,59,233353,1,8,0:3:0:0:
323,47,233564,6,0,L|479:24,1,150,4|8,0:0|0:0,0:0:0:0:
471,25,234199,1,4,0:0:0:0:
419,213,234622,1,8,0:3:0:0:
419,213,234834,2,0,L|262:235,1,150,8|12,0:0|0:0,0:0:0:0:
244,328,235468,1,8,0:3:0:0:
244,328,235679,1,8,0:0:0:0:
187,248,235890,2,0,P|105:232|51:187,1,150,4|8,0:0|0:3,0:0:0:0:
6,105,236525,1,8,0:0:0:0:
78,40,236736,5,8,0:0:0:0:
78,40,236842,1,8,0:0:0:0:
78,40,236948,2,0,L|229:40,1,150,12|8,0:0|0:0,0:0:0:0:
280,122,237582,2,0,L|129:122,1,150,4|8,0:0|0:3,0:0:0:0:
81,206,238216,2,0,L|156:206,1,75,8|0,0:0|0:0,0:0:0:0:
204,291,238639,5,8,0:3:0:0:
204,291,238745,1,0,1:0:0:0:
204,291,238851,2,0,P|247:238|279:228,1,75,0|0,0:0|1:0,0:0:0:0:
319,305,239274,1,8,0:3:0:0:
352,213,239485,2,0,L|415:204,1,37.5,8|8,0:3|0:0,0:0:0:0:
485,195,239802,2,0,L|421:203,1,37.5,8|8,0:3|0:0,0:0:0:0:
386,96,240119,5,8,0:3:0:0:
386,96,240225,1,8,0:3:0:0:
386,96,240331,2,0,P|370:44|335:11,1,75,14|2,0:0|0:0,0:0:0:0:
282,122,240754,1,8,0:0:0:0:
248,6,240965,2,0,P|191:49|108:58,1,150,6|2,0:0|0:0,0:0:0:0:
0,21,241599,1,10,0:0:0:0:
30,137,241811,1,0,0:0:0:0:
30,137,241917,1,0,0:0:0:0:
30,137,242022,2,0,L|18:224,1,75,6|2,0:0|0:0,0:0:0:0:
40,329,242445,1,8,0:0:0:0:
137,258,242657,2,0,P|151:320|218:381,1,150,6|2,0:0|0:0,0:0:0:0:
265,270,243291,1,10,0:0:0:0:
341,361,243502,5,0,0:0:0:0:
341,361,243608,1,0,0:0:0:0:
341,361,243714,2,0,L|511:354,1,150,6|8,0:0|0:0,0:0:0:0:
510,236,244348,2,0,P|492:192|457:149,1,75,6|0,0:0|0:0,0:0:0:0:
505,52,244771,1,2,0:0:0:0:
388,81,244983,2,0,P|323:30|233:-4,1,150,10|6,0:0|0:0,0:0:0:0:
141,14,245617,5,2,0:0:0:0:
141,14,245723,1,0,0:0:0:0:
141,14,245828,1,8,0:0:0:0:
37,74,246040,1,6,0:0:0:0:
37,74,246146,1,0,0:0:0:0:
37,74,246251,1,0,0:0:0:0:
44,194,246463,1,2,0:0:0:0:
44,194,246568,1,0,0:0:0:0:
44,194,246674,2,0,L|37:286,1,75,10|0,0:0|0:0,0:0:0:0:
152,230,247097,6,0,P|144:157|167:76,1,150,6|8,0:0|0:0,0:0:0:0:
252,164,247731,2,0,P|260:237|240:310,1,150,6|2,0:0|0:0,0:0:0:0:
361,311,248366,1,10,0:0:0:0:
361,311,248471,1,0,0:0:0:0:
361,311,248577,2,0,L|383:401,1,75,0|6,0:0|0:0,0:0:0:0:
496,358,249000,2,0,L|474:268,1,75,2|8,0:0|0:0,0:0:0:0:
464,165,249423,2,0,P|388:152|330:105,1,150,6|2,0:0|0:0,0:0:0:0:
401,9,250057,1,10,0:0:0:0:
280,7,250269,5,0,0:0:0:0:
280,7,250374,1,0,0:0:0:0:
280,7,250480,2,0,L|192:10,1,75,6|2,0:0|0:0,0:0:0:0:
181,127,250903,1,8,0:0:0:0:
115,25,251115,2,0,P|50:71|11:132,1,150,6|2,0:0|0:0,0:0:0:0:
77,230,251749,2,0,L|68:306,1,75,10|0,0:0|0:0,0:0:0:0:
193,235,252172,6,0,L|180:347,4,112.5,14|10|14|10|2,0:0|0:0|0:0|0:0|0:0,0:0:0:0:
311,208,253652,1,0,0:0:0:0:
205,150,253863,2,0,P|236:72|293:25,1,150,14|0,0:0|0:0,0:0:0:0:
284,29,254498,1,6,0:0:0:0:
417,312,255132,5,8,0:0:0:0:
417,312,255343,1,12,0:0:0:0:
