osu file format v13

[General]
AudioFilename: Dead To The World.mp3
AudioLeadIn: 0
PreviewTime: 67787
Countdown: 0
SampleSet: Soft
StackLeniency: 0.7
Mode: 0
LetterboxInBreaks: 0
WidescreenStoryboard: 0

[Editor]
Bookmarks: 40722,50449
DistanceSpacing: 1.3
BeatDivisor: 2
GridSize: 8
TimelineZoom: 1.8

[Metadata]
Title:Dead to the World
TitleUnicode:Dead to the World
Artist:Nightwish
ArtistUnicode:Nightwish
Creator:Xanandra
Version:Easy
Source:
Tags:tarja turunen power metal Sieg Shiro Odaril Nwolf Century Child
BeatmapID:403531
BeatmapSetID:149115

[Difficulty]
HPDrainRate:2
CircleSize:3
OverallDifficulty:1.5
ApproachRate:3
SliderMultiplier:0.899999999999999
SliderTickRate:1

[Events]
//Background and Video events
0,0,"bg.jpg",0,0
//Break Periods
2,40925,48338
2,210083,211826
//Storyboard Layer 0 (Background)
//Storyboard Layer 1 (Fail)
//Storyboard Layer 2 (Pass)
//Storyboard Layer 3 (Foreground)
//Storyboard Sound Samples
//Background Colour Transformations
3,100,0,0,0

[TimingPoints]
5203,422.892585283338,4,2,1,60,1,0
39140,-100,4,2,3,60,0,0
40408,-100,4,2,1,60,0,0
50346,-100,4,2,2,60,0,0
50558,-100,4,2,1,60,0,0
52038,-100,4,2,2,60,0,0
52249,-100,4,2,1,60,0,0
53729,-100,4,3,0,60,0,0
53941,-100,4,2,1,60,0,0
60919,-100,4,3,0,60,0,0
61130,-100,4,2,1,60,0,0
62610,-100,4,3,0,60,0,0
62822,-100,4,2,1,60,0,0
65570,-100,4,2,2,60,0,0
65782,-100,4,2,1,60,0,0
74663,-100,4,2,2,60,0,0
81323,-100,4,2,1,60,0,0
88089,-100,4,2,2,60,0,0
91473,-100,4,2,1,60,0,0
98133,-100,4,2,2,60,0,0
98345,-100,4,2,1,60,0,0
99825,-100,4,2,2,60,0,0
100036,-100,4,2,1,60,0,0
102785,-100,4,2,2,60,0,0
102996,-100,4,2,1,60,0,0
104477,-100,4,2,2,60,0,0
104688,-100,4,2,1,60,0,0
111666,-100,4,2,2,60,0,0
111877,-100,4,2,1,60,0,0
113357,-100,4,2,2,60,0,0
113569,-100,4,2,1,60,0,0
126996,-100,4,3,2,60,0,0
128687,-100,4,2,1,60,0,0
140528,-100,4,3,2,60,0,0
141797,-100,4,2,1,60,0,0
157444,-100,4,2,2,60,0,0
159135,-100,4,2,1,60,0,0
160827,-100,4,2,2,60,0,0
162519,-100,4,2,1,60,0,0
164210,-100,4,2,2,60,0,0
165902,-100,4,2,1,60,0,0
182817,-151.515151515152,4,2,3,40,0,0
213054,-151.515151515152,4,2,3,10,0,0
214534,-151.515151515152,4,2,3,20,0,0
216649,-151.515151515152,4,2,3,40,0,1
216755,-100,4,2,1,20,0,1
218235,-100,4,2,1,30,0,1
218658,-100,4,2,1,40,0,1
219080,-100,4,2,1,50,0,1
219503,-100,4,2,1,60,0,1
219926,-100,4,2,1,60,0,0
220032,-100,4,2,1,60,0,1
225107,-100,4,3,2,60,0,0
226798,-100,4,2,1,60,0,1
238639,-100,4,2,1,60,0,0
240331,-100,4,2,1,60,0,1
253440,-100,4,2,1,60,0,0
254392,-100,4,2,3,60,0,0
254603,-100,4,2,1,60,0,0
255343,-100,4,2,1,60,0,1
255555,-100,4,2,1,60,0,0

[Colours]
Combo1 : 255,255,0
Combo2 : 185,185,185
Combo3 : 245,0,0
Combo4 : 150,150,150

[HitObjects]
256,64,5202,5,8,0:0:0:0:
256,64,8374,6,0,L|256:128,1,45,8|8,0:0|0:0,0:0:0:0:
486,227,10277,2,0,P|454:305|355:357,1,180,12|12,0:2|0:0,0:0:0:0:
271,299,11545,1,12,0:0:0:0:
92,74,12392,5,12,0:2:0:0:
256,192,12602,12,8,15139,0:0:0:0:
124,38,17043,6,0,P|203:46|296:111,1,180,12|12,0:0|0:0,0:0:0:0:
396,139,18312,1,8,0:0:0:0:
371,253,18735,5,10,0:0:0:0:
257,231,19158,2,0,P|184:289|163:385,1,180,2|8,0:0|0:0,0:0:0:0:
45,371,20426,1,2,0:0:0:0:
77,259,20849,2,0,L|59:168,1,89.9999999999999,8|10,0:0|0:3,0:0:0:0:
96,60,21695,1,8,0:0:0:0:
209,30,22118,5,14,0:0:0:0:
269,131,22541,2,0,P|321:203|406:227,1,180,2|8,0:0|0:0,0:0:0:0:
403,344,23810,2,0,P|350:371|290:375,1,89.9999999999999,10|8,0:3|0:0,0:0:0:0:
204,367,24655,2,0,P|150:344|111:304,1,89.9999999999999,10|8,0:3|0:0,0:0:0:0:
207,238,25501,5,14,0:0:0:0:
92,215,25924,2,0,P|69:114|26:49,1,180,2|8,0:0|0:0,0:0:0:0:
140,17,27193,1,2,0:0:0:0:
237,81,27616,2,0,L|344:70,1,89.9999999999999,8|10,0:0|0:3,0:0:0:0:
443,72,28462,1,8,0:0:0:0:
507,168,28884,5,14,0:0:0:0:
455,273,29307,2,0,P|376:305|319:381,1,180,2|8,0:0|0:0,0:0:0:0:
221,317,30576,2,0,L|95:333,1,89.9999999999999,10|8,0:3|0:0,0:0:0:0:
84,221,31422,2,0,L|205:204,1,89.9999999999999,8|10,0:3|0:0,0:0:0:0:
253,122,32268,6,0,P|348:148|414:220,2,180,14|10|12,0:3|0:3|0:3,0:0:0:0:
167,41,34382,1,8,0:0:0:0:
46,241,35228,5,8,0:0:0:0:
157,204,35651,1,8,0:3:0:0:
203,311,36074,2,0,P|274:346|389:342,1,180,8|8,0:0|0:0,0:0:0:0:
445,254,37342,6,0,L|426:135,1,89.9999999999999,12|8,0:3|0:0,0:0:0:0:
237,32,38611,2,0,L|256:151,1,89.9999999999999,8|14,0:0|0:3,0:0:0:0:
256,192,39245,12,0,40725,0:0:0:0:
463,208,50875,6,0,P|402:248|331:261,1,135,12|4,0:0|0:0,0:0:0:0:
171,219,52144,1,2,0:3:0:0:
180,103,52567,2,0,P|240:62|311:49,1,135,12|4,0:0|0:0,0:0:0:0:
460,121,53835,5,6,0:3:0:0:
392,216,54258,2,0,L|405:364,2,135,14|2|10,0:0|0:0|0:0,0:0:0:0:
311,130,55950,2,0,L|163:143,2,135,2|2|10,0:0|0:0|0:0,0:0:0:0:
369,28,57641,6,0,L|517:15,2,135,2|2|10,0:0|0:0|0:0,0:0:0:0:
403,140,59333,2,0,L|416:288,2,135,2|2|10,0:0|0:0|0:0,0:0:0:0:
364,29,61024,5,2,0:3:0:0:
257,77,61447,2,0,P|201:79|161:73,1,89.9999999999999,8|8,0:0|0:3,0:0:0:0:
64,130,62293,1,8,0:0:0:0:
143,215,62716,1,2,0:3:0:0:
44,278,63139,2,0,P|30:324|28:370,1,89.9999999999999,8|8,0:0|0:3,0:0:0:0:
144,378,63985,1,8,0:0:0:0:
229,298,64407,6,0,P|291:325|387:332,1,135,12|4,0:0|0:3,0:0:0:0:
373,163,65676,1,2,0:3:0:0:
265,206,66098,2,0,P|203:179|107:172,1,135,12|4,0:0|0:0,0:0:0:0:
389,21,67791,5,12,0:0:0:0:
470,104,68213,2,0,L|492:314,2,180,8|8|8,0:0|0:0|0:0,0:0:0:0:
244,39,70751,5,8,0:0:0:0:
306,137,71174,1,4,0:0:0:0:
189,147,71597,2,0,P|113:192|1:213,2,180,8|8|8,0:0|0:0|0:0,0:0:0:0:
257,370,74134,5,8,0:0:0:0:
366,329,74557,1,4,0:0:0:0:
298,233,74980,2,0,P|339:148|434:93,1,180,8|8,0:0|0:0,0:0:0:0:
313,33,76248,2,0,L|208:34,1,89.9999999999999,4|8,0:0|0:0,0:0:0:0:
186,266,77517,5,8,0:0:0:0:
99,345,77940,1,6,0:0:0:0:
11,268,78363,2,0,L|4:83,1,180,8|8,0:0|0:0,0:0:0:0:
91,10,79632,1,6,0:0:0:0:
179,86,80054,2,0,L|186:271,1,180,8|8,0:0|0:0,0:0:0:0:
261,355,81323,5,8,0:3:0:0:
342,270,81746,2,0,P|466:323|507:372,2,180,8|8|8,0:0|0:0|0:0,0:0:0:0:
459,67,84283,5,8,0:0:0:0:
409,173,84706,1,8,0:3:0:0:
306,116,85129,2,0,P|206:103|124:78,2,180,8|8|8,0:0|0:0|0:0,0:0:0:0:
141,283,87667,5,8,0:0:0:0:
221,367,88089,2,0,L|314:373,1,89.9999999999999,4|8,0:0|0:0,0:0:0:0:
507,245,89358,1,8,0:0:0:0:
401,293,89781,2,0,L|306:286,1,89.9999999999999,4|8,0:0|0:0,0:0:0:0:
351,77,91050,5,8,0:0:0:0:
235,96,91473,2,0,P|175:63|129:4,2,135,14|2|10,0:0|0:0|0:0,0:0:0:0:
205,208,93164,2,0,P|146:241|72:252,2,135,2|2|10,0:0|0:0|0:0,0:0:0:0:
313,254,94856,6,0,P|313:320|285:389,2,135,2|2|10,0:0|0:0|0:0,0:0:0:0:
409,188,96547,2,0,P|467:220|513:279,2,135,2|2|10,0:0|0:0|0:0,0:0:0:0:
447,77,98239,6,0,L|327:91,1,89.9999999999999,2|8,0:3|0:0,0:0:0:0:
257,29,99085,1,8,0:3:0:0:
208,135,99508,2,0,P|198:185|208:230,1,89.9999999999999,8|2,0:0|0:3,0:0:0:0:
321,234,100353,2,0,P|328:278|318:321,1,89.9999999999999,8|8,0:0|0:3,0:0:0:0:
214,377,101199,1,8,0:0:0:0:
143,283,101622,6,0,L|-24:264,1,135,12|4,0:0|0:0,0:0:0:0:
65,101,102891,1,2,0:3:0:0:
136,195,103314,2,0,L|303:214,1,135,12|4,0:0|0:0,0:0:0:0:
355,56,104582,5,6,0:3:0:0:
414,156,105005,2,0,L|395:323,2,135,14|2|10,0:0|0:0|0:0,0:0:0:0:
301,190,106697,2,0,L|282:357,2,135,2|2|10,0:0|0:0|0:0,0:0:0:0:
200,129,108388,6,0,L|181:296,2,135,2|2|10,0:0|0:0|0:0,0:0:0:0:
87,163,110080,2,0,L|68:330,2,135,2|2|10,0:0|0:0|0:0,0:0:0:0:
21,66,111771,5,2,0:3:0:0:
127,21,112194,2,0,P|153:57|190:82,1,89.9999999999999,8|8,0:0|0:3,0:0:0:0:
302,114,113040,2,0,P|346:115|389:102,1,89.9999999999999,8|2,0:0|0:3,0:0:0:0:
482,30,113886,1,8,0:0:0:0:
509,143,114309,2,0,L|501:243,1,89.9999999999999,8|8,0:3|0:0,0:0:0:0:
491,350,115155,5,12,0:0:0:0:
323,281,115789,2,0,L|333:146,1,135,4|8,0:0|0:0,0:0:0:0:
443,107,116846,2,0,P|401:37|334:21,1,135,12|4,0:0|0:0,0:0:0:0:
195,94,118115,5,8,0:0:0:0:
113,178,118538,2,0,L|106:341,2,135,12|4|8,0:0|0:0|0:0,0:0:0:0:
46,81,120229,2,0,P|89:60|128:4,1,89.9999999999999,8|8,0:3|0:0,0:0:0:0:
215,91,121075,2,0,P|245:57|285:38,1,89.9999999999999,8|8,0:3|0:0,0:0:0:0:
381,107,121921,6,0,P|360:171|317:222,1,135,4|4,0:0|0:0,0:0:0:0:
447,341,123190,1,8,0:0:0:0:
505,240,123612,2,0,L|489:94,1,135,4|4,0:0|0:0,0:0:0:0:
329,34,124881,5,8,0:0:0:0:
259,128,125304,2,0,P|185:121|115:76,1,135,12|4,0:0|0:0,0:0:0:0:
70,256,126573,1,8,0:0:0:0:
6,157,126996,2,0,L|24:47,1,89.9999999999999,8|0,0:0|0:0,0:0:0:0:
135,48,127841,2,0,L|117:158,1,89.9999999999999,8|8,0:0|0:0,0:0:0:0:
197,225,128687,5,12,0:0:0:0:
323,103,129321,2,0,L|333:238,1,135,4|8,0:0|0:0,0:0:0:0:
437,292,130378,2,0,P|395:362|328:378,1,135,4|4,0:0|0:0,0:0:0:0:
195,290,131647,5,8,0:0:0:0:
113,206,132070,2,0,L|106:43,2,135,12|4|8,0:0|0:0|0:0,0:0:0:0:
46,303,133762,2,0,P|89:324|128:378,1,89.9999999999999,8|8,0:3|0:0,0:0:0:0:
215,293,134608,2,0,P|245:327|286:345,1,89.9999999999999,8|8,0:3|0:0,0:0:0:0:
381,277,135453,6,0,P|360:213|317:162,1,135,12|4,0:0|0:0,0:0:0:0:
447,43,136722,1,8,0:0:0:0:
505,144,137144,2,0,L|489:290,1,135,12|4,0:0|0:0,0:0:0:0:
329,350,138413,5,8,0:0:0:0:
259,256,138836,2,0,P|185:263|115:308,1,135,12|4,0:0|0:0,0:0:0:0:
70,128,140105,1,8,0:0:0:0:
6,227,140528,2,0,L|24:337,1,89.9999999999999,8|0,0:0|0:0,0:0:0:0:
135,336,141374,2,0,L|119:229,1,89.9999999999999,8|8,0:0|0:0,0:0:0:0:
141,131,142220,5,10,0:0:0:0:
255,153,142643,2,0,P|328:95|349:-1,1,180,2|8,0:0|0:0,0:0:0:0:
467,13,143911,1,2,0:0:0:0:
435,125,144334,2,0,L|453:216,1,89.9999999999999,8|10,0:0|0:3,0:0:0:0:
416,324,145180,1,8,0:0:0:0:
306,365,145603,5,14,0:0:0:0:
246,264,146026,2,0,P|194:192|109:168,1,180,2|8,0:0|0:0,0:0:0:0:
112,51,147294,2,0,P|165:24|221:20,1,89.9999999999999,10|8,0:3|0:0,0:0:0:0:
311,28,148140,2,0,P|365:51|404:91,1,89.9999999999999,10|8,0:3|0:0,0:0:0:0:
308,157,148986,5,14,0:0:0:0:
423,182,149409,2,0,P|446:283|489:348,1,180,2|8,0:0|0:0,0:0:0:0:
375,381,150678,1,2,0:0:0:0:
287,303,151100,2,0,L|181:314,1,89.9999999999999,8|10,0:0|0:3,0:0:0:0:
80,317,151946,1,8,0:0:0:0:
7,226,152369,5,14,0:0:0:0:
59,121,152792,2,0,P|138:89|195:13,1,180,2|8,0:0|0:0,0:0:0:0:
294,76,154061,2,0,L|420:60,1,89.9999999999999,10|8,0:3|0:0,0:0:0:0:
425,174,154906,2,0,L|299:190,1,89.9999999999999,8|10,0:3|0:0,0:0:0:0:
226,232,155752,6,0,P|148:208|106:173,2,135,12|8|8,0:3|0:3|0:0,0:0:0:0:
338,265,157444,2,0,P|386:303|409:347,1,89.9999999999999,2|2,0:0|0:0,0:0:0:0:
505,274,158290,2,0,P|500:229|481:188,1,89.9999999999999,2|2,0:0|0:0,0:0:0:0:
370,150,159135,6,0,P|335:91|337:12,2,135,2|2|10,0:0|0:0|0:3,0:0:0:0:
271,213,160827,2,0,L|147:201,1,89.9999999999999,2|2,0:0|0:0,0:0:0:0:
178,87,161673,2,0,L|54:75,1,89.9999999999999,2|2,0:0|0:0,0:0:0:0:
34,182,162519,6,0,P|76:239|93:324,2,135,8|8|8,0:3|0:3|0:0,0:0:0:0:
128,113,164210,2,0,L|145:-12,1,89.9999999999999,2|2,0:0|0:0,0:0:0:0:
236,91,165056,2,0,L|219:216,1,89.9999999999999,2|2,0:0|0:0,0:0:0:0:
302,267,165902,6,0,P|363:294|430:293,2,135,2|10|8,0:0|0:0|0:3,0:0:0:0:
325,152,167593,2,0,P|391:151|453:178,2,135,12|8|8,0:0|0:0|0:3,0:0:0:0:
212,185,169285,1,2,0:0:0:0:
8,68,170131,5,10,0:3:0:0:
1,184,170554,1,10,0:0:0:0:
105,235,170976,2,0,P|177:270|243:360,1,180,10|2,0:3|0:0,0:0:0:0:
344,299,172245,1,10,0:0:0:0:
430,378,172668,1,10,0:3:0:0:
493,152,173514,5,2,0:0:0:0:
457,40,173937,1,10,0:0:0:0:
348,83,174360,1,2,0:0:0:0:
387,192,174782,2,0,P|336:281|335:381,1,180,2|8,0:0|0:0,0:0:0:0:
214,370,176051,6,0,P|157:300|137:213,1,180,10|10,0:3|0:3,0:0:0:0:
374,170,177743,2,0,P|354:83|298:14,1,180,10|10,0:3|0:3,0:0:0:0:
142,189,179434,6,0,L|-16:183,2,135,10|2|8,0:3|0:0|0:0,0:0:0:0:
196,292,181126,2,0,P|281:268|351:168,1,180,2|8,0:0|0:0,0:0:0:0:
454,179,182394,1,8,0:0:0:0:
377,89,182817,5,6,0:0:0:0:
226,123,183663,2,0,P|167:105|128:79,2,89.0999997280883,10|2|2,0:0|0:0|0:0,0:0:0:0:
302,133,185355,1,8,0:0:0:0:
209,256,186201,5,10,0:0:0:0:
357,297,187046,2,0,P|416:279|455:253,2,89.0999997280883,10|8|0,0:0|0:0|0:0,0:0:0:0:
281,307,188738,1,8,0:0:0:0:
328,159,189584,5,8,0:0:0:0:
188,224,190429,2,0,P|160:279|153:325,2,89.0999997280883,8|8|0,0:0|0:0|0:0,0:0:0:0:
232,161,192121,1,8,0:0:0:0:
142,34,192967,5,8,0:0:0:0:
286,87,193813,2,0,P|344:66|382:39,2,89.0999997280883,10|8|0,0:0|0:0|0:0,0:0:0:0:
210,100,195505,1,10,0:0:0:0:
113,220,196350,6,0,P|60:185|34:128,1,118.799999637451,10|8,0:0|0:0,0:0:0:0:
82,30,197830,2,0,L|180:19,1,89.0999997280883,8|10,0:0|0:0,0:0:0:0:
240,53,198887,1,8,0:0:0:0:
396,15,199733,6,0,P|449:50|475:107,1,118.799999637451,10|8,0:0|0:0,0:0:0:0:
427,205,201213,2,0,L|329:216,1,89.0999997280883,8|10,0:0|0:0,0:0:0:0:
265,193,202270,1,8,0:0:0:0:
136,278,203116,6,0,P|96:230|41:196,1,118.799999637451,10|8,0:0|0:0,0:0:0:0:
83,87,204596,2,0,P|121:65|164:54,1,89.0999997280883,8|8,0:0|0:0,0:0:0:0:
241,64,205654,2,0,P|291:94|332:137,1,118.799999637451,2|14,0:0|0:0,0:0:0:0:
256,192,206711,12,0,209883,0:0:0:0:
333,309,213266,6,0,P|365:277|397:221,1,89.0999997280883,0|0,0:0|0:0,0:0:0:0:
179,75,214957,2,0,P|147:107|115:163,1,89.0999997280883,0|0,0:0|0:0,0:0:0:0:
256,288,216649,5,4,0:0:0:0:
256,192,216860,12,12,218340,0:0:0:0:
495,215,219609,5,8,0:0:0:0:
458,103,220032,2,0,P|390:39|327:28,1,135,12|4,0:0|0:0,0:0:0:0:
175,28,221301,2,0,L|187:136,1,89.9999999999999,8|4,0:0|0:0,0:0:0:0:
18,170,222358,2,0,L|30:318,1,135,4|8,0:0|0:0,0:0:0:0:
124,371,223415,5,12,0:0:0:0:
268,271,224049,2,0,P|337:296|386:365,1,135,4|8,0:0|0:0,0:0:0:0:
488,306,225107,2,0,P|478:201|381:61,1,270,8|0,0:0|0:0,0:0:0:0:
271,58,226798,6,0,P|223:123|156:153,1,135,12|4,0:0|0:0,0:0:0:0:
297,278,228067,2,0,P|327:314|371:334,1,89.9999999999999,8|12,0:0|0:0,0:0:0:0:
494,214,229124,2,0,L|482:66,1,135,4|8,0:0|0:0,0:0:0:0:
388,13,230182,5,12,0:0:0:0:
308,169,230816,2,0,P|239:144|190:75,1,135,4|8,0:0|0:0,0:0:0:0:
106,27,231873,2,0,L|1:30,1,89.9999999999999,8|8,0:3|0:0,0:0:0:0:
1,145,232719,2,0,L|106:142,1,89.9999999999999,8|8,0:3|0:0,0:0:0:0:
207,136,233564,5,4,0:0:0:0:
160,305,234199,2,0,P|215:348|290:350,1,135,4|8,0:0|0:0,0:0:0:0:
331,248,235256,1,12,0:0:0:0:
501,206,235890,2,0,L|497:62,1,135,4|8,0:0|0:0,0:0:0:0:
398,8,236948,5,12,0:0:0:0:
267,125,237582,2,0,P|201:96|152:42,1,135,4|8,0:0|0:0,0:0:0:0:
50,98,238639,2,0,L|14:189,1,89.9999999999999,8|8,0:0|0:3,0:0:0:0:
97,267,239485,2,0,L|130:184,1,89.9999999999999,8|8,0:0|0:3,0:0:0:0:
191,84,240331,5,2,0:0:0:0:
290,23,240754,1,8,0:0:0:0:
290,23,240965,2,0,P|351:51|394:102,1,135,6|10,0:0|0:0,0:0:0:0:
320,192,242022,1,6,0:0:0:0:
244,281,242445,1,8,0:0:0:0:
244,281,242657,2,0,P|297:339|355:361,1,135,6|10,0:0|0:0,0:0:0:0:
455,312,243714,5,6,0:0:0:0:
392,214,244137,1,8,0:0:0:0:
392,214,244348,2,0,L|411:72,1,135,6|10,0:0|0:0,0:0:0:0:
301,37,245405,2,0,P|269:69|227:86,1,89.9999999999999,6|8,0:0|0:0,0:0:0:0:
141,7,246251,2,0,P|99:24|67:56,1,89.9999999999999,2|8,0:0|0:0,0:0:0:0:
152,137,247097,5,6,0:0:0:0:
71,221,247520,1,8,0:0:0:0:
71,221,247731,2,0,L|84:374,1,135,6|10,0:0|0:0,0:0:0:0:
195,332,248789,1,6,0:0:0:0:
252,231,249212,1,8,0:0:0:0:
252,231,249423,2,0,P|320:247|372:299,1,135,6|10,0:0|0:0,0:0:0:0:
481,266,250480,5,6,0:0:0:0:
405,177,250903,1,8,0:0:0:0:
405,177,251115,2,0,P|433:103|481:63,1,135,6|10,0:0|0:0,0:0:0:0:
367,19,252172,2,0,L|224:15,2,135,14|14|2,0:0|0:0|0:0,0:0:0:0:
440,110,253863,6,0,P|458:176|514:236,1,135,14|6,0:0|0:0,0:0:0:0:
344,312,255132,2,0,L|337:356,1,45,8|12,0:0|0:0,0:0:0:0:
