osu file format v12

[General]
AudioFilename: Dark Chest of Wonders.mp3
AudioLeadIn: 0
PreviewTime: 24787
Countdown: 0
SampleSet: None
StackLeniency: 0.7
Mode: 0
LetterboxInBreaks: 0

[Editor]
Bookmarks: 681,4488,9562,14637,19712,24787,29862,34937,40012,45087,48893,52699,56505,60311,62848,67923,72998,78073,83148,86954,90760,94566,98372,103446,108521,113596,118671,123746
DistanceSpacing: 1.1
BeatDivisor: 2
GridSize: 4

[Metadata]
Title:Dark Chest of Wonders
TitleUnicode:Dark Chest of Wonders
Artist:Nightwish
ArtistUnicode:Nightwish
Creator:Sieg
Version:Normal
Source:
Tags:once
BeatmapID:229977
BeatmapSetID:82846

[Difficulty]
HPDrainRate:3
CircleSize:3
OverallDifficulty:3
ApproachRate:4
SliderMultiplier:0.8
SliderTickRate:1

[Events]
//Background and Video events
0,0,"bg.jpg",0,0
//Break Periods
2,45293,46627
2,60517,61534
2,83353,84688
//Storyboard Layer 0 (Background)
//Storyboard Layer 1 (Fail)
//Storyboard Layer 2 (Pass)
//Storyboard Layer 3 (Foreground)
//Storyboard Sound Samples
//Background Colour Transformations
3,100,163,162,255

[TimingPoints]
4494,317.183411307589,4,3,2,60,1,0
4811,-100,4,3,1,60,0,0
7031,-100,4,3,2,60,0,0
7348,-100,4,3,1,60,0,0
9568,-100,4,3,2,60,0,0
10203,-100,4,3,1,60,0,0
12106,-100,4,3,1,60,0,0
14009,-100,4,3,1,100,0,0
14643,-100,4,3,2,60,0,0
14961,-100,4,3,1,60,0,0
17181,-100,4,3,2,60,0,0
17498,-100,4,3,1,60,0,0
19718,-100,4,3,2,60,0,0
20035,-100,4,3,1,60,0,0
20987,-100,4,3,2,60,0,0
21304,-100,4,3,1,60,0,0
22573,-100,4,3,2,60,0,0
25110,-100,4,3,1,60,0,0
34309,-100,4,3,1,100,0,0
34943,-100,4,3,1,60,0,0
35260,-100,4,3,2,60,0,0
35577,-100,4,3,1,60,0,0
45093,317.183411307589,3,3,2,80,1,0
47947,-100,3,3,2,60,0,0
49216,-100,3,3,3,60,0,0
51753,-100,3,3,2,60,0,0
53022,-100,3,3,3,60,0,0
55560,-100,3,3,2,60,0,0
56828,-100,3,3,3,60,0,0
58414,-100,3,3,1,60,0,0
60317,317.183411307589,4,3,2,60,1,0
64757,-100,4,3,1,60,0,0
65709,-100,4,3,2,60,0,0
67295,-100,4,3,1,60,0,0
67929,-100,4,3,2,60,0,0
68246,-100,4,3,1,60,0,0
70466,-100,4,3,2,60,0,0
70784,-100,4,3,1,60,0,0
73321,-100,4,3,2,60,0,0
74907,-100,4,3,1,60,0,0
75858,-100,4,3,2,60,0,0
77444,-100,4,3,1,60,0,0
78079,-100,4,3,2,60,0,0
78396,-100,4,3,1,60,0,0
83154,317.183411307589,3,3,2,60,1,0
86008,-100,3,3,2,50,0,0
87277,-100,3,3,3,50,0,0
89814,-100,3,3,2,50,0,0
91083,-100,3,3,3,50,0,0
93621,-100,3,3,2,50,0,0
94889,-100,3,3,3,50,0,0
96475,-100,3,3,2,50,0,0
98378,317.183411307589,4,3,1,60,1,0
98695,-100,4,3,2,60,0,0
100281,-100,4,3,1,60,0,0
101232,-100,4,3,2,60,0,0
102818,-100,4,3,1,60,0,0
103452,-100,4,3,2,60,0,0
103770,-100,4,3,1,60,0,0
105990,-100,4,3,2,60,0,0
106307,-100,4,3,1,60,0,0
108845,-100,4,3,2,60,0,0
110430,-100,4,3,1,60,0,0
111382,-100,4,3,2,60,0,0
112968,-100,4,3,1,60,0,0
113602,-100,4,3,2,60,0,0
113919,-100,4,3,1,60,0,0
116140,-100,4,3,2,60,0,0
119946,-100,4,3,3,50,0,0
121849,-100,4,3,3,50,0,0
125021,-100,4,3,2,50,0,0
125338,-100,4,3,3,50,0,0
125655,-100,4,3,2,50,0,0
129779,-100,4,3,3,50,0,0
133902,-100,4,3,2,50,0,0
141514,-100,4,3,2,50,0,0
143735,-100,4,3,4,50,0,0
151664,-100,4,3,4,40,0,0
152616,-100,4,3,1,65,0,0
154519,-100,4,3,2,55,0,0

[Colours]
Combo1 : 35,43,43
Combo2 : 101,0,11
Combo3 : 0,51,81
SliderBorder : 204,204,204

[HitObjects]
82,139,4494,1,12,0:0:0:0:
51,56,4811,2,0,P|160:100|140:205,1,240,8|8,0:0|0:0,0:0:0:0:
90,273,6079,1,8,0:0:0:0:
36,343,6397,2,0,P|76:359|125:356,1,80,8|8,0:0|0:0,0:0:0:0:
196,332,7031,5,12,0:0:0:0:
182,243,7348,2,0,B|218:243|277:251|291:320|279:355|279:355|321:357|358:344,1,240,8|8,0:0|0:0,0:0:0:0:
419,302,8617,1,8,0:0:0:0:
506,292,8934,2,0,P|492:254|460:226,1,80,8|8,0:0|0:0,0:0:0:0:
376,228,9568,5,12,0:0:0:0:
294,263,9886,2,0,P|292:200|361:141,1,160,8|8,0:0|0:0,0:0:0:0:
432,191,10837,2,0,P|438:99|314:67,1,240,8|8,0:0|0:0,0:0:0:0:
312,156,12106,6,0,B|322:185|297:238|322:274,1,120,8|8,0:0|0:0,0:0:0:0:
190,273,13057,2,0,B|215:237|190:184|200:155,1,120,8|8,0:0|0:0,0:0:0:0:
254,27,14009,1,4,0:0:0:0:
168,47,14326,1,4,0:0:0:0:
95,96,14643,6,0,P|59:169|57:247,1,160,12|12,0:0|0:0,0:0:0:0:
101,322,15595,1,6,0:0:0:0:
177,365,15912,1,12,0:0:0:0:
263,380,16229,2,0,P|240:302|172:276,1,160,6|6,0:0|0:0,0:0:0:0:
83,271,17181,6,0,P|126:202|201:192,1,160,12|12,0:0|0:0,0:0:0:0:
285,206,18132,1,6,0:0:0:0:
351,147,18450,1,12,0:0:0:0:
275,101,18767,2,0,P|193:109|136:50,1,160,6|6,0:0|0:0,0:0:0:0:
223,33,19718,6,0,P|300:17|360:98,1,160,12|12,0:0|0:0,0:0:0:0:
399,144,20670,2,0,P|400:188|418:218,1,80,6|12,0:0|0:0,0:0:0:0:
465,292,21304,1,6,0:0:0:0:
413,363,21621,2,0,P|368:365|323:338,1,80,2|6,0:0|0:0,0:0:0:0:
258,309,22256,5,6,0:0:0:0:
176,276,22573,1,12,0:0:0:0:
110,334,22890,2,0,P|91:296|92:257,1,80,8|8,0:0|0:0,0:0:0:0:
88,171,23525,2,0,P|182:98|288:137,1,240,4|8,0:0|0:0,0:0:0:0:
346,197,24793,6,0,B|318:256|337:307|337:307|329:353,1,160,12|12,0:0|0:0,0:0:0:0:
414,341,25745,2,0,B|423:300|423:300|394:248|449:187,1,160,14|14,0:0|0:0,0:0:0:0:
413,108,26696,1,12,0:0:0:0:
343,53,27014,1,14,0:0:0:0:
258,27,27331,6,0,P|171:35|101:81,1,160,12|12,0:0|0:0,0:0:0:0:
36,120,28283,2,0,P|106:160|175:132,1,160,14|14,0:0|0:0,0:0:0:0:
252,90,29234,1,12,0:0:0:0:
333,124,29552,1,14,0:0:0:0:
378,48,29868,6,0,P|421:115|397:186,1,160,12|12,0:0|0:0,0:0:0:0:
346,258,30820,1,14,0:0:0:0:
432,271,31137,2,0,P|353:345|261:277,1,240,8|2,0:0|0:0,0:0:0:0:
225,202,32406,6,0,P|175:149|102:179,1,160,12|8,0:0|0:0,0:0:0:0:
70,259,33357,2,0,P|108:323|186:308,1,160,6|8,0:0|0:0,0:0:0:0:
256,274,34309,1,4,0:0:0:0:
310,204,34626,1,4,0:0:0:0:
232,162,34943,6,0,P|295:118|371:140,1,160,12|12,0:0|0:0,0:0:0:0:
427,206,35895,1,14,0:0:0:0:
504,248,36212,2,0,P|442:292|367:269,1,160,12|12,0:0|0:0,0:0:0:0:
282,244,37163,1,14,0:0:0:0:
198,272,37481,5,12,0:0:0:0:
260,334,37798,2,0,P|194:359|120:315,1,160,14|12,0:0|0:0,0:0:0:0:
76,240,38749,2,0,P|80:195|68:160,1,80,12|14,0:0|0:0,0:0:0:0:
33,81,39384,1,12,0:0:0:0:
102,26,39701,1,14,0:0:0:0:
144,102,40018,6,0,P|221:133|299:129,1,160,12|12,0:0|0:0,0:0:0:0:
381,105,40970,1,14,0:0:0:0:
256,192,41287,12,4,45093,0:0:0:0:
453,56,47947,5,14,0:0:0:0:
388,115,48264,1,12,0:0:0:0:
304,144,48582,1,14,0:0:0:0:
227,186,48899,1,12,0:0:0:0:
151,230,49216,6,0,P|111:260|96:294,1,80,14|12,0:0|0:0,0:0:0:0:
182,310,49850,2,0,P|264:309|339:332,1,160,14|14,0:0|0:0,0:0:0:0:
420,362,50802,1,12,0:0:0:0:
487,305,51119,2,0,P|464:276|455:234,1,80,14|12,0:0|0:0,0:0:0:0:
442,147,51753,5,14,0:0:0:0:
371,94,52071,1,12,0:0:0:0:
287,65,52388,1,14,0:0:0:0:
199,65,52705,1,12,0:0:0:0:
114,89,53022,6,0,P|74:112|54:153,1,80,14|12,0:0|0:0,0:0:0:0:
69,227,53656,2,0,P|189:229|236:334,1,240,14|12,0:0|0:0,0:0:0:0:
149,340,54925,2,0,P|106:337|75:314,1,80,14|12,0:0|0:0,0:0:0:0:
69,227,55560,5,14,0:0:0:0:
95,143,55877,1,12,0:0:0:0:
148,72,56194,1,12,0:0:0:0:
230,40,56511,1,12,0:0:0:0:
317,32,56828,6,0,P|363:36|402:55,1,80,14|12,0:0|0:0,0:0:0:0:
468,95,57463,2,0,P|463:180|416:248,1,160,14|14,0:0|0:0,0:0:0:0:
351,291,58414,1,12,0:0:0:0:
256,192,58731,12,4,60317,0:0:0:0:
92,141,62854,5,8,0:0:0:0:
162,88,63171,2,0,P|93:53|20:88,2,160,6|6|6,0:0|0:0|0:0,0:0:0:0:
207,163,64757,1,12,0:0:0:0:
181,247,65074,1,6,0:0:0:0:
96,271,65391,1,8,0:0:0:0:
160,331,65709,6,0,P|92:358|20:316,2,160,6|6|6,0:0|0:0|0:0,0:0:0:0:
224,270,67295,1,12,0:0:0:0:
311,259,67612,1,6,0:0:0:0:
393,289,67929,5,12,0:0:0:0:
473,323,68246,2,0,P|417:371|338:357,1,160,14|14,0:0|0:0,0:0:0:0:
261,310,69198,1,12,0:0:0:0:
217,233,69515,2,0,P|205:194|213:147,1,80,14|12,0:0|0:0,0:0:0:0:
241,73,70149,1,14,0:0:0:0:
322,37,70466,6,0,P|436:75|420:178,1,240,12|14,0:0|0:0,0:0:0:0:
360,116,71735,2,0,P|362:238|507:195,1,320,12|8,0:0|0:0,0:0:0:0:
497,106,73321,6,0,P|454:42|376:30,2,160,6|6|6,0:0|0:0|0:0,0:0:0:0:
478,192,74907,1,12,0:0:0:0:
442,272,75224,1,6,0:0:0:0:
368,320,75541,1,8,0:0:0:0:
303,379,75859,6,0,P|283:303|328:241,2,160,6|6|6,0:0|0:0|0:0,0:0:0:0:
368,320,77445,1,12,0:0:0:0:
442,273,77762,1,6,0:0:0:0:
479,193,78079,5,12,0:0:0:0:
494,106,78396,2,0,P|419:129|391:200,1,160,14|14,0:0|0:0,0:0:0:0:
350,278,79348,1,12,0:0:0:0:
266,306,79665,2,0,P|226:314|191:300,1,80,14|12,0:0|0:0,0:0:0:0:
117,251,80299,1,14,0:0:0:0:
114,163,80616,6,0,P|168:105|248:115,1,160,10|8,0:0|0:0,0:0:0:0:
328,88,81568,1,8,0:0:0:0:
258,32,81885,2,0,P|137:32|31:192,1,320,8|12,0:0|0:0,0:0:0:0:
322,238,86008,5,14,0:0:0:0:
405,265,86325,1,12,0:0:0:0:
465,200,86643,1,14,0:0:0:0:
446,114,86960,1,12,0:0:0:0:
381,54,87277,6,0,P|341:40|305:47,1,80,14|12,0:0|0:0,0:0:0:0:
234,99,87911,2,0,P|142:124|64:86,1,160,14|14,0:0|0:0,0:0:0:0:
8,148,88863,1,10,0:0:0:0:
15,237,89180,2,0,P|18:283|46:315,1,80,14|12,0:0|0:0,0:0:0:0:
111,356,89814,5,14,0:0:0:0:
178,299,90131,1,12,0:0:0:0:
260,329,90449,1,14,0:0:0:0:
313,258,90766,1,12,0:0:0:0:
384,309,91083,6,0,P|400:262|393:223,1,80,14|12,0:0|0:0,0:0:0:0:
330,173,91717,2,0,P|332:106|484:49,1,240,14|12,0:0|0:0,0:0:0:0:
474,131,92986,2,0,P|469:184|479:213,1,80,14|10,0:0|0:0,0:0:0:0:
502,293,93621,5,14,0:0:0:0:
447,362,93938,1,12,0:0:0:0:
358,366,94256,1,12,0:0:0:0:
281,322,94573,1,12,0:0:0:0:
256,192,94889,12,4,96475,0:0:0:0:
135,295,98378,5,8,0:0:0:0:
100,213,98695,1,6,0:0:0:0:
134,132,99012,1,8,0:0:0:0:
199,73,99329,2,0,P|135:44|59:84,2,160,6|6|6,0:0|0:0|0:0,0:0:0:0:
246,147,100915,5,8,0:0:0:0:
311,205,101232,1,6,0:0:0:0:
392,238,101549,1,8,0:0:0:0:
464,288,101866,2,0,P|398:325|324:295,2,160,6|6|6,0:0|0:0|0:0,0:0:0:0:
481,201,103452,5,12,0:0:0:0:
453,117,103770,2,0,P|429:84|390:64,1,80,14|12,0:0|0:0,0:0:0:0:
320,111,104404,2,0,P|245:143|165:133,1,160,14|14,0:0|0:0,0:0:0:0:
97,82,105356,1,8,0:0:0:0:
22,35,105673,1,14,0:0:0:0:
24,122,105990,6,0,P|41:199|5:283,1,160,12|12,0:0|0:0,0:0:0:0:
95,304,106941,2,0,P|147:317|177:311,1,80,14|12,0:0|0:0,0:0:0:0:
231,377,107576,2,0,P|248:270|142:229,1,240,2|8,0:0|0:0,0:0:0:0:
57,253,108845,5,6,0:0:0:0:
81,168,109162,1,8,0:0:0:0:
160,130,109479,2,0,P|96:82|23:103,2,160,6|6|6,0:0|0:0|0:0,0:0:0:0:
208,203,111065,1,8,0:0:0:0:
276,257,111382,5,6,0:0:0:0:
361,279,111699,1,8,0:0:0:0:
441,242,112016,2,0,P|437:321|376:367,2,160,6|6|2,0:0|0:0|0:0,0:0:0:0:
422,155,113602,5,12,0:0:0:0:
387,73,113920,2,0,P|354:97|335:138,1,80,14|12,0:0|0:0,0:0:0:0:
343,218,114554,2,0,P|271:252|193:230,1,160,14|14,0:0|0:0,0:0:0:0:
122,184,115506,1,12,0:0:0:0:
109,96,115823,1,14,0:0:0:0:
256,192,116140,12,4,118677,0:0:0:0:
223,49,119946,5,12,0:0:0:0:
154,109,120263,2,0,P|186:130|226:139,1,80,6|8,0:0|0:0,0:0:0:0:
306,88,120898,1,6,0:0:0:0:
345,9,121215,2,0,P|393:93|300:176,1,240,12|12,0:0|0:0,0:0:0:0:
224,131,122483,6,0,P|220:209|277:261,1,160,12|12,0:0|0:0,0:0:0:0:
361,285,123435,1,4,0:0:0:0:
370,197,123752,2,0,P|435:240|442:319,1,160,12|12,0:0|0:0,0:0:0:0:
377,375,124704,1,6,0:0:0:0:
297,338,125021,6,0,P|234:288|151:298,1,160,12|12,0:0|0:0,0:0:0:0:
78,331,125972,1,6,0:0:0:0:
25,259,126290,1,10,0:0:0:0:
19,171,126607,2,0,P|88:117|99:49,1,160,10|8,0:0|0:0,0:0:0:0:
187,47,127558,6,0,P|238:41|272:58,1,80,8|8,0:0|0:0,0:0:0:0:
340,96,128193,1,8,0:0:0:0:
373,178,128510,1,12,0:0:0:0:
360,265,128827,2,0,P|288:346|188:290,1,240,12|8,0:0|0:0,0:0:0:0:
271,258,130096,6,0,P|256:177|204:120,1,160,12|12,0:0|0:0,0:0:0:0:
129,75,131047,1,6,0:0:0:0:
51,32,131365,2,0,P|50:111|109:162,1,160,12|12,0:0|0:0,0:0:0:0:
172,220,132316,1,6,0:0:0:0:
107,280,132633,6,0,P|180:307|248:265,1,160,12|12,0:0|0:0,0:0:0:0:
299,197,133585,1,6,0:0:0:0:
257,119,133902,2,0,P|364:140|364:256,1,240,12|2,0:0|0:0,0:0:0:0:
299,197,135171,6,0,P|298:308|409:331,1,240,12|2,0:0|0:0,0:0:0:0:
461,263,136440,2,0,P|471:187|344:72,1,240,12|2,0:0|0:0,0:0:0:0:
309,141,137708,2,0,P|190:120|111:34,1,240,12|2,0:0|0:0,0:0:0:0:
256,192,138977,12,4,141514,0:0:0:0:
58,116,143735,6,0,P|137:136|197:190,1,160,8|8,0:0|0:0,0:0:0:0:
234,265,144686,1,2,0:0:0:0:
299,324,145003,2,0,P|225:352|157:307,1,160,8|8,0:0|0:0,0:0:0:0:
100,248,145955,1,2,0:0:0:0:
80,162,146272,2,0,P|95:104|181:55,1,160,8|8,0:0|0:0,0:0:0:0:
265,53,147224,5,2,0:0:0:0:
352,57,147541,2,0,P|319:123|260:144,2,120,8|8|8,0:0|0:0|0:0,0:0:0:0:
437,35,148810,1,2,0:0:0:0:
428,122,149127,2,0,P|410:199|448:269,1,160,8|8,0:0|0:0,0:0:0:0:
371,313,150078,2,0,P|437:355|509:330,2,160,8|8|8,0:0|0:0|0:0,0:0:0:0:
300,259,151664,6,0,P|257:235|184:230,1,120,2|2,0:0|0:0,0:0:0:0:
63,184,152616,2,0,P|90:130|92:61,1,120,8|8,0:0|0:0,0:0:0:0:
225,58,153567,2,0,P|279:77|348:77,1,120,2|2,0:0|0:0,0:0:0:0:
451,151,154519,2,0,P|423:196|426:263,1,120,12|12,0:0|0:0,0:0:0:0:
