osu file format v12

[General]
AudioFilename: Dark Chest of Wonders.mp3
AudioLeadIn: 0
PreviewTime: 24787
Countdown: 0
SampleSet: None
StackLeniency: 0.7
Mode: 0
LetterboxInBreaks: 0

[Editor]
Bookmarks: 681,4488,9562,14637,19712,24787,29862,34937,40012,45087,48893,52699,56505,60311,62848,67923,78073,83148,86954,90760,94566,98372,103446,108521,113596,118671,123746,128821,133896,138971,141508,146583,151658
DistanceSpacing: 1
BeatDivisor: 4
GridSize: 4

[Metadata]
Title:Dark Chest of Wonders
TitleUnicode:Dark Chest of Wonders
Artist:Nightwish
ArtistUnicode:Nightwish
Creator:Sieg
Version:Insane
Source:
Tags:once
BeatmapID:229014
BeatmapSetID:82846

[Difficulty]
HPDrainRate:7
CircleSize:4
OverallDifficulty:8
ApproachRate:9
SliderMultiplier:2
SliderTickRate:1

[Events]
//Background and Video events
0,0,"bg.jpg",0,0
//Break Periods
2,83354,85408
//Storyboard Layer 0 (Background)
//Storyboard Layer 1 (Fail)
//Storyboard Layer 2 (Pass)
//Storyboard Layer 3 (Foreground)
//Storyboard Sound Samples
//Background Colour Transformations
3,100,163,162,255

[TimingPoints]
4494,317.183411307589,4,3,2,60,1,0
4811,-100,4,3,1,60,0,0
7031,-100,4,3,2,60,0,0
7190,-100,4,3,1,60,0,0
9568,-100,4,3,2,60,0,0
9886,-100,4,3,1,60,0,0
10044,-100,4,3,1,60,0,0
12106,-100,4,3,1,60,0,0
14009,-100,4,3,1,100,0,0
14643,-100,4,3,2,60,0,0
14802,-100,4,3,1,60,0,0
17181,-100,4,3,2,60,0,0
17339,-100,4,3,1,60,0,0
19718,-100,4,3,2,60,0,0
19877,-100,4,3,1,60,0,0
20987,-100,4,3,2,60,0,0
21146,-100,4,3,1,60,0,0
22573,-100,4,3,2,60,0,0
24793,-100,4,3,2,60,0,0
24952,-100,4,3,1,60,0,0
32406,-100,4,3,1,60,0,0
34309,-100,4,3,1,100,0,0
34943,-100,4,3,2,60,0,0
35419,-100,4,3,1,60,0,0
45093,317.183411307589,3,3,2,80,1,0
45410,-100,3,3,3,60,0,0
47947,-100,3,3,2,60,0,0
49216,-100,3,3,3,60,0,0
51753,-100,3,3,2,60,0,0
53022,-100,3,3,3,60,0,0
55560,-100,3,3,2,60,0,0
56828,-100,3,3,3,60,0,0
58414,-100,3,3,1,60,0,0
60317,317.183411307589,4,3,2,60,1,0
64757,-100,4,3,1,60,0,0
65709,-100,4,3,2,60,0,0
67295,-100,4,3,1,60,0,0
67929,-100,4,3,2,60,0,0
68087,-100,4,3,1,60,0,0
70466,-100,4,3,2,60,0,0
70625,-100,4,3,1,60,0,0
73321,-100,4,3,2,60,0,0
74907,-100,4,3,1,60,0,0
75858,-100,4,3,2,60,0,0
77444,-100,4,3,1,60,0,0
78079,-100,4,3,2,60,0,0
78237,-100,4,3,1,60,0,0
83154,317.183411307589,3,3,2,60,1,0
86008,-100,3,3,2,50,0,0
87277,-100,3,3,3,50,0,0
89814,-100,3,3,2,50,0,0
91083,-100,3,3,3,50,0,0
93621,-100,3,3,2,50,0,0
94889,-100,3,3,3,50,0,0
96475,-100,3,3,1,50,0,0
98378,317.183411307589,4,3,1,60,1,0
98695,-100,4,3,2,60,0,0
100122,-100,4,3,1,60,0,0
100281,-100,4,3,1,60,0,0
101232,-100,4,3,2,60,0,0
102659,-100,4,3,1,60,0,0
102818,-100,4,3,1,60,0,0
103452,-100,4,3,2,60,0,0
103611,-100,4,3,1,60,0,0
105990,-100,4,3,2,60,0,0
106148,-100,4,3,1,60,0,0
108845,-100,4,3,2,60,0,0
110430,-100,4,3,1,60,0,0
111382,-100,4,3,2,60,0,0
112968,-100,4,3,1,60,0,0
113602,-100,4,3,2,60,0,0
113761,-100,4,3,1,60,0,0
116140,-100,4,3,2,60,0,0
116298,-100,4,3,1,60,0,0
118677,-100,4,3,2,60,0,0
119629,-133.333333333333,4,3,3,50,0,0
121690,-100,4,3,3,50,0,0
125021,-100,4,3,2,50,0,0
125338,-100,4,3,3,50,0,0
125655,-100,4,3,2,50,0,0
129779,-100,4,3,3,50,0,0
133902,-100,4,3,2,50,0,0
134219,-100,4,3,3,50,0,0
138977,-100,4,3,2,50,0,0
141514,-80,4,3,4,50,0,0
141673,-80,4,2,1,40,0,0
141832,-80,4,3,4,50,0,0
142307,-80,4,2,1,40,0,0
142466,-80,4,3,4,50,0,0
142625,-80,4,2,1,40,0,0
142783,-80,4,3,4,50,0,0
143259,-80,4,2,1,40,0,0
143418,-80,4,3,4,50,0,0
144211,-80,4,2,1,40,0,0
144369,-80,4,3,4,50,0,0
144845,-80,4,2,1,40,0,0
145003,-80,4,3,4,50,0,0
145162,-80,4,2,1,40,0,0
145321,-80,4,3,4,50,0,0
145796,-80,4,2,1,40,0,0
145955,-80,4,3,4,50,0,0
146114,-80,4,2,1,40,0,0
146272,-80,4,3,4,50,0,0
146748,-80,4,2,1,50,0,0
146907,-80,4,3,4,50,0,0
147382,-80,4,2,1,50,0,0
147541,-80,4,3,4,50,0,0
147700,-80,4,2,1,50,0,0
147858,-80,4,3,4,50,0,0
148334,-80,4,2,1,50,0,0
148492,-80,4,3,4,50,0,0
148968,-80,4,2,1,50,0,0
149127,-80,4,3,4,50,0,0
149285,-80,4,2,1,50,0,0
149444,-80,4,3,4,50,0,0
150871,-80,4,2,1,50,0,0
151030,-80,4,3,4,50,0,0
151506,-80,4,2,1,50,0,0
151664,-80,4,3,4,40,0,0
152616,-80,4,3,1,65,0,0
154519,-80,4,3,2,55,0,0

[Colours]
Combo1 : 35,43,43
Combo2 : 101,0,11
Combo3 : 0,51,81
SliderBorder : 204,204,204

[HitObjects]
220,328,4494,2,0,P|184:252|80:256,1,200,12|0,0:0|2:0,0:0:0:0:
8,132,4969,2,0,P|60:128|92:92,1,100,8|0,0:0|2:0,0:0:0:0:
180,144,5286,1,8,0:0:0:0:
228,56,5445,2,0,P|268:92|280:136,1,100,8|0,0:0|2:0,0:0:0:0:
300,232,5762,1,8,0:0:0:0:
304,332,5921,2,0,P|257:327|221:291,1,100,8|0,0:0|2:0,0:0:0:0:
400,316,6238,1,8,0:0:0:0:
408,216,6397,2,0,P|428:172|476:156,1,100,8|0,0:0|2:0,0:0:0:0:
344,80,6714,2,0,P|390:88|431:59,1,100,8|0,0:0|2:0,0:0:0:0:
300,232,7031,6,0,P|296:180|260:152,1,100,12|0,0:0|2:0,0:0:0:0:
168,112,7348,1,8,0:0:0:0:
84,168,7507,2,0,P|48:208|44:252,1,100,8|0,0:0|2:0,0:0:0:0:
84,344,7824,1,8,0:0:0:0:
256,300,7983,2,0,P|212:308|164:284,1,100,8|0,0:0|2:0,0:0:0:0:
224,204,8300,1,8,0:0:0:0:
164,284,8458,2,0,P|136:244|88:232,1,100,8|0,0:0|2:0,0:0:0:0:
16,160,8775,1,8,0:0:0:0:
48,56,8934,1,8,0:0:0:0:
136,140,9093,1,8,0:0:0:0:
176,16,9251,1,8,0:0:0:0:
264,124,9410,1,8,0:0:0:0:
392,40,9568,6,0,P|483:91|470:173,1,200,12|0,0:0|2:0,0:0:0:0:
328,168,10044,2,0,P|280:204|276:244,1,100,8|0,0:0|2:0,0:0:0:0:
192,304,10361,1,8,0:0:0:0:
280,356,10520,2,0,P|324:344|356:300,1,100,8|0,0:0|2:0,0:0:0:0:
256,192,10837,12,8,11947,0:0:0:0:
156,96,12106,6,0,L|52:84,1,100,12|8,0:0|0:0,0:0:0:0:
356,96,12423,2,0,L|464:84,1,100,8|12,0:0|0:0,0:0:0:0:
156,288,13057,2,0,L|48:300,1,100,12|8,0:0|0:0,0:0:0:0:
356,288,13375,2,0,L|456:300,1,100,8|12,0:0|0:0,0:0:0:0:
256,196,14009,1,4,0:0:0:0:
256,196,14326,1,4,0:0:0:0:
424,108,14643,6,0,P|452:156|452:200,2,100,12|0|6,0:0|2:0|0:0,0:0:0:0:
320,248,15119,2,0,P|272:276|228:272,1,100,0|12,2:0|0:0,0:0:0:0:
132,252,15436,1,8,0:0:0:0:
36,220,15595,2,0,P|60:184|108:156,1,100,6|0,0:0|2:0,0:0:0:0:
204,128,15912,1,12,0:0:0:0:
128,61,16071,2,0,P|169:35|219:30,1,100,8|6,0:0|0:0,0:0:0:0:
312,72,16388,1,0,2:0:0:0:
408,96,16546,2,0,P|436:144|444:192,1,100,12|8,0:0|0:0,0:0:0:0:
332,340,16864,2,0,P|308:304|297:247,1,100,6|0,0:0|2:0,0:0:0:0:
180,340,17181,6,0,P|208:296|216:248,2,100,12|0|6,0:0|2:0|0:0,0:0:0:0:
68,189,17657,2,0,P|76:144|104:96,1,100,0|12,2:0|0:0,0:0:0:0:
200,72,17974,1,8,0:0:0:0:
380,88,18132,2,0,P|332:96|288:120,1,100,6|0,0:0|2:0,0:0:0:0:
256,216,18450,1,12,0:0:0:0:
356,228,18608,2,0,P|416:216|452:192,1,100,8|6,0:0|0:0,0:0:0:0:
476,292,18925,1,0,2:0:0:0:
384,332,19084,2,0,P|336:320|280:324,1,100,6|8,0:0|0:0,0:0:0:0:
120,224,19401,2,0,P|156:240|192:288,1,100,6|0,0:0|2:0,0:0:0:0:
52,296,19718,6,0,P|24:248|24:204,2,100,12|0|6,0:0|2:0|0:0,0:0:0:0:
192,288,20194,2,0,P|220:240|216:196,1,100,0|12,2:0|0:0,0:0:0:0:
156,116,20511,1,8,0:0:0:0:
132,16,20670,2,0,P|84:44|60:80,1,100,6|0,0:0|2:0,0:0:0:0:
24,172,20987,1,12,0:0:0:0:
216,196,21304,6,0,L|228:300,1,100,6|8,0:0|0:0,0:0:0:0:
324,232,21621,2,0,L|382:321,1,100,6|8,0:0|0:0,0:0:0:0:
408,160,21939,2,0,L|500:208,1,100,6|8,0:0|0:0,0:0:0:0:
404,48,22256,2,0,L|504:40,1,100,6|8,0:0|0:0,0:0:0:0:
296,112,22573,1,12,0:0:0:0:
80,304,22890,6,0,P|144:232|224:276,1,200,8|8,0:0|0:0,0:0:0:0:
216,32,23525,2,0,P|280:104|360:64,1,200,4|8,0:0|0:0,0:0:0:0:
488,336,24159,2,0,P|428:264|344:304,1,200,4|8,0:0|0:0,0:0:0:0:
48,64,24793,6,0,L|84:172,1,100,12|8,0:0|0:0,0:0:0:0:
148,84,25110,1,14,0:0:0:0:
244,108,25269,2,0,L|164:176,1,100,8|12,0:0|0:0,0:0:0:0:
96,244,25586,1,8,0:0:0:0:
156,324,25745,2,0,P|196:276|244:256,1,100,14|8,0:0|0:0,0:0:0:0:
328,252,26062,1,12,0:0:0:0:
449,336,26221,2,0,P|396:328|352:344,1,100,8|14,0:0|0:0,0:0:0:0:
256,368,26538,1,8,0:0:0:0:
241,179,26696,2,0,P|224:228|220:276,1,100,12|8,0:0|0:0,0:0:0:0:
404,248,27014,2,0,P|424:204|432:152,1,100,14|8,0:0|0:0,0:0:0:0:
260,32,27331,6,0,P|308:16|368:12,1,100,12|8,0:0|0:0,0:0:0:0:
436,72,27648,1,14,0:0:0:0:
364,140,27806,2,0,P|416:154|458:177,1,100,8|12,0:0|0:0,0:0:0:0:
488,272,28124,1,8,0:0:0:0:
321,354,28282,2,0,P|360:336|416:340,1,100,14|8,0:0|0:0,0:0:0:0:
488,272,28599,1,12,0:0:0:0:
392,248,28758,2,0,P|336:240|296:220,1,100,8|14,0:0|0:0,0:0:0:0:
172,180,29075,5,8,0:0:0:0:
35,92,29234,1,12,0:0:0:0:
197,83,29392,1,8,0:0:0:0:
71,185,29551,1,14,0:0:0:0:
113,28,29710,1,8,0:0:0:0:
48,312,29868,6,0,P|96:320|132:356,1,100,12|8,0:0|0:0,0:0:0:0:
204,284,30185,1,14,0:0:0:0:
267,143,30344,2,0,P|268:192|292:236,1,100,8|12,0:0|0:0,0:0:0:0:
364,308,30661,1,8,0:0:0:0:
424,228,30820,2,0,P|456:188|512:160,1,100,14|8,0:0|0:0,0:0:0:0:
256,192,31137,12,8,32247,0:0:0:0:
59,161,32406,6,0,P|65:60|243:77,1,300,12|8,0:0|0:0,0:0:0:0:
453,223,33357,2,0,P|447:324|269:307,1,300,12|8,0:0|0:0,0:0:0:0:
194,60,34309,1,4,0:0:0:0:
400,204,34626,1,4,0:0:0:0:
172,310,34943,5,12,0:0:0:0:
200,208,35102,1,8,0:0:0:0:
268,280,35260,1,10,0:0:0:0:
108,248,35419,2,0,P|80:204|80:156,1,100,8|12,0:0|0:0,0:0:0:0:
84,56,35736,1,8,0:0:0:0:
184,44,35895,2,0,P|236:40|280:56,1,100,14|8,0:0|0:0,0:0:0:0:
312,152,36212,1,12,0:0:0:0:
477,151,36370,2,0,P|440:160|400:204,1,100,8|14,0:0|0:0,0:0:0:0:
364,300,36688,1,8,0:0:0:0:
232,192,36846,2,0,P|260:224|268:280,1,100,12|8,0:0|0:0,0:0:0:0:
128,360,37163,2,0,P|96:316|92:268,1,100,14|8,0:0|0:0,0:0:0:0:
180,80,37481,6,0,P|152:52|92:36,1,100,12|8,0:0|0:0,0:0:0:0:
12,92,37798,1,14,0:0:0:0:
88,156,37956,2,0,P|116:184|176:200,1,100,8|12,0:0|0:0,0:0:0:0:
272,208,38274,1,8,0:0:0:0:
130,317,38432,2,0,P|164:288|216:272,1,100,12|8,0:0|0:0,0:0:0:0:
308,316,38749,1,12,0:0:0:0:
404,348,38908,2,0,P|448:336|488:296,1,100,8|14,0:0|0:0,0:0:0:0:
444,208,39225,1,8,0:0:0:0:
420,100,39384,1,12,0:0:0:0:
332,180,39542,1,8,0:0:0:0:
304,52,39701,1,14,0:0:0:0:
208,152,39859,1,8,0:0:0:0:
72,64,40018,6,0,L|60:164,1,100,12|8,0:0|0:0,0:0:0:0:
64,264,40335,1,14,0:0:0:0:
140,196,40494,2,0,L|168:296,1,100,8|12,0:0|0:0,0:0:0:0:
256,248,40811,1,8,0:0:0:0:
344,296,40970,2,0,L|272:364,1,100,14|8,0:0|0:0,0:0:0:0:
256,192,41287,12,8,42397,0:0:0:0:
316,212,42556,5,10,0:0:0:0:
256,258,42714,1,10,0:0:0:0:
187,217,42873,1,10,0:0:0:0:
201,137,43031,1,10,0:0:0:0:
285,116,43190,1,8,0:0:0:0:
337,192,43349,1,8,0:0:0:0:
288,271,43506,1,8,0:0:0:0:
188,255,43666,1,8,0:0:0:0:
162,152,43825,5,10,0:0:0:0:
256,87,43983,1,10,0:0:0:0:
354,148,44141,1,10,0:0:0:0:
338,274,44301,1,10,0:0:0:0:
204,307,44459,1,8,0:0:0:0:
120,188,44616,1,8,0:0:0:0:
198,58,44776,1,8,0:0:0:0:
359,84,44934,1,8,0:0:0:0:
256,192,45093,5,4,0:0:0:0:
402,346,45410,5,14,0:0:0:0:
454,262,45568,1,8,0:0:0:0:
354,258,45727,1,12,0:0:0:0:
460,60,46044,6,0,P|412:48|360:56,1,100,14|12,0:0|0:0,0:0:0:0:
208,180,46361,2,0,P|256:192|308:184,1,100,12|8,0:0|0:0,0:0:0:0:
148,56,46678,2,0,P|96:48|48:60,1,100,14|8,0:0|0:0,0:0:0:0:
208,180,46996,2,0,P|272:256|200:304,1,200,12|14,0:0|0:0,0:0:0:0:
112,312,47471,1,12,0:0:0:0:
64,224,47630,1,12,0:0:0:0:
240,112,47947,6,0,P|248:60|280:28,1,100,14|8,0:0|0:0,0:0:0:0:
380,124,48264,2,0,P|432:132|464:164,1,100,12|8,0:0|0:0,0:0:0:0:
368,264,48582,2,0,P|360:316|328:348,1,100,14|8,0:0|0:0,0:0:0:0:
232,244,48899,2,0,P|180:236|148:204,1,100,12|8,0:0|0:0,0:0:0:0:
52,141,49216,5,14,0:0:0:0:
25,34,49374,1,8,0:0:0:0:
132,64,49533,1,12,0:0:0:0:
108,232,49850,6,0,P|112:292|132:332,1,100,14|12,0:0|0:0,0:0:0:0:
232,204,50167,2,0,P|265:253|302:278,1,100,12|8,0:0|0:0,0:0:0:0:
380,136,50485,2,0,P|437:163|474:164,1,100,14|8,0:0|0:0,0:0:0:0:
449,20,50802,1,12,0:0:0:0:
256,112,51119,5,14,0:0:0:0:
184,16,51278,1,12,0:0:0:0:
136,124,51436,1,12,0:0:0:0:
284,260,51753,6,0,P|276:312|244:344,1,100,14|8,0:0|0:0,0:0:0:0:
144,248,52071,2,0,P|92:240|60:208,1,100,12|0,0:0|0:0,0:0:0:0:
156,108,52388,2,0,P|164:56|196:24,1,100,14|8,0:0|0:0,0:0:0:0:
292,128,52705,2,0,P|344:136|376:168,1,100,12|8,0:0|0:0,0:0:0:0:
392,336,53022,5,14,0:0:0:0:
316,232,53181,1,8,0:0:0:0:
444,220,53339,1,12,0:0:0:0:
160,328,53656,6,0,P|108:332|64:308,1,100,14|12,0:0|0:0,0:0:0:0:
128,232,53974,2,0,P|180:236|224:212,1,100,4|8,0:0|0:0,0:0:0:0:
156,128,54291,2,0,P|104:132|60:108,1,100,14|8,0:0|0:0,0:0:0:0:
124,32,54608,2,0,P|224:56|256:140,1,200,12|14,0:0|0:0,0:0:0:0:
276,236,55084,1,12,0:0:0:0:
311,329,55242,1,12,0:0:0:0:
440,124,55560,6,0,L|404:28,1,100,14|8,0:0|0:0,0:0:0:0:
276,236,55877,2,0,L|312:332,1,100,12|8,0:0|0:0,0:0:0:0:
236,148,56194,2,0,L|200:52,1,100,12|8,0:0|0:0,0:0:0:0:
72,260,56511,2,0,L|108:360,1,100,12|8,0:0|0:0,0:0:0:0:
240,340,56828,5,14,0:0:0:0:
348,320,56987,1,8,0:0:0:0:
276,236,57145,1,12,0:0:0:0:
460,132,57463,6,0,P|448:176|468:224,1,100,14|12,0:0|0:0,0:0:0:0:
420,312,57780,2,0,P|387:263|350:238,1,100,12|8,0:0|0:0,0:0:0:0:
320,144,58097,2,0,P|351:105|365:57,1,100,14|8,0:0|0:0,0:0:0:0:
460,32,58414,1,12,0:0:0:0:
224,68,58731,5,2,0:0:0:0:
128,32,58890,1,8,0:0:0:0:
52,92,59049,1,2,0:0:0:0:
68,192,59207,1,8,0:0:0:0:
160,228,59366,1,2,0:0:0:0:
240,168,59524,1,8,0:0:0:0:
148,132,59683,1,2,0:0:0:0:
68,192,59842,1,8,0:0:0:0:
76,289,60000,1,8,0:0:0:0:
170,329,60159,1,8,0:0:0:0:
249,270,60317,1,12,0:0:0:0:
264,272,61585,5,2,0:0:0:0:
344,328,61744,1,8,0:0:0:0:
436,288,61902,1,8,0:0:0:0:
444,192,62061,1,2,0:0:0:0:
364,132,62220,1,8,0:0:0:0:
276,176,62378,1,8,0:0:0:0:
264,272,62537,1,2,0:0:0:0:
116,136,62854,5,8,0:0:0:0:
116,136,63013,1,8,0:0:0:0:
120,236,63171,2,0,P|36:200|20:100,1,200,6|8,0:0|0:0,0:0:0:0:
80,20,63647,1,8,0:0:0:0:
176,56,63806,2,0,P|216:132|164:224,1,200,6|8,0:0|0:0,0:0:0:0:
84,280,64281,1,8,0:0:0:0:
136,364,64440,1,6,0:0:0:0:
312,284,64757,2,0,P|400:256|472:324,2,200,12|6|8,0:0|0:0|0:0,0:0:0:0:
236,348,65550,5,8,0:0:0:0:
224,248,65709,2,0,P|287:183|391:164,1,200,6|8,0:0|0:0,0:0:0:0:
444,76,66184,1,8,0:0:0:0:
168,32,66343,2,0,P|244:84|344:64,1,200,6|8,0:0|0:0,0:0:0:0:
444,76,66819,1,8,0:0:0:0:
400,164,66977,1,6,0:0:0:0:
248,320,67295,2,0,P|348:300|424:352,2,200,12|6|12,0:0|0:0|0:0,0:0:0:0:
108,128,68246,6,0,P|72:168|56:220,1,100,14|8,0:0|0:0,0:0:0:0:
100,300,68563,1,12,0:0:0:0:
219,143,68722,2,0,P|200:196|168:224,1,100,8|14,0:0|0:0,0:0:0:0:
100,300,69039,1,8,0:0:0:0:
204,304,69198,2,0,P|248:284|304:284,1,100,12|0,0:0|0:0,0:0:0:0:
424,276,69515,2,0,P|384:248|360:204,1,100,14|8,0:0|0:0,0:0:0:0:
260,200,69832,2,0,P|288:168|284:112,1,100,12|8,0:0|0:0,0:0:0:0:
432,132,70149,2,0,P|416:96|368:60,1,100,14|8,0:0|0:0,0:0:0:0:
280,16,70466,5,12,0:0:0:0:
184,44,70625,1,8,0:0:0:0:
88,68,70784,2,0,P|108:104|96:160,1,100,14|8,0:0|0:0,0:0:0:0:
60,252,71101,1,12,0:0:0:0:
216,368,71259,2,0,P|188:328|144:304,1,100,8|14,0:0|0:0,0:0:0:0:
60,252,71577,1,8,0:0:0:0:
156,220,71735,2,0,P|200:216|248:188,1,100,12|10,0:0|0:0,0:0:0:0:
324,132,72052,1,2,0:0:0:0:
416,88,72211,1,2,0:0:0:0:
496,148,72369,1,8,0:0:0:0:
488,244,72528,1,8,0:0:0:0:
396,284,72687,1,8,0:0:0:0:
316,228,72845,1,8,0:0:0:0:
404,188,73004,5,8,0:0:0:0:
396,284,73162,1,8,0:0:0:0:
292,308,73321,2,0,P|224:296|96:336,1,200,6|8,0:0|0:0,0:0:0:0:
56,244,73797,1,8,0:0:0:0:
244,196,73955,2,0,P|152:196|60:144,1,200,6|8,0:0|0:0,0:0:0:0:
20,52,74431,1,8,0:0:0:0:
116,28,74590,1,6,0:0:0:0:
304,56,74907,2,0,P|396:32|468:100,2,200,12|6|8,0:0|0:0|0:0,0:0:0:0:
256,144,75700,5,8,0:0:0:0:
108,196,75858,2,0,P|200:228|148:312,1,200,6|8,0:0|0:0,0:0:0:0:
76,328,76334,1,8,0:0:0:0:
256,144,76493,2,0,P|305:227|279:328,1,200,6|8,0:0|0:0,0:0:0:0:
172,304,76969,1,8,0:0:0:0:
108,196,77127,1,6,0:0:0:0:
292,325,77444,2,0,P|372:297|420:197,2,200,12|6|12,0:0|0:0|0:0,0:0:0:0:
172,304,78237,5,8,0:0:0:0:
84,244,78396,2,0,P|59:201|56:148,1,100,14|8,0:0|0:0,0:0:0:0:
128,80,78713,1,12,0:0:0:0:
220,36,78872,2,0,P|227:93|212:140,1,100,8|14,0:0|0:0,0:0:0:0:
304,179,79189,1,8,0:0:0:0:
368,33,79348,2,0,P|364:86|389:126,1,100,12|8,0:0|0:0,0:0:0:0:
480,313,79665,2,0,P|489:261|467:218,1,100,14|8,0:0|0:0,0:0:0:0:
88,232,79982,2,0,P|118:259|174:271,1,100,12|8,0:0|0:0,0:0:0:0:
312,152,80299,2,0,P|280:192|224:208,1,100,14|8,0:0|0:0,0:0:0:0:
88,232,80616,5,10,0:0:0:0:
48,140,80775,1,10,0:0:0:0:
40,32,80933,2,0,P|76:64|132:80,1,100,10|8,0:0|0:0,0:0:0:0:
224,100,81251,1,8,0:0:0:0:
176,288,81409,2,0,P|170:242|188:192,1,100,8|8,0:0|0:0,0:0:0:0:
224,100,81726,1,8,0:0:0:0:
372,225,81885,2,0,P|330:210|292:172,1,100,8|8,0:0|0:0,0:0:0:0:
224,100,82202,1,8,0:0:0:0:
404,21,82361,2,0,P|373:50|320:68,1,100,8|8,0:0|0:0,0:0:0:0:
224,100,82678,1,8,0:0:0:0:
136,144,82837,1,8,0:0:0:0:
88,232,82995,1,8,0:0:0:0:
68,332,83154,1,12,0:0:0:0:
192,296,86008,5,14,0:0:0:0:
355,258,86325,1,12,0:0:0:0:
319,102,86643,1,14,0:0:0:0:
156,140,86960,1,12,0:0:0:0:
256,336,87277,6,0,B|292:288|220:224|256:140,1,200,14|12,0:0|0:0,0:0:0:0:
105,288,87911,1,14,0:0:0:0:
174,33,88228,1,12,0:0:0:0:
406,95,88546,1,14,0:0:0:0:
337,350,88863,1,10,0:0:0:0:
208,160,89180,5,14,0:0:0:0:
248,252,89339,1,12,0:0:0:0:
312,176,89497,1,12,0:0:0:0:
176,56,89814,6,0,B|124:68|124:68|100:108,1,100,14|8,0:0|0:0,0:0:0:0:
120,272,90132,2,0,B|132:324|132:324|172:348,1,100,12|8,0:0|0:0,0:0:0:0:
336,328,90449,2,0,B|388:316|388:316|412:276,1,100,14|8,0:0|0:0,0:0:0:0:
392,112,90766,2,0,B|380:60|380:60|340:36,1,100,12|8,0:0|0:0,0:0:0:0:
270,134,91083,5,14,0:0:0:0:
195,213,91242,1,8,0:0:0:0:
303,241,91400,1,12,0:0:0:0:
476,172,91717,6,0,P|472:224|452:268,1,100,14|8,0:0|0:0,0:0:0:0:
273,337,92035,2,0,P|304:304|356:292,1,100,12|8,0:0|0:0,0:0:0:0:
296,148,92352,2,0,P|344:163|376:199,1,100,14|8,0:0|0:0,0:0:0:0:
452,268,92669,1,12,0:0:0:0:
152,336,92986,5,14,0:0:0:0:
273,337,93145,1,10,0:0:0:0:
216,232,93303,1,10,0:0:0:0:
136,48,93621,6,0,B|100:80|112:144,1,100,14|8,0:0|0:0,0:0:0:0:
376,336,93938,2,0,B|412:304|400:240,1,100,12|8,0:0|0:0,0:0:0:0:
149,38,94255,2,0,B|110:66|116:131,1,100,12|8,0:0|0:0,0:0:0:0:
362,345,94572,2,0,B|401:317|395:252,1,100,12|8,0:0|0:0,0:0:0:0:
364,132,94889,5,14,0:0:0:0:
316,16,95048,1,8,0:0:0:0:
440,32,95206,1,12,0:0:0:0:
280,280,95524,6,0,P|240:324|200:336,1,100,14|12,0:0|0:0,0:0:0:0:
176,216,95841,2,0,P|121:240|80:236,1,100,12|8,0:0|0:0,0:0:0:0:
108,116,96158,2,0,P|48:117|12:97,1,100,14|8,0:0|0:0,0:0:0:0:
208,40,96475,2,0,P|316:56|380:116,1,200,12|2,0:0|0:0,0:0:0:0:
392,216,96951,5,2,0:0:0:0:
336,300,97110,1,8,0:0:0:0:
404,372,97268,1,2,0:0:0:0:
460,288,97427,1,2,0:0:0:0:
392,216,97585,1,8,0:0:0:0:
304,168,97744,1,8,0:0:0:0:
208,168,97903,1,8,0:0:0:0:
120,216,98061,1,8,0:0:0:0:
52,288,98220,1,8,0:0:0:0:
108,372,98378,1,8,0:0:0:0:
404,372,98695,6,0,P|484:348|460:244,1,200,6|8,0:0|0:0,0:0:0:0:
392,188,99170,1,8,0:0:0:0:
188,236,99329,2,0,P|268:308|328:264,1,200,6|8,0:0|0:0,0:0:0:0:
109,207,99805,1,8,0:0:0:0:
109,207,99963,2,0,P|144:244|189:236,1,100,6|0,0:0|2:0,0:0:0:0:
276,52,100281,2,0,P|200:32|104:96,2,200,12|6|8,0:0|0:0|0:0,0:0:0:0:
340,132,101074,5,8,0:0:0:0:
360,32,101232,2,0,P|432:96|420:192,1,200,6|8,0:0|0:0,0:0:0:0:
340,132,101708,1,8,0:0:0:0:
420,192,101867,2,0,P|492:256|480:352,1,200,6|8,0:0|0:0,0:0:0:0:
396,297,102342,1,8,0:0:0:0:
296,288,102501,2,0,P|243:306|216:342,1,100,6|0,0:0|2:0,0:0:0:0:
176,252,102818,2,0,P|232:188|180:96,2,200,12|6|12,0:0|0:0|0:0,0:0:0:0:
84,288,103611,5,8,0:0:0:0:
68,188,103770,2,0,P|88:144|84:92,1,100,14|8,0:0|0:0,0:0:0:0:
172,44,104087,1,12,0:0:0:0:
268,64,104245,2,0,P|312:84|364:84,1,100,8|14,0:0|0:0,0:0:0:0:
464,92,104563,1,8,0:0:0:0:
444,284,104721,2,0,P|428:240|436:188,1,100,12|8,0:0|0:0,0:0:0:0:
356,332,105038,2,0,P|312:320|260:336,1,100,14|8,0:0|0:0,0:0:0:0:
364,152,105356,2,0,P|317:167|269:155,1,100,8|8,0:0|0:0,0:0:0:0:
168,240,105673,2,0,P|184:196|164:148,1,100,14|8,0:0|0:0,0:0:0:0:
112,64,105990,5,12,0:0:0:0:
28,120,106148,1,8,0:0:0:0:
36,220,106307,2,0,P|36:276|60:316,1,100,14|8,0:0|0:0,0:0:0:0:
148,356,106624,1,12,0:0:0:0:
236,304,106783,2,0,P|284:276|328:272,1,100,8|14,0:0|0:0,0:0:0:0:
424,232,107100,1,8,0:0:0:0:
364,152,107259,2,0,P|312:180|272:184,1,100,12|8,0:0|0:0,0:0:0:0:
172,196,107576,1,2,0:0:0:0:
76,164,107734,1,2,0:0:0:0:
68,64,107893,1,2,0:0:0:0:
164,28,108052,1,8,0:0:0:0:
244,88,108210,1,8,0:0:0:0:
272,184,108369,1,8,0:0:0:0:
296,280,108527,5,8,0:0:0:0:
364,352,108686,1,8,0:0:0:0:
364,152,108845,2,0,P|448:200|440:292,1,200,6|8,0:0|0:0,0:0:0:0:
364,352,109321,1,8,0:0:0:0:
296,280,109480,2,0,P|204:196|144:216,1,200,6|8,0:0|0:0,0:0:0:0:
60,272,109955,1,8,0:0:0:0:
120,352,110114,1,6,0:0:0:0:
280,123,110431,2,0,P|182:131|144:216,2,200,12|6|8,0:0|0:0|0:0,0:0:0:0:
348,200,111224,5,8,0:0:0:0:
447,333,111383,2,0,P|336:352|304:288,1,200,6|8,0:0|0:0,0:0:0:0:
348,200,111858,1,8,0:0:0:0:
321,19,112017,2,0,P|416:40|416:128,1,200,6|8,0:0|0:0,0:0:0:0:
348,200,112493,1,8,0:0:0:0:
260,152,112651,1,6,0:0:0:0:
96,160,112969,2,0,P|96:72|192:40,2,200,12|6|12,0:0|0:0|0:0,0:0:0:0:
112,260,113761,5,8,0:0:0:0:
192,320,113919,2,0,P|244:324|292:312,1,100,14|8,0:0|0:0,0:0:0:0:
384,280,114237,1,12,0:0:0:0:
356,184,114395,2,0,P|319:146|305:97,1,100,8|14,0:0|0:0,0:0:0:0:
404,96,114712,1,8,0:0:0:0:
240,40,114872,2,0,P|196:68|148:68,1,100,12|8,0:0|0:0,0:0:0:0:
124,172,115189,2,0,P|72:168|32:192,1,100,14|8,0:0|0:0,0:0:0:0:
100,344,115505,2,0,P|152:344|192:320,1,100,12|8,0:0|0:0,0:0:0:0:
384,280,115823,2,0,P|344:296|288:288,1,100,14|8,0:0|0:0,0:0:0:0:
200,240,116140,5,12,0:0:0:0:
124,172,116299,1,10,0:0:0:0:
192,100,116457,2,0,P|228:68|284:52,1,100,10|10,0:0|0:0,0:0:0:0:
376,56,116775,1,8,0:0:0:0:
298,234,116933,2,0,P|303:188|332:144,1,100,8|8,0:0|0:0,0:0:0:0:
376,56,117250,1,8,0:0:0:0:
486,213,117409,2,0,P|472:161|444:128,1,100,8|8,0:0|0:0,0:0:0:0:
376,56,117726,1,8,0:0:0:0:
276,48,117884,1,8,0:0:0:0:
332,144,118043,1,8,0:0:0:0:
224,96,118202,1,8,0:0:0:0:
292,204,118360,1,8,0:0:0:0:
168,144,118519,1,8,0:0:0:0:
256,264,118678,1,12,0:0:0:0:
256,192,118757,12,6,119629,0:0:0:0:
44,184,119946,5,12,0:0:0:0:
40,160,120263,2,0,P|72:88|136:96,1,150.000005722046,6|12,0:0|0:0,0:0:0:0:
256,196,120898,1,6,0:0:0:0:
380,292,121215,6,0,P|448:292|472:224,1,150.000005722046,12|6,0:0|0:0,0:0:0:0:
416,144,121690,1,8,0:0:0:0:
323,184,121849,1,12,0:0:0:0:
256,109,122007,1,8,0:0:0:0:
304,21,122166,1,6,0:0:0:0:
405,42,122325,1,8,0:0:0:0:
420,200,122483,2,0,P|364:272|260:260,2,200,12|6|8,0:0|0:0|0:0,0:0:0:0:
323,184,123276,1,8,0:0:0:0:
226,164,123435,1,4,0:0:0:0:
131,184,123594,1,8,0:0:0:0:
72,88,123752,6,0,P|152:36|244:68,2,200,12|6|12,0:0|0:0|0:0,0:0:0:0:
48,184,124545,1,8,0:0:0:0:
108,264,124704,1,6,0:0:0:0:
104,364,124862,1,8,0:0:0:0:
288,332,125021,2,0,P|336:332|384:316,1,100,12|8,0:0|0:0,0:0:0:0:
352,48,125338,2,0,P|320:96|320:140,1,100,6|8,0:0|0:0,0:0:0:0:
100,312,125655,2,0,P|152:312|188:280,1,100,12|8,0:0|0:0,0:0:0:0:
96,60,125972,2,0,P|192:104|172:188,1,200,6|10,0:0|0:0,0:0:0:0:
112,260,126448,5,10,0:0:0:0:
20,216,126607,1,10,0:0:0:0:
16,116,126765,1,10,0:0:0:0:
96,60,126924,1,8,0:0:0:0:
188,104,127083,1,8,0:0:0:0:
192,204,127241,1,8,0:0:0:0:
103,162,127400,1,8,0:0:0:0:
188,104,127558,1,8,0:0:0:0:
275,153,127717,1,8,0:0:0:0:
282,249,127876,1,8,0:0:0:0:
199,304,128034,1,8,0:0:0:0:
192,204,128193,1,8,0:0:0:0:
275,153,128351,1,8,0:0:0:0:
363,201,128509,1,12,0:0:0:0:
369,297,128669,1,8,0:0:0:0:
288,344,128827,1,12,0:0:0:0:
256,192,128906,12,6,129779,0:0:0:0:
428,208,130096,6,0,P|460:124|380:68,1,200,12|6,0:0|0:0,0:0:0:0:
284,44,130572,2,0,P|256:84|208:104,1,100,8|12,0:0|0:0,0:0:0:0:
108,100,130889,1,8,0:0:0:0:
202,257,131047,2,0,P|168:216|128:196,1,100,6|8,0:0|0:0,0:0:0:0:
108,296,131365,6,0,P|204:356|280:324,2,200,12|6|12,0:0|0:0|0:0,0:0:0:0:
60,208,132158,1,8,0:0:0:0:
128,136,132316,1,6,0:0:0:0:
76,48,132475,1,8,0:0:0:0:
188,56,132633,2,0,P|228:152|176:224,2,200,12|14|12,0:0|0:0|0:0,0:0:0:0:
128,136,133426,1,8,0:0:0:0:
60,208,133585,1,6,0:0:0:0:
80,305,133743,1,8,0:0:0:0:
168,352,133902,5,12,0:0:0:0:
267,339,134061,1,8,0:0:0:0:
348,282,134219,2,0,P|337:193|427:138,1,200,6|12,0:0|0:0,0:0:0:0:
505,190,134695,1,8,0:0:0:0:
416,226,134854,2,0,P|331:196|321:91,1,200,6|12,0:0|0:0,0:0:0:0:
398,38,135329,1,8,0:0:0:0:
398,139,135488,2,0,P|330:197|234:154,1,200,6|12,0:0|0:0,0:0:0:0:
177,79,135964,1,8,0:0:0:0:
80,54,136122,2,0,P|40:139|75:237,2,200,6|12|6,0:0|0:0|0:0,0:0:0:0:
256,192,137074,5,12,0:0:0:0:
256,192,137232,1,8,0:0:0:0:
256,192,137391,1,6,0:0:0:0:
315,100,137708,2,0,P|231:296|240:84,1,600,12|6,0:0|0:0,0:0:0:0:
256,192,138977,1,12,0:0:0:0:
256,192,139056,12,4,141197,0:0:0:0:
50,202,141514,6,0,P|116:206|155:246,1,125,6|2,0:0|0:0,0:0:0:0:
264,309,141832,1,8,0:0:0:0:
264,113,141990,2,0,P|284:170|334:206,1,125,8|2,0:0|0:0,0:0:0:0:
450,256,142307,1,2,0:0:0:0:
350,96,142466,2,0,P|322:46|261:25,1,125,8|2,0:0|0:0,0:0:0:0:
135,28,142783,1,2,0:0:0:0:
115,257,142942,2,0,P|151:219|164:149,1,125,8|8,0:0|0:0,0:0:0:0:
135,28,143259,1,2,0:0:0:0:
264,113,143418,2,0,P|293:177|282:232,1,125,8|8,0:0|0:0,0:0:0:0:
240,346,143735,1,8,0:0:0:0:
228,344,143814,1,2,0:0:0:0:
216,336,143893,1,2,0:0:0:0:
204,328,143973,1,2,0:0:0:0:
196,320,144052,6,0,P|156:268|92:244,1,125,8|2,0:0|0:0,0:0:0:0:
76,368,144369,1,8,0:0:0:0:
42,146,144528,2,0,P|87:181|103:245,1,125,8|2,0:0|0:0,0:0:0:0:
75,369,144845,1,2,0:0:0:0:
218,224,145003,2,0,P|260:275|323:300,1,125,8|2,0:0|0:0,0:0:0:0:
440,308,145321,1,2,0:0:0:0:
356,216,145479,2,0,P|316:164|304:96,1,125,2|8,0:0|0:0,0:0:0:0:
408,36,145796,1,2,0:0:0:0:
440,308,145955,2,0,P|396:340|328:336,1,125,2|2,0:0|0:0,0:0:0:0:
208,300,146272,1,8,0:0:0:0:
196,296,146351,1,2,0:0:0:0:
184,288,146431,1,2,0:0:0:0:
176,280,146510,1,2,0:0:0:0:
168,272,146589,6,0,P|134:216|140:160,1,125,2|2,0:0|0:0,0:0:0:0:
221,62,146907,1,2,0:0:0:0:
58,73,147065,2,0,P|80:119|140:159,1,125,8|2,0:0|0:0,0:0:0:0:
262,186,147382,1,2,0:0:0:0:
352,312,147541,2,0,P|400:284|436:224,1,125,8|2,0:0|0:0,0:0:0:0:
464,104,147858,1,2,0:0:0:0:
328,20,148017,2,0,P|276:20|220:64,1,125,8|8,0:0|0:0,0:0:0:0:
140,160,148334,1,2,0:0:0:0:
160,312,148492,2,0,P|130:270|62:258,1,125,8|2,0:0|0:0,0:0:0:0:
352,312,148810,2,0,P|384:268|452:256,1,125,8|2,0:0|0:0,0:0:0:0:
324,92,149127,6,0,P|335:150|295:198,1,125,8|2,0:0|0:0,0:0:0:0:
180,236,149444,1,2,0:0:0:0:
96,328,149603,2,0,P|64:280|60:208,1,125,8|2,0:0|0:0,0:0:0:0:
76,92,149920,1,2,0:0:0:0:
188,36,150078,1,8,0:0:0:0:
196,44,150158,1,8,0:0:0:0:
200,56,150237,1,8,0:0:0:0:
204,68,150316,1,8,0:0:0:0:
204,80,150396,1,2,0:0:0:0:
224,204,150554,2,0,P|228:280|256:328,1,125,2|8,0:0|0:0,0:0:0:0:
372,352,150871,1,2,0:0:0:0:
434,202,151030,2,0,P|442:146|422:82,1,125,8|2,0:0|0:0,0:0:0:0:
108,48,151347,2,0,P|80:112|88:168,1,125,2|2,0:0|0:0,0:0:0:0:
181,241,151664,5,2,0:0:0:0:
207,118,151823,1,2,0:0:0:0:
330,144,151981,1,2,0:0:0:0:
304,267,152140,1,2,0:0:0:0:
159,161,152616,5,8,0:0:0:0:
224,289,152775,1,8,0:0:0:0:
352,224,152933,1,8,0:0:0:0:
287,96,153092,1,8,0:0:0:0:
158,256,153567,5,2,0:0:0:0:
192,95,153726,1,2,0:0:0:0:
353,129,153884,1,2,0:0:0:0:
319,290,154043,1,2,0:0:0:0:
128,151,154519,5,12,0:0:0:0:
214,320,154678,1,12,0:0:0:0:
383,234,154836,1,12,0:0:0:0:
297,65,154995,1,12,0:0:0:0:
