osu file format v12

[General]
AudioFilename: Dark Chest of Wonders.mp3
AudioLeadIn: 0
PreviewTime: 24787
Countdown: 0
SampleSet: None
StackLeniency: 0.7
Mode: 0
LetterboxInBreaks: 0

[Editor]
Bookmarks: 681,4488,9562,14637,19712,24787,29862,34937,40012,45087,48893,52699,56505,60311,62848,67923,72998,78073,83148,86954,90760,94566,98372,103446,108521,113596,118671,123746
DistanceSpacing: 1
BeatDivisor: 4
GridSize: 4

[Metadata]
Title:Dark Chest of Wonders
TitleUnicode:Dark Chest of Wonders
Artist:Nightwish
ArtistUnicode:Nightwish
Creator:Sieg
Version:Hard
Source:
Tags:once
BeatmapID:246110
BeatmapSetID:82846

[Difficulty]
HPDrainRate:5
CircleSize:4
OverallDifficulty:6
ApproachRate:7
SliderMultiplier:1.4
SliderTickRate:1

[Events]
//Background and Video events
0,0,"bg.jpg",0,0
//Break Periods
2,83354,85108
//Storyboard Layer 0 (Background)
//Storyboard Layer 1 (Fail)
//Storyboard Layer 2 (Pass)
//Storyboard Layer 3 (Foreground)
//Storyboard Sound Samples
//Background Colour Transformations
3,100,163,162,255

[TimingPoints]
4494,317.183411307589,4,3,2,60,1,0
4811,-100,4,3,1,60,0,0
7031,-100,4,3,2,60,0,0
7348,-100,4,3,1,60,0,0
9568,-100,4,3,2,60,0,0
10203,-100,4,3,1,60,0,0
14009,-100,4,3,1,100,0,0
14643,-100,4,3,2,60,0,0
14961,-100,4,3,1,60,0,0
17181,-100,4,3,2,60,0,0
17498,-100,4,3,1,60,0,0
19718,-100,4,3,2,60,0,0
20035,-100,4,3,1,60,0,0
20987,-100,4,3,2,60,0,0
21304,-100,4,3,1,60,0,0
22573,-100,4,3,2,60,0,0
25110,-100,4,3,1,60,0,0
34309,-100,4,3,1,100,0,0
34943,-100,4,3,1,60,0,0
35260,-100,4,3,2,60,0,0
35419,-100,4,3,1,60,0,0
45093,317.183411307589,3,3,2,80,1,0
45410,-100,3,3,3,60,0,0
47947,-100,3,3,2,60,0,0
49216,-100,3,3,3,60,0,0
51753,-100,3,3,2,60,0,0
53022,-100,3,3,3,60,0,0
55560,-100,3,3,2,60,0,0
56828,-100,3,3,3,60,0,0
58414,-100,3,3,2,60,0,0
58731,-100,3,3,1,60,0,0
60317,317.183411307589,4,3,2,60,1,0
64757,-100,4,3,1,60,0,0
65709,-100,4,3,2,60,0,0
67295,-100,4,3,1,60,0,0
67929,-100,4,3,2,60,0,0
68246,-100,4,3,1,60,0,0
70466,-100,4,3,2,60,0,0
70784,-100,4,3,1,60,0,0
73321,-100,4,3,2,60,0,0
74907,-100,4,3,1,60,0,0
75858,-100,4,3,2,60,0,0
77444,-100,4,3,1,60,0,0
78079,-100,4,3,2,60,0,0
78396,-100,4,3,1,60,0,0
83154,317.183411307589,3,3,2,60,1,0
86008,-100,3,3,2,50,0,0
87277,-100,3,3,3,50,0,0
89814,-100,3,3,2,50,0,0
91083,-100,3,3,3,50,0,0
93621,-100,3,3,2,50,0,0
94889,-100,3,3,3,50,0,0
96475,-100,3,3,1,50,0,0
98378,317.183411307589,4,3,1,60,1,0
98695,-100,4,3,2,60,0,0
100281,-100,4,3,1,60,0,0
101232,-100,4,3,2,60,0,0
102818,-100,4,3,1,60,0,0
103452,-100,4,3,2,60,0,0
103770,-100,4,3,1,60,0,0
105990,-100,4,3,2,60,0,0
106307,-100,4,3,1,60,0,0
108845,-100,4,3,2,60,0,0
110430,-100,4,3,1,60,0,0
111382,-100,4,3,2,60,0,0
112968,-100,4,3,1,60,0,0
113602,-100,4,3,2,60,0,0
113919,-100,4,3,1,60,0,0
116140,-100,4,3,2,60,0,0
116457,-100,4,3,1,60,0,0
118677,-100,4,3,2,60,0,0
119946,-100,4,3,3,50,0,0
121849,-100,4,3,3,50,0,0
125021,-100,4,3,2,50,0,0
125338,-100,4,3,3,50,0,0
125655,-100,4,3,2,50,0,0
129144,-100,4,3,1,50,0,0
129779,-100,4,3,3,50,0,0
133902,-100,4,3,2,50,0,0
141514,-80,4,3,2,50,0,0
141832,-80,4,3,4,50,0,0
151664,-80,4,3,4,40,0,0
152616,-80,4,3,1,65,0,0
154519,-80,4,3,2,55,0,0

[Colours]
Combo1 : 35,43,43
Combo2 : 101,0,11
Combo3 : 0,51,81
SliderBorder : 204,204,204

[HitObjects]
24,192,4494,1,12,0:0:0:0:
63,44,4811,2,0,P|137:43|190:91,1,140,8|8,0:0|0:0,0:0:0:0:
327,83,5445,2,0,P|375:42|449:43,1,140,8|8,0:0|0:0,0:0:0:0:
488,192,6079,1,8,0:0:0:0:
449,341,6397,2,0,P|375:342|327:301,1,140,8|8,0:0|0:0,0:0:0:0:
294,131,7031,5,12,0:0:0:0:
294,131,7348,2,0,P|282:67|228:17,1,140,8|8,0:0|0:0,0:0:0:0:
159,139,7983,2,0,P|117:89|45:73,1,140,8|8,0:0|0:0,0:0:0:0:
43,212,8617,1,8,0:0:0:0:
31,351,8934,1,8,0:0:0:0:
98,370,9092,1,8,0:0:0:0:
166,352,9251,1,8,0:0:0:0:
225,315,9409,1,8,0:0:0:0:
260,254,9568,1,12,0:0:0:0:
235,116,9886,6,0,B|283:125|322:75|322:75|367:83,1,140,8|8,0:0|0:0,0:0:0:0:
489,135,10520,1,8,0:0:0:0:
256,192,10837,12,8,11789,0:0:0:0:
164,120,12106,6,0,B|180:168|136:200|159:258,1,140,8|8,0:0|0:0,0:0:0:0:
183,322,12582,1,8,0:0:0:0:
348,120,13057,2,0,B|332:168|376:200|353:258,1,140,8|8,0:0|0:0,0:0:0:0:
329,322,13533,1,8,0:0:0:0:
256,168,14009,1,4,0:0:0:0:
256,168,14326,1,4,0:0:0:0:
130,106,14643,6,0,P|171:51|239:31,2,140,12|6|12,0:0|0:0|0:0,0:0:0:0:
141,245,15595,1,6,0:0:0:0:
233,349,15912,1,12,0:0:0:0:
372,364,16229,1,6,0:0:0:0:
478,272,16546,2,0,P|491:209|444:151,1,140,12|6,0:0|0:0,0:0:0:0:
309,180,17181,6,0,P|241:224|182:220,2,140,12|6|12,0:0|0:0|0:0,0:0:0:0:
407,81,18132,1,6,0:0:0:0:
309,180,18450,1,12,0:0:0:0:
256,50,18767,1,6,0:0:0:0:
256,51,19084,2,0,P|185:55|130:94,1,140,6|6,0:0|0:0,0:0:0:0:
58,213,19718,6,0,B|49:253|52:283|69:283|78:329|59:350,2,140,12|6|12,0:0|0:0|0:0,0:0:0:0:
131,94,20670,2,0,B|122:134|125:164|142:164|151:210|132:231,1,140,6|12,0:0|0:0,0:0:0:0:
265,316,21304,5,6,0:0:0:0:
379,140,21621,1,2,0:0:0:0:
391,349,21939,1,6,0:0:0:0:
258,186,22256,1,6,0:0:0:0:
460,240,22573,1,12,0:0:0:0:
490,84,22890,6,0,P|417:69|378:7,1,140,8|8,0:0|0:0,0:0:0:0:
196,31,23525,2,0,P|232:75|224:153,1,140,4|8,0:0|0:0,0:0:0:0:
88,288,24159,2,0,P|135:337|209:345,1,140,4|8,0:0|0:0,0:0:0:0:
310,237,24793,6,0,P|369:286|374:346,2,140,12|14|12,0:0|0:0|0:0,0:0:0:0:
256,192,25586,1,8,0:0:0:0:
202,147,25745,2,0,P|143:98|138:38,2,140,14|12|14,0:0|0:0|0:0,0:0:0:0:
180,296,26696,1,12,0:0:0:0:
332,296,27014,1,14,0:0:0:0:
301,138,27331,6,0,P|350:79|410:74,2,140,12|14|12,0:0|0:0|0:0,0:0:0:0:
256,192,28124,1,8,0:0:0:0:
211,246,28282,2,0,P|162:305|102:310,2,140,14|12|14,0:0|0:0|0:0,0:0:0:0:
74,213,29234,1,12,0:0:0:0:
46,149,29392,1,8,0:0:0:0:
64,81,29551,1,14,0:0:0:0:
116,34,29710,1,8,0:0:0:0:
185,25,29868,6,0,P|261:37|309:85,1,140,12|14,0:0|0:0,0:0:0:0:
378,198,30503,1,12,0:0:0:0:
335,331,30820,1,14,0:0:0:0:
256,192,31137,12,8,32088,0:0:0:0:
288,32,32406,6,0,B|223:63|254:147|254:147|182:188|121:131,1,280,12|8,0:0|0:0,0:0:0:0:
224,352,33357,2,0,B|289:321|258:237|258:237|330:196|391:253,1,280,12|8,0:0|0:0,0:0:0:0:
492,349,34309,1,4,0:0:0:0:
492,349,34626,1,4,0:0:0:0:
461,78,34943,6,0,P|433:66|389:66,1,70,12|8,0:0|0:0,0:0:0:0:
446,111,35260,2,0,P|410:107|378:119,1,70,10|4,0:0|0:0,0:0:0:0:
437,156,35577,1,12,0:0:0:0:
262,196,35895,1,14,0:0:0:0:
141,124,36212,2,0,P|160:87|158:54,1,70,12|8,0:0|0:0,0:0:0:0:
112,111,36529,2,0,P|116:71|104:39,1,70,14|8,0:0|0:0,0:0:0:0:
79,108,36846,1,12,0:0:0:0:
57,341,37163,5,14,0:0:0:0:
30,175,37481,1,12,0:0:0:0:
187,235,37798,1,14,0:0:0:0:
248,73,38115,2,0,P|313:43|377:56,1,140,12|12,0:0|0:0,0:0:0:0:
360,212,38749,2,0,P|416:209|479:259,1,140,12|14,0:0|0:0,0:0:0:0:
385,381,39384,5,12,0:0:0:0:
333,333,39542,1,8,0:0:0:0:
268,304,39701,1,14,0:0:0:0:
198,309,39859,1,8,0:0:0:0:
133,337,40018,1,12,0:0:0:0:
62,336,40177,2,0,P|28:327|6:295,1,70,8|14,0:0|0:0,0:0:0:0:
22,231,40494,2,0,P|39:206|38:166,1,70,8|12,0:0|0:0,0:0:0:0:
135,65,40970,5,14,0:0:0:0:
256,192,41287,12,8,42238,0:0:0:0:
256,228,42556,6,0,L|256:300,2,70,10|10|8,0:0|0:0|0:0,0:0:0:0:
256,158,43031,2,0,L|256:86,1,70,10|12,0:0|0:0,0:0:0:0:
186,78,43348,2,0,P|150:102|130:138,1,70,12|12,0:0|0:0,0:0:0:0:
118,192,43666,1,12,0:0:0:0:
135,260,43824,6,0,P|184:316|256:318,1,140,12|12,0:0|0:0,0:0:0:0:
315,310,44300,1,8,0:0:0:0:
374,272,44459,2,0,P|392:195|376:134,1,140,12|12,0:0|0:0,0:0:0:0:
322,94,44934,1,8,0:0:0:0:
256,68,45093,1,4,0:0:0:0:
116,57,45410,6,0,L|48:101,2,70,14|8|12,0:0|0:0|0:0,0:0:0:0:
209,160,46044,2,0,P|180:193|169:225,1,70,14|12,0:0|0:0,0:0:0:0:
147,283,46361,2,0,P|150:322|139:354,1,70,12|8,0:0|0:0,0:0:0:0:
70,352,46678,2,0,B|42:300|42:300|58:260|46:212,1,140,14|12,0:0|0:0,0:0:0:0:
56,80,47313,2,0,L|100:136,2,70,14|12|12,0:0|0:0|0:0,0:0:0:0:
241,50,47947,5,14,0:0:0:0:
391,175,48264,1,12,0:0:0:0:
203,235,48582,1,14,0:0:0:0:
335,90,48899,1,12,0:0:0:0:
468,233,49216,6,0,L|476:305,2,70,14|8|12,0:0|0:0|0:0,0:0:0:0:
333,272,49850,2,0,P|330:310|317:346,1,70,14|12,0:0|0:0,0:0:0:0:
288,277,50167,2,0,P|285:315|275:347,1,70,12|8,0:0|0:0,0:0:0:0:
253,278,50485,1,14,0:0:0:0:
141,362,50802,1,12,0:0:0:0:
27,279,51119,2,0,L|43:207,2,70,14|12|12,0:0|0:0|0:0,0:0:0:0:
209,162,51753,5,14,0:0:0:0:
85,44,52071,1,12,0:0:0:0:
42,211,52388,1,14,0:0:0:0:
209,162,52705,1,12,0:0:0:0:
163,294,53022,6,0,L|147:366,2,70,14|8|12,0:0|0:0|0:0,0:0:0:0:
298,329,53656,2,0,P|330:329|364:313,1,70,14|12,0:0|0:0,0:0:0:0:
300,282,53974,2,0,P|336:281|366:266,1,70,4|8,0:0|0:0,0:0:0:0:
301,237,54291,2,0,P|359:197|426:229,1,140,14|12,0:0|0:0,0:0:0:0:
466,94,54925,2,0,L|458:22,2,70,14|12|12,0:0|0:0|0:0,0:0:0:0:
469,234,55560,5,14,0:0:0:0:
352,156,55877,1,12,0:0:0:0:
223,101,56194,1,12,0:0:0:0:
84,119,56511,1,12,0:0:0:0:
78,258,56828,6,0,L|29:309,2,70,14|8|12,0:0|0:0|0:0,0:0:0:0:
181,341,57463,2,0,L|231:289,1,70,14|12,0:0|0:0,0:0:0:0:
264,229,57780,2,0,B|273:196|273:196|257:160,1,70,12|8,0:0|0:0,0:0:0:0:
224,101,58097,1,14,0:0:0:0:
34,150,58414,5,12,0:0:0:0:
130,48,58731,2,0,L|61:26,2,70,2|12|6,0:0|0:0|0:0,0:0:0:0:
199,58,59207,1,8,0:0:0:0:
268,46,59366,2,0,L|340:34,1,70,2|8,0:0|0:0,0:0:0:0:
407,42,59683,1,2,0:0:0:0:
463,84,59842,1,8,0:0:0:0:
485,150,60000,1,8,0:0:0:0:
492,220,60159,1,8,0:0:0:0:
473,287,60317,1,12,0:0:0:0:
167,304,61585,6,0,B|208:290|215:253,1,70,2|8,0:0|0:0,0:0:0:0:
231,188,61902,1,8,0:0:0:0:
225,118,62061,2,0,B|219:75|180:67,1,70,2|8,0:0|0:0,0:0:0:0:
117,42,62378,1,8,0:0:0:0:
50,63,62537,1,2,0:0:0:0:
44,176,62854,5,8,0:0:0:0:
162,249,63171,2,0,B|129:272|123:306|123:306|86:296|51:311,1,140,6|8,0:0|0:0,0:0:0:0:
44,176,63806,2,0,B|77:153|83:119|83:119|120:129|155:114,1,140,6|8,0:0|0:0,0:0:0:0:
264,20,64440,1,6,0:0:0:0:
264,20,64757,2,0,B|263:79|263:79|299:105|303:146,2,140,12|6|8,0:0|0:0|0:0,0:0:0:0:
476,72,65709,6,0,B|477:131|477:131|441:157|437:198,1,140,6|8,0:0|0:0,0:0:0:0:
380,352,66343,2,0,P|415:293|481:288,1,140,6|8,0:0|0:0,0:0:0:0:
324,244,66977,1,6,0:0:0:0:
324,244,67295,2,0,P|268:200|196:220,2,140,12|6|12,0:0|0:0|0:0,0:0:0:0:
101,293,68246,6,0,P|153:345|221:345,2,140,14|12|14,0:0|0:0|0:0,0:0:0:0:
42,165,69198,1,12,0:0:0:0:
181,153,69515,1,14,0:0:0:0:
98,40,69832,1,12,0:0:0:0:
237,23,70149,1,14,0:0:0:0:
273,158,70466,6,0,P|297:230|261:286,1,140,12|14,0:0|0:0,0:0:0:0:
464,325,71101,2,0,P|394:310|338:342,1,140,12|14,0:0|0:0,0:0:0:0:
256,192,71735,12,12,73004,0:0:0:0:
64,256,73321,6,0,P|106:313|170:335,1,140,6|8,0:0|0:0,0:0:0:0:
187,196,73955,2,0,P|251:221|290:278,1,140,6|8,0:0|0:0,0:0:0:0:
337,146,74590,1,6,0:0:0:0:
337,146,74907,2,0,B|300:99|300:99|315:57|281:19,2,140,12|6|8,0:0|0:0|0:0,0:0:0:0:
440,264,75858,6,0,B|477:217|477:217|462:175|496:137,1,140,6|8,0:0|0:0,0:0:0:0:
250,326,76493,2,0,P|277:254|330:228,1,140,6|8,0:0|0:0,0:0:0:0:
133,72,77127,1,6,0:0:0:0:
133,72,77444,2,0,P|197:60|253:104,2,140,12|6|12,0:0|0:0|0:0,0:0:0:0:
65,316,78396,6,0,P|67:253|119:201,2,140,14|12|14,0:0|0:0|0:0,0:0:0:0:
204,329,79348,1,12,0:0:0:0:
249,196,79665,1,14,0:0:0:0:
327,80,79982,1,12,0:0:0:0:
462,44,80299,1,14,0:0:0:0:
477,307,80616,6,0,B|433:341|386:312|386:312|336:318,1,140,10|10,0:0|0:0,0:0:0:0:
204,329,81251,1,8,0:0:0:0:
85,254,81568,1,8,0:0:0:0:
256,192,81885,12,4,83154,0:0:0:0:
204,96,86008,5,14,0:0:0:0:
352,140,86325,1,12,0:0:0:0:
308,288,86643,1,14,0:0:0:0:
160,244,86960,1,12,0:0:0:0:
408,228,87277,6,0,P|436:176|412:88,1,140,14|12,0:0|0:0,0:0:0:0:
305,20,87911,1,14,0:0:0:0:
165,26,88228,1,12,0:0:0:0:
46,101,88546,1,14,0:0:0:0:
31,240,88863,1,10,0:0:0:0:
76,372,89180,2,0,B|97:348|134:345|134:345|142:305|166:280,1,140,14|12,0:0|0:0,0:0:0:0:
31,240,89814,5,14,0:0:0:0:
46,101,90131,1,12,0:0:0:0:
165,26,90449,1,14,0:0:0:0:
305,20,90766,1,14,0:0:0:0:
435,71,91083,6,0,P|415:159|419:219,1,140,14|12,0:0|0:0,0:0:0:0:
367,339,91717,1,14,0:0:0:0:
298,216,92035,1,12,0:0:0:0:
201,317,92352,1,14,0:0:0:0:
152,185,92669,1,12,0:0:0:0:
43,272,92986,1,14,0:0:0:0:
43,272,93145,1,10,0:0:0:0:
43,272,93303,1,12,0:0:0:0:
36,131,93621,6,0,P|60:67|136:39,1,140,14|12,0:0|0:0,0:0:0:0:
256,78,94255,1,12,0:0:0:0:
391,39,94572,1,12,0:0:0:0:
474,150,94889,5,14,0:0:0:0:
474,150,95048,1,8,0:0:0:0:
474,150,95206,1,12,0:0:0:0:
410,275,95524,2,0,P|359:235|282:239,2,140,14|12|14,0:0|0:0|0:0,0:0:0:0:
410,275,96475,5,12,0:0:0:0:
281,323,96792,2,0,P|242:326|209:313,1,70,2|2,0:0|0:0,0:0:0:0:
145,295,97110,1,8,0:0:0:0:
75,303,97268,1,2,0:0:0:0:
12,335,97427,1,2,0:0:0:0:
29,196,97744,6,0,P|49:175|89:160,1,70,8|8,0:0|0:0,0:0:0:0:
154,140,98061,1,8,0:0:0:0:
224,133,98220,1,8,0:0:0:0:
291,153,98378,1,8,0:0:0:0:
351,277,98695,6,0,P|403:249|419:169,1,140,6|8,0:0|0:0,0:0:0:0:
288,60,99329,2,0,P|220:28|140:36,1,140,6|8,0:0|0:0,0:0:0:0:
194,165,99963,2,0,P|115:167|59:199,1,140,6|12,0:0|0:0,0:0:0:0:
155,300,100598,2,0,P|115:316|91:336,1,70,6|8,0:0|0:0,0:0:0:0:
41,379,100915,1,8,0:0:0:0:
230,343,101232,6,0,P|298:375|378:367,1,140,6|8,0:0|0:0,0:0:0:0:
325,237,101866,2,0,P|399:247|473:216,1,140,6|8,0:0|0:0,0:0:0:0:
383,112,102500,2,0,P|459:94|508:52,1,140,6|12,0:0|0:0,0:0:0:0:
323,44,103135,2,0,P|283:49|259:68,1,70,6|8,0:0|0:0,0:0:0:0:
211,117,103452,1,12,0:0:0:0:
341,182,103770,6,0,B|368:213|368:213|336:253|350:306,1,140,14|12,0:0|0:0,0:0:0:0:
170,181,104404,1,14,0:0:0:0:
171,182,104563,2,0,B|144:213|144:213|176:253|162:306,1,140,8|8,0:0|0:0,0:0:0:0:
92,300,105038,2,0,P|65:280|57:246,1,70,14|8,0:0|0:0,0:0:0:0:
41,176,105356,2,0,P|48:144|38:100,1,70,8|8,0:0|0:0,0:0:0:0:
31,38,105673,2,0,P|66:23|106:36,1,70,14|8,0:0|0:0,0:0:0:0:
161,61,105990,6,0,P|289:89|429:29,1,280,12|12,0:0|0:0,0:0:0:0:
402,172,106941,2,0,P|319:169|274:200,1,140,14|12,0:0|0:0,0:0:0:0:
198,318,107576,5,2,0:0:0:0:
255,358,107734,1,2,0:0:0:0:
324,370,107893,1,2,0:0:0:0:
392,352,108052,1,8,0:0:0:0:
445,307,108210,1,8,0:0:0:0:
465,240,108369,2,0,P|457:212|476:178,1,70,8|8,0:0|0:0,0:0:0:0:
350,70,108845,6,0,P|330:138|266:150,1,140,6|8,0:0|0:0,0:0:0:0:
68,77,109479,2,0,P|115:47|191:71,1,140,6|8,0:0|0:0,0:0:0:0:
386,243,110113,2,0,P|316:223|260:257,1,140,6|12,0:0|0:0,0:0:0:0:
55,225,110748,2,0,P|98:225|125:212,1,70,6|8,0:0|0:0,0:0:0:0:
182,178,111065,1,8,0:0:0:0:
441,242,111382,6,0,P|405:293|332:308,1,140,6|8,0:0|0:0,0:0:0:0:
342,72,112016,2,0,P|368:129|344:200,1,140,6|8,0:0|0:0,0:0:0:0:
137,73,112651,2,0,P|198:79|248:136,1,140,6|12,0:0|0:0,0:0:0:0:
37,247,113285,2,0,P|55:222|91:207,1,70,6|8,0:0|0:0,0:0:0:0:
156,183,113602,1,12,0:0:0:0:
136,327,113919,5,14,0:0:0:0:
254,251,114237,2,0,P|322:223|386:231,1,140,12|14,0:0|0:0,0:0:0:0:
453,252,114712,1,8,0:0:0:0:
487,313,114871,2,0,P|452:335|413:335,1,70,12|8,0:0|0:0,0:0:0:0:
355,347,115188,2,0,P|313:350|281:330,1,70,14|8,0:0|0:0,0:0:0:0:
220,325,115505,2,0,P|179:325|147:344,1,70,12|8,0:0|0:0,0:0:0:0:
83,344,115823,2,0,P|48:340|12:313,1,70,14|8,0:0|0:0,0:0:0:0:
8,250,116140,6,0,P|20:186|76:134,1,140,12|10,0:0|0:0,0:0:0:0:
133,100,116616,1,10,0:0:0:0:
201,85,116774,1,8,0:0:0:0:
271,81,116933,1,8,0:0:0:0:
340,92,117091,1,8,0:0:0:0:
406,116,117250,1,8,0:0:0:0:
256,192,117409,12,4,118677,0:0:0:0:
40,223,119946,5,12,0:0:0:0:
94,93,120263,2,0,P|134:57|226:65,1,140,6|12,0:0|0:0,0:0:0:0:
347,109,120898,1,6,0:0:0:0:
452,201,121215,6,0,P|453:274|394:318,1,140,12|6,0:0|0:0,0:0:0:0:
275,366,121849,1,12,0:0:0:0:
147,307,122166,1,6,0:0:0:0:
76,185,122483,2,0,P|18:230|8:297,2,140,12|6|12,0:0|0:0|0:0,0:0:0:0:
215,167,123435,1,4,0:0:0:0:
169,34,123752,6,0,B|217:21|217:21|251:56|301:54,2,140,12|6|12,0:0|0:0|0:0,0:0:0:0:
38,84,124704,1,6,0:0:0:0:
21,222,125021,2,0,P|60:222|98:209,1,70,12|8,0:0|0:0,0:0:0:0:
161,200,125338,2,0,P|200:175|235:175,1,70,6|8,0:0|0:0,0:0:0:0:
292,176,125655,2,0,P|333:176|362:151,1,70,12|8,0:0|0:0,0:0:0:0:
415,122,125972,2,0,P|483:146|495:206,1,140,6|10,0:0|0:0,0:0:0:0:
256,192,126607,12,12,128827,0:0:0:0:
117,206,129144,5,6,0:0:0:0:
217,303,129461,1,8,0:0:0:0:
354,331,129779,1,6,0:0:0:0:
488,293,130096,2,0,P|492:225|440:169,1,140,12|6,0:0|0:0,0:0:0:0:
386,138,130572,2,0,P|350:121|308:128,1,70,8|12,0:0|0:0,0:0:0:0:
248,242,131047,2,0,P|205:237|174:219,1,70,6|8,0:0|0:0,0:0:0:0:
118,194,131365,6,0,P|70:117|96:56,2,140,12|6|12,0:0|0:0|0:0,0:0:0:0:
221,99,132316,1,6,0:0:0:0:
344,32,132633,2,0,P|376:108|334:166,2,140,12|6|12,0:0|0:0|0:0,0:0:0:0:
221,99,133585,1,6,0:0:0:0:
48,192,133902,6,0,P|152:340|256:192,1,420,12|2,0:0|0:0,0:0:0:0:
152,196,135171,2,0,P|256:344|360:196,1,420,12|2,0:0|0:0,0:0:0:0:
256,192,136440,2,0,P|360:340|464:192,1,420,12|2,0:0|0:0,0:0:0:0:
448,56,137708,2,0,P|380:52|312:76,1,140,12|2,0:0|0:0,0:0:0:0:
244,90,138184,2,0,P|144:110|48:70,1,210,8|2,0:0|0:0,0:0:0:0:
256,192,138818,12,8,141197,0:0:0:0:
60,192,141514,5,14,0:0:0:0:
132,312,141832,1,8,0:0:0:0:
197,186,142149,1,2,0:0:0:0:
288,296,142466,2,0,B|284:240|284:240|315:186|283:127,1,175,8|2,0:0|0:0,0:0:0:0:
412,60,143100,1,8,0:0:0:0:
464,192,143418,1,8,0:0:0:0:
412,324,143735,2,0,L|392:376,4,43.75,8|2|2|2|8,0:0|0:0|0:0|0:0|0:0,0:0:0:0:
464,192,144369,5,8,0:0:0:0:
412,60,144686,1,2,0:0:0:0:
272,48,145003,2,0,B|200:64|200:64|136:36|100:72,1,175,8|2,0:0|0:0,0:0:0:0:
48,192,145638,1,8,0:0:0:0:
100,324,145955,1,2,0:0:0:0:
220,252,146272,2,0,L|220:208,4,43.75,8|2|2|2|2,0:0|0:0|0:0|0:0|0:0,0:0:0:0:
220,112,146907,5,2,0:0:0:0:
352,64,147224,1,2,0:0:0:0:
460,152,147541,2,0,B|424:208|424:208|444:284|412:320,1,175,8|2,0:0|0:0,0:0:0:0:
288,256,148175,1,8,0:0:0:0:
192,360,148492,2,0,B|164:352|144:336|144:336|48:336|36:284,1,175,8|8,0:0|0:0,0:0:0:0:
136,192,149127,6,0,B|160:160|160:160|240:176|280:116,1,175,8|2,0:0|0:0,0:0:0:0:
388,28,149761,1,2,0:0:0:0:
248,32,150078,2,0,L|204:28,4,43.75,8|8|8|8|8,0:0|0:0|0:0|0:0|0:0,0:0:0:0:
89,108,150713,1,8,0:0:0:0:
64,281,151030,2,0,B|124:273|164:233|164:233|232:245,1,175,8|2,0:0|0:0,0:0:0:0:
390,300,151664,5,2,0:0:0:0:
393,145,151823,1,2,0:0:0:0:
312,216,151981,1,2,0:0:0:0:
475,221,152140,1,2,0:0:0:0:
239,104,152616,5,8,0:0:0:0:
85,84,152775,1,8,0:0:0:0:
147,172,152933,1,8,0:0:0:0:
173,20,153092,1,8,0:0:0:0:
55,240,153567,5,2,0:0:0:0:
209,260,153726,1,2,0:0:0:0:
125,332,153884,1,2,0:0:0:0:
147,172,154043,1,2,0:0:0:0:
329,135,154519,5,12,0:0:0:0:
474,80,154678,1,12,0:0:0:0:
378,32,154836,1,12,0:0:0:0:
434,184,154995,1,12,0:0:0:0:
