osu file format v9

[General]
AudioFilename: Nightwish - 03 - Come Cover Me.mp3
AudioLeadIn: 0
PreviewTime: 210356
Countdown: 0
SampleSet: Normal
StackLeniency: 0.4
Mode: 0
LetterboxInBreaks: 0

[Editor]
Bookmarks: 38960,65468,135667
DistanceSpacing: 1
BeatDivisor: 4
GridSize: 16

[Metadata]
Title:Come Cover Me
Artist:Nightwish
Creator:Shiro
Version:Insane
Source:
Tags:Odaril grumd The Wishmaster scalone Barney Stinson LRJ _LRJ_ CCM tarja Turunen Tuomas Holopainen Emppu Vuorinen jukka nevalainen sami vanska

[Difficulty]
HPDrainRate:7
CircleSize:4
OverallDifficulty:8
ApproachRate:8
SliderMultiplier:1.84
SliderTickRate:2

[Events]
//Background and Video events
0,0,"bg.jpg"
//Break Periods
2,130770,143072
//Storyboard Layer 0 (Background)
Sprite,Background,Centre,"bg.jpg",320,240 S,0,-632,,1,0.8 M,0,-631,249123,320,240 F,0,210353,,1,0 F,0,221783,,0,1
//Storyboard Layer 1 (Fail)
//Storyboard Layer 2 (Pass)
//Storyboard Layer 3 (Foreground)
Sprite,Foreground,Centre,"bg_mono.jpg",320,240 F,0,209945,,0,1 S,0,209945,,1,0.8 F,0,209945,210356,0,1 M,0,209945,223416,320,240
Sprite,Foreground,Centre,"bg_green.jpg",320,240 S,0,216786,,1,0.8 F,0,216786,216886,0,1 M,0,216786,218518,320,240 F,0,217294,218518,1,0
Sprite,Foreground,Centre,"bg_red.jpg",320,240 S,0,218417,,1,0.8 F,0,218417,218517,0,1 M,0,218417,220151,320,240 F,0,218926,220151,1,0
Sprite,Foreground,Centre,"bg_blue.jpg",320,240 S,0,220050,,1,0.8 F,0,220050,220150,0,1 M,0,220050,221783,320,240 F,0,220559,221783,1,0
//Storyboard Sound Samples
//Background Colour Transformations
3,100,0,0,0

[TimingPoints]
180,408.135500986327,4,2,1,30,1,0
39343,408.107740443477,4,1,2,80,1,0
39445,-100,4,1,1,80,0,0
40057,-100,4,1,2,80,0,0
40261,-100,4,1,1,80,0,0
40873,-100,4,1,2,80,0,0
41077,-100,4,1,1,80,0,0
41689,-100,4,1,2,80,0,0
42097,-100,4,1,1,80,0,0
42506,-100,4,1,2,80,0,0
42710,-100,4,1,1,80,0,0
43322,-100,4,1,2,80,0,0
43730,-100,4,1,1,80,0,0
44138,-100,4,1,2,80,0,0
44342,-100,4,1,1,80,0,0
44954,-100,4,1,2,80,0,0
45362,-100,4,1,1,80,0,0
45771,-100,4,1,2,80,0,0
45975,-100,4,1,1,80,0,0
46587,-100,4,1,2,80,0,0
46995,-100,4,1,1,80,0,0
47403,-100,4,1,2,80,0,0
47607,-100,4,1,1,80,0,0
48219,-100,4,1,2,80,0,0
48628,-100,4,1,1,80,0,0
49036,-100,4,1,2,80,0,0
49240,-100,4,1,1,80,0,0
49852,-100,4,1,2,80,0,0
50260,-100,4,1,1,80,0,0
50668,-100,4,1,2,80,0,0
50872,-100,4,1,1,80,0,0
51485,-100,4,1,2,80,0,0
51893,-100,4,1,1,80,0,0
52301,-100,4,1,2,80,0,0
52505,-100,4,1,1,80,0,0
53117,-100,4,1,2,80,0,0
53321,-100,4,1,1,80,0,0
53933,-100,4,1,2,80,0,0
54137,-100,4,1,1,80,0,0
54750,-100,4,1,2,80,0,0
55158,-100,4,1,1,80,0,0
55566,-100,4,1,2,80,0,0
55770,-100,4,1,1,80,0,0
56382,-100,4,1,2,80,0,0
56790,-100,4,1,1,80,0,0
57198,-100,4,1,2,80,0,0
57402,-100,4,1,1,80,0,0
58015,-100,4,1,2,80,0,0
58423,-100,4,1,1,80,0,0
58831,-100,4,1,2,80,0,0
59035,-100,4,1,1,80,0,0
59647,-100,4,1,2,80,0,0
60055,-100,4,1,1,80,0,0
60464,-100,4,1,2,80,0,0
60668,-100,4,1,1,80,0,0
61280,-100,4,1,2,80,0,0
61688,-100,4,1,1,80,0,0
62096,-100,4,1,2,80,0,0
62300,-100,4,1,1,80,0,0
62912,-100,4,1,2,80,0,0
63320,-100,4,1,1,80,0,0
63729,-100,4,1,2,80,0,0
63933,-100,4,1,1,80,0,0
64341,-100,4,1,2,80,0,0
65361,-100,4,2,1,80,0,0
89849,-100,4,1,2,80,0,0
90053,-100,4,2,1,80,0,0
90461,-100,4,1,2,80,0,0
90666,-100,4,2,1,80,0,0
91074,-100,4,1,2,80,0,0
91278,-100,4,2,1,80,0,0
92910,-100,4,1,2,80,0,0
93318,-100,4,2,1,80,0,0
94543,-100,4,1,2,80,0,0
94951,-100,4,2,1,80,0,0
96175,-100,4,1,2,80,0,0
96788,-100,4,2,1,80,0,0
96992,-100,4,1,2,80,0,0
97196,-100,4,2,1,80,0,0
97604,-100,4,1,2,80,0,0
98216,-100,4,2,1,80,0,0
99440,-100,4,1,2,80,0,0
99849,-100,4,2,1,80,0,0
101073,-100,4,1,2,80,0,0
101481,-100,4,2,1,80,0,0
101889,-100,4,1,2,100,0,0
102297,-100,4,2,1,80,0,0
102501,-100,4,1,2,100,0,0
102706,-100,4,2,1,80,0,0
104338,-100,4,2,2,80,0,0
104644,-100,4,1,2,80,0,0
104746,-100,4,1,1,80,0,0
105358,-100,4,1,2,80,0,0
105767,-100,4,1,1,80,0,0
106175,-100,4,1,2,80,0,0
106371,-100,4,1,1,80,0,0
106991,-100,4,1,2,80,0,0
107399,-100,4,1,1,80,0,0
107807,-100,4,1,2,80,0,0
108011,-100,4,1,1,80,0,0
108624,-100,4,1,2,80,0,0
108930,-100,4,1,1,80,0,0
109440,-100,4,1,2,80,0,0
109644,-100,4,1,1,80,0,0
110256,-100,4,1,2,80,0,0
110664,-100,4,1,1,80,0,0
111072,-100,4,1,2,80,0,0
111276,-100,4,1,1,80,0,0
111889,-100,4,1,2,80,0,0
112297,-100,4,1,1,80,0,0
112705,-100,4,1,2,80,0,0
112909,-100,4,1,1,80,0,0
113521,-100,4,1,2,80,0,0
113929,-100,4,1,1,80,0,0
114337,-100,4,1,2,80,0,0
114541,-100,4,1,1,80,0,0
115154,-100,4,1,2,80,0,0
115562,-100,4,1,1,80,0,0
115970,-100,4,1,2,80,0,0
116174,-100,4,1,1,80,0,0
116786,-100,4,1,2,80,0,0
117194,-100,4,1,1,80,0,0
117602,-100,4,1,2,80,0,0
117807,-100,4,1,1,80,0,0
118419,-100,4,1,2,80,0,0
118827,-100,4,1,1,80,0,0
119235,-100,4,1,2,80,0,0
119439,-100,4,1,1,80,0,0
120051,-100,4,1,2,80,0,0
120459,-100,4,1,1,80,0,0
120868,-100,4,1,2,80,0,0
121072,-100,4,1,1,80,0,0
121684,-100,4,1,2,80,0,0
122092,-100,4,1,1,80,0,0
122500,-100,4,1,2,80,0,0
122704,-100,4,1,1,80,0,0
123316,-100,4,1,2,80,0,0
123725,-100,4,1,1,80,0,0
124337,-100,4,1,1,80,0,0
124949,-100,4,1,2,80,0,0
125357,-100,4,1,1,80,0,0
125765,-100,4,1,2,80,0,0
125969,-100,4,1,1,80,0,0
126581,-100,4,1,2,80,0,0
126990,-100,4,1,1,80,0,0
143417,-100,4,2,1,80,0,0
143822,408.107740443477,4,2,1,80,1,0
168206,-100,4,1,2,80,0,0
168410,-100,4,1,2,75,0,0
168614,-100,4,1,2,70,0,0
168818,-100,4,1,2,65,0,0
169023,-100,4,1,2,60,0,0
169227,-100,4,1,2,55,0,0
169431,-100,4,1,2,80,0,0
171063,-100,4,2,1,80,0,0
171175,408.107740443477,4,2,1,80,1,0
195561,-100,4,1,2,80,0,0
195765,-100,4,2,1,80,0,0
196173,-100,4,1,2,80,0,0
196377,-100,4,2,1,80,0,0
196785,-100,4,1,2,80,0,0
196989,-100,4,2,1,80,0,0
197193,-100,4,1,2,80,0,0
197397,-100,4,2,1,80,0,0
198622,-100,4,1,2,80,0,0
199030,-100,4,2,1,80,0,0
200254,-100,4,1,2,80,0,0
200662,-100,4,2,1,80,0,0
201887,-100,4,1,2,80,0,0
202499,-100,4,2,1,80,0,0
202703,-100,4,1,2,80,0,0
202907,-100,4,2,1,80,0,0
203315,-100,4,1,2,80,0,0
203927,-100,4,2,1,80,0,0
204948,-100,4,1,2,80,0,0
205560,-100,4,2,1,80,0,0
206580,-100,4,1,2,80,0,0
207192,-100,4,2,1,80,0,0
207601,-100,4,1,2,100,0,0
208009,-100,4,2,1,80,0,0
208213,-100,4,1,2,100,0,0
208417,-100,4,2,1,80,0,0
208825,-100,4,1,2,100,0,0
209233,-100,4,1,2,80,0,0
209437,-100,4,2,1,80,0,0
210353,-133.333333333333,4,2,1,80,0,0
216784,-100,4,1,2,80,0,0
216988,-133.333333333333,4,2,1,70,0,0
218416,-100,4,1,2,80,0,0
218620,-133.333333333333,4,2,1,70,0,0
220049,-100,4,1,2,80,0,0
220253,-133.333333333333,4,2,1,70,0,0
221987,-125,4,1,2,75,0,0
222191,-117.647058823529,4,1,2,75,0,0
222396,-111.111111111111,4,1,2,80,0,0
222600,-105.263157894737,4,1,2,80,0,0
222804,-100,4,1,2,85,0,0
223008,-95.2380952380952,4,1,2,85,0,0
223212,-90.9090909090909,4,1,2,90,0,0
223407,408.107740443477,4,1,2,90,1,0
223407,-86.9565217391304,4,1,2,90,0,0
223717,-86.9565217391304,4,1,1,90,0,0
224125,-86.9565217391304,4,1,2,90,0,0
224533,-86.9565217391304,4,1,1,90,0,0
224941,-86.9565217391304,4,1,2,90,0,0
225145,-86.9565217391304,4,1,1,90,0,0
225758,-86.9565217391304,4,1,2,90,0,0
226166,-86.9565217391304,4,1,1,90,0,0
226574,-86.9565217391304,4,1,2,90,0,0
226778,-86.9565217391304,4,1,1,90,0,0
227390,-86.9565217391304,4,1,2,90,0,0
227798,-86.9565217391304,4,1,1,90,0,0
228206,-86.9565217391304,4,1,2,90,0,0
228411,-86.9565217391304,4,1,1,90,0,0
229023,-86.9565217391304,4,1,2,90,0,0
229431,-86.9565217391304,4,1,1,90,0,0
229839,-86.9565217391304,4,1,2,90,0,0
230043,-86.9565217391304,4,1,1,90,0,0
230655,-86.9565217391304,4,1,2,90,0,0
231063,-86.9565217391304,4,1,1,90,0,0
231472,-86.9565217391304,4,1,2,90,0,0
231676,-86.9565217391304,4,1,1,90,0,0
232288,-86.9565217391304,4,1,2,90,0,0
232696,-86.9565217391304,4,1,1,90,0,0
236369,-86.9565217391304,4,1,2,90,0,0
236573,-86.9565217391304,4,1,1,90,0,0
237185,-86.9565217391304,4,1,2,90,0,0
237594,-86.9565217391304,4,1,1,90,0,0
238002,-86.9565217391304,4,1,2,90,0,0
238206,-86.9565217391304,4,1,1,90,0,0
238818,-86.9565217391304,4,1,2,90,0,0
239226,-86.9565217391304,4,1,1,90,0,0
239634,-86.9565217391304,4,1,2,90,0,0
239838,-86.9565217391304,4,1,1,90,0,0
240451,-86.9565217391304,4,1,2,90,0,0
240859,-86.9565217391304,4,1,1,90,0,0
241267,-86.9565217391304,4,1,2,90,0,0
241471,-86.9565217391304,4,1,1,90,0,0
242083,-86.9565217391304,4,1,2,90,0,0
242491,-86.9565217391304,4,1,1,90,0,0
242899,-86.9565217391304,4,1,2,90,0,0
242996,-133.333333333333,4,1,2,90,0,0
243103,-133.333333333333,4,1,1,90,0,0
244124,-133.333333333333,4,1,2,90,0,0
244736,-133.333333333333,4,1,1,90,0,0
245348,-133.333333333333,4,1,2,90,0,0
246368,-133.333333333333,4,1,1,90,0,0
247389,-133.333333333333,4,1,1,90,0,0
247491,-133.333333333333,4,1,1,85,0,0
247593,-133.333333333333,4,1,1,80,0,0
247695,-133.333333333333,4,1,1,75,0,0
247797,-133.333333333333,4,1,1,70,0,0
247899,-133.333333333333,4,1,1,65,0,0
248001,-133.333333333333,4,1,1,60,0,0
248103,-133.333333333333,4,1,1,55,0,0
248205,-133.333333333333,4,1,1,50,0,0
248307,-133.333333333333,4,1,1,45,0,0
248409,-133.333333333333,4,1,1,40,0,0
248511,-133.333333333333,4,1,1,35,0,0
248613,-133.333333333333,4,1,1,30,0,0
248715,-133.333333333333,4,1,1,25,0,0
248817,-133.333333333333,4,1,1,20,0,0
248919,-133.333333333333,4,1,1,15,0,0
249021,-133.333333333333,4,1,1,10,0,0
249123,-133.333333333333,4,2,1,5,0,0

[Colours]
Combo1 : 180,180,180
Combo2 : 96,157,55
Combo3 : 157,55,55
Combo4 : 63,55,157
Combo5 : 140,140,140

[HitObjects]
377,100,39343,6,2,B|424:120|462:87,2,92,6|0|8
289,70,39955,1,0
197,56,40159,2,0,B|86:70|88:182,1,184,0|10
128,261,40771,1,0
56,318,40975,2,2,B|119:244|217:242,1,184,2|8
309,244,41587,1,0
400,248,41791,2,0,B|427:292|399:335,2,92,0|0|10
358,165,42403,1,2
266,162,42607,6,2,B|212:190|162:124|212:62|266:87,1,184,2|8
358,94,43220,1,0
442,128,43424,2,2,B|494:136|504:188,1,92,2|0
469,320,43832,2,2,B|417:312|407:260,1,92,10|0
323,151,44240,2,2,B|235:111|144:152,1,184,2|8
99,231,44852,1,0
190,219,45056,2,0,B|233:201|281:219,1,92
372,219,45464,1,10
396,130,45668,1,2
242,33,45872,6,2,B|136:47|105:140,1,184,6|8
128,228,46484,1,0
188,297,46688,2,0,B|224:323|275:317,1,92
366,307,47097,2,2,B|418:304|437:257,1,92,10|0
263,196,47505,38,2,B|160:172|160:62,1,184,6|8
250,46,48117,2,0,B|252:100|303:112,1,92
341,28,48525,1,0
427,58,48729,1,10
490,124,48933,1,0
450,303,49137,5,14
387,237,49341,1,0
300,206,49545,2,2,B|209:169|120:208,1,184,10|0
82,290,50157,1,0
172,271,50361,2,0,B|237:192|195:99,1,184,8|0
106,73,50974,1,0
123,164,51178,2,0,B|209:214|299:162,1,184,8|0
380,120,51790,1,0
471,111,51994,2,0,B|510:142|506:192,1,92,8|8
385,330,52402,6,2,B|296:363|205:332,1,184,6|8
119,296,53014,1,0
198,250,53218,2,0,B|290:292|379:250,1,184,0|10
455,203,53830,1,0
475,113,54034,2,2,B|504:71|459:0|381:34|383:84,1,184,2|8
348,170,54647,1,0
296,246,54851,2,0,B|255:263|207:265,1,92
118,236,55259,1,10
53,169,55463,1,2
209,71,55667,38,2,B|301:95|391:72,1,184,2|8
479,47,56279,1,0
474,138,56483,2,2,B|475:192|427:213,1,92,2|0
302,157,56891,2,2,B|270:199|300:245,1,92,10|0
391,344,57299,2,2,B|353:399|263:392|237:333,1,184,2|8
183,260,57911,1,0
258,206,58115,2,0,B|264:151|224:124,1,92
161,58,58524,1,10
73,86,58728,1,2
88,269,58932,6,2,B|184:265|262:203,1,184,6|8
332,153,59544,1,0
401,92,59748,2,0,B|444:71|491:80,1,92
456,165,60156,2,0,B|463:212|435:253,1,92,10|2
258,207,60564,6,2,B|171:169|78:204,1,184,6|8
21,275,61176,1,0
109,300,61380,2,0,B|153:312|201:305,1,92
290,287,61788,1,10
346,214,61992,1,0
439,55,62197,38,2,B|400:17|352:34,1,92,6|0
376,120,62605,2,2,B|283:149|196:104,1,184,10|0
146,28,63217,1,0
235,55,63421,2,0,B|312:125|284:222,1,184,8|0
235,299,64033,1,0
215,311,64135,1,8
192,315,64237,1,8
101,296,64441,5,0
26,242,64645,1,0
135,226,64849,1,0
27,155,65053,1,0
174,151,65257,1,0
30,69,65461,6,0,B|68:42|116:40,1,92,6|0
207,43,65870,1,8
288,85,66074,1,0
379,72,66278,2,0,B|410:108|411:155,1,92
389,245,66686,1,8
319,305,66890,1,0
298,215,67094,38,0,B|265:176|219:176,1,92,2|0
136,219,67502,2,0,B|161:262|215:255,1,92,8|0
298,215,67910,2,0,B|331:179|379:171,1,92,2|0
464,199,68318,2,0,B|436:245|386:245,1,92,8|0
298,215,68726,1,2
236,146,68930,1,0
268,59,69134,2,0,B|315:77|326:124,1,92,8|0
298,215,69542,1,2
244,289,69747,1,0
153,275,69951,2,0,B|160:223|206:204,1,92,8|0
298,215,70359,6,0,B|404:225|447:130,1,184,2|8
431,40,70971,1,0
339,36,71175,2,0,B|286:44|269:89,1,92,2|0
345,141,71583,2,0,B|343:191|298:215,1,92,10|0
178,76,71991,6,0,B|115:152|145:252,1,184,6|8
215,307,72603,1,0
306,309,72807,2,0,B|353:316|380:268,1,92,2|0
436,194,73215,1,10
457,104,73419,1,0
332,239,73624,38,0,B|282:270|200:264|159:229,1,184,6|8
113,148,74236,2,0,B|90:102|116:58,2,92,2|0|0
166,323,74848,6,0,B|231:340|293:334|347:304,1,184,10|4
424,246,75460,1,0
404,155,75664,1,10
491,183,75868,1,0
424,246,76072,1,0
336,217,76276,1,2
404,155,76480,1,8
316,127,76684,1,2
248,189,76888,5,0
182,253,77092,2,0,B|144:285|149:334,2,92,0|10|0
248,189,77705,1,0
110,173,77909,1,8
114,177,78113,1,8
147,91,78317,1,0
281,60,78521,38,0,B|384:58|434:146,1,184,6|8
439,236,79133,1,0
389,312,79337,2,0,B|349:344|300:328,1,92
331,241,79745,2,0,B|281:226|245:256,1,92,10|0
160,293,80153,6,0,B|94:224|125:121,1,184,2|8
214,102,80765,1,0
207,194,80969,2,0,B|117:230|24:198,1,184,2|10
50,109,81582,1,0
131,64,81786,2,0,B|232:82|264:180,1,184,2|8
204,247,82398,1,0
154,169,82602,2,0,B|198:84|302:69,1,184,2|8
336,153,83214,1,0
414,201,83418,6,0,B|370:286|266:301,1,184,2|8
184,261,84030,1,0
112,203,84234,2,0,B|70:176|77:124,1,92,2|0
169,131,84642,2,0,B|171:80|211:52,1,92,10|0
391,85,85051,38,0,B|307:144|318:245,1,184,6|8
371,318,85663,2,0,B|412:342|462:327,2,92,0|2|0
279,305,86275,2,0,B|232:287|187:307,1,92,10|0
13,351,86683,6,0,B|101:314|116:208,1,184,6|8
131,118,87295,2,0,B|163:25|271:16,1,184,2|0
362,24,87907,2,0,B|413:28|436:73,1,92,10|0
466,158,88315,5,4
416,235,88519,1,0
373,153,88724,1,10
466,158,88928,1,0
508,239,89132,1,0
459,317,89336,1,2
416,235,89540,1,8
367,312,89744,1,2
323,230,89948,37,0
274,308,90152,1,0
239,203,90356,1,0
186,321,90560,1,0
158,176,90764,1,0
186,321,90968,1,0
239,203,91172,1,0
274,308,91376,1,0
323,230,91580,6,0,B|361:198|371:152,1,92,6|0
359,62,91988,1,0
239,203,92192,2,0,B|275:172|292:125,1,92,2|8
274,36,92601,1,2
185,62,92805,1,0
188,66,93009,1,0
114,124,93213,6,0,B|152:157|164:199,1,92,4|0
174,291,93621,1,0
30,175,93825,2,0,B|78:191|92:238,1,92,2|8
108,328,94233,1,2
194,357,94437,1,0
197,361,94641,1,0
255,290,94845,38,0,B|268:238|316:223,1,92,6|0
372,153,95253,1,0
370,336,95457,2,0,B|414:314|417:262,1,92,2|8
490,93,95865,2,0,B|445:104|395:83,1,92,10|0
226,25,96274,1,2
187,108,96478,5,4
20,188,96682,2,0,B|24:233|78:252,1,92,2|0
237,346,97090,2,0,B|248:302|296:281,1,92,2|8
479,255,97498,2,0,B|434:238|409:198,1,92,10|0
337,141,97906,1,0
310,52,98110,6,0,B|268:26|223:51,1,92,6|0
130,53,98518,1,0
272,169,98722,2,0,B|225:196|186:172,1,92,2|8
94,155,99130,1,2
106,246,99334,1,0
109,250,99538,1,0
280,318,99742,38,0,B|322:337|372:319,1,92,6|0
417,241,100151,1,0
234,243,100355,2,0,B|278:219|323:243,1,92,2|8
417,241,100763,1,2
434,156,100967,1,0
437,161,101171,1,0
359,112,101375,5,14
267,109,101579,1,0
345,186,101783,1,0
216,184,101987,1,0
342,259,102191,1,0
176,260,102395,1,0
345,331,102599,1,0
142,337,102803,1,0
256,192,103007,12,4,103824
256,304,104232,5,4
422,225,104640,38,0,B|441:123|361:62,1,184,2|8
267,35,105252,1,0
177,63,105456,1,0
246,124,105660,1,0
321,180,105864,2,0,B|355:216|339:266,1,92,8|0
256,304,106272,6,0,B|154:307|111:210,1,184,2|8
102,119,106884,1,0
187,85,107088,1,0
256,145,107292,1,0
331,201,107496,2,0,B|359:233|415:235,1,92,10|0
404,146,107905,6,0,B|306:187|299:289,1,184,2|8
383,320,108517,1,0
413,234,108721,2,0,B|300:228|298:109,1,184,2|10
300,25,109333,1,0
378,75,109537,38,0,B|300:143|202:105,2,184,2|8|2
469,75,110557,1,0
469,166,110761,1,10
377,166,110965,1,0
243,200,111169,6,0,B|142:234|146:344,1,184,6|8
237,363,111782,1,0
328,361,111986,1,2
419,361,112190,1,0
419,269,112394,1,10
327,269,112598,1,0
189,269,112802,6,0,B|91:270|25:199,1,184,6|8
56,112,113414,2,0,B|145:72|234:112,1,184,2|0
323,134,114026,2,0,B|363:165|409:140,1,92,10|0
392,277,114434,38,0,B|324:326|216:311,1,184,6|8
125,295,115046,1,0
80,216,115251,2,0,B|64:165|105:130,1,92
168,196,115659,1,8
258,179,115863,1,0
347,158,116067,6,0,B|453:170|459:281,1,184,0|8
381,329,116679,1,0
291,349,116883,2,0,B|239:361|208:324,1,92
272,260,117291,1,8
303,173,117495,1,8
376,116,117699,6,0,B|313:197|214:181,1,184,6|8
226,89,118311,2,0,B|233:193|165:256,1,184
60,291,118924,2,0,B|70:343|120:358,1,92,8|0
227,360,119332,38,0,B|330:344|365:249,1,184,2|8
433,312,119944,2,0,B|346:264|330:166,1,184
256,221,120556,1,10
255,128,120760,1,0
333,80,120964,6,0,B|260:151|162:132,1,184,2|8
101,65,121576,1,0
52,194,121780,2,0,B|37:239|50:285,1,92,2|0
169,369,122188,2,0,B|184:324|171:278,1,92,10|0
165,132,122596,6,0,B|230:63|334:80,1,184,2|8
473,198,123413,1,2
401,255,123617,1,0
486,289,123821,1,10
473,198,124025,1,0
387,164,124229,38,0,B|298:124|209:163,1,184,6|8
57,267,125045,1,2
114,340,125249,1,0
23,352,125453,1,10
57,267,125657,1,0
148,255,125861,6,0,B|252:248|297:161,1,184,6|8
323,255,126474,2,0,B|219:248|174:161,1,184,2|0
236,93,127086,1,10
326,75,127290,1,0
386,143,127494,1,6
256,192,127698,12,0,129942
131,113,143822,5,6
210,66,144026,1,0
302,66,144230,1,0
381,113,144434,1,0
427,192,144638,1,6
85,192,145046,1,6
381,271,145454,37,6
302,318,145658,1,0
210,318,145862,1,0
131,271,146066,1,0
85,192,146270,1,6
427,192,146678,1,6
303,56,147086,6,0,B|202:44|137:117,1,184,4|2
85,192,147699,1,0
132,271,147903,1,2
223,271,148107,2,0,B|329:256|340:148,1,184,2|0
416,98,148719,2,0,B|429:192|375:274,1,184,2|0
321,347,149331,2,0,B|280:375|233:362,1,92,2|0
223,271,149739,2,0,B|175:192,1,92,2|0
132,271,150147,1,2
177,351,150351,5,6
268,350,150555,1,0
315,271,150759,1,0
268,191,150963,1,0
176,192,151167,1,6
176,192,151576,1,6
313,32,151984,37,6
222,33,152188,1,0
175,112,152392,1,0
222,192,152596,1,0
313,192,152800,1,6
313,192,153208,1,6
474,104,153616,6,0,B|520:192|474:280,1,184,4|2
393,325,154228,1,0
308,288,154432,2,0,B|217:250|130:292,1,184,2|0
128,108,155249,2,0,B|215:65|306:103,1,184,2|0
383,153,155861,1,2
446,219,156065,1,8
356,241,156269,1,2
293,173,156473,1,8
266,261,156677,1,2
209,190,156881,5,6
128,108,157085,1,0
243,126,157289,1,0
139,178,157493,1,0
192,76,157697,1,6
192,76,158105,1,6
342,215,158513,37,6
423,297,158717,1,0
308,279,158921,1,0
412,227,159126,1,0
359,329,159330,1,6
359,329,159738,1,6
299,98,160146,6,0,B|205:63|126:124,1,184,4|2
70,198,160758,1,0
89,287,160962,1,2
170,329,161166,2,0,B|215:348|260:325,1,92,2|0
330,268,161574,1,0
241,244,161778,2,0,B|146:206|156:97,1,184,2|0
247,107,162390,2,0,B|289:127|337:115,1,92,2|0
408,172,162799,2,0,B|370:200|320:201,1,92,2|0
241,244,163207,1,2
150,259,163411,5,6
36,245,163615,1,0
115,74,163819,1,0
14,130,164023,1,0
200,154,164227,1,6
200,154,164635,1,6
362,125,165043,37,6
476,139,165247,1,0
397,310,165451,1,0
498,254,165655,1,0
312,230,165859,1,6
312,230,166267,1,6
137,289,166676,6,0,B|87:195|164:123,1,184,4|2
235,181,167288,1,0
312,230,167492,2,0,B|362:136|285:64,1,184,2|0
460,118,168308,5,8
460,209,168512,1,0
381,130,168716,1,0
381,259,168920,1,0
276,154,169124,1,0
276,319,169328,1,0
145,188,169532,1,0
233,239,169736,1,0
328,204,169940,37,8
341,185,170042,1,0
348,163,170144,1,0
347,140,170246,1,0
339,118,170349,1,0
323,100,170451,1,0
303,87,170553,1,8
280,82,170655,1,0
257,82,170757,1,0
236,92,170859,1,0
219,107,170961,1,0
145,188,171175,6,0,B|120:228|142:275,1,92,6|0
224,317,171583,1,8
314,300,171787,1,0
325,209,171991,2,0,B|293:216|263:190|275:154,2,92,0|0|10
410,176,172603,1,0
501,189,172807,6,0,B|513:236|487:277,1,92,2|0
398,304,173215,2,0,B|306:278|219:322,1,184,8|2
133,353,173827,1,0
219,321,174031,2,0,B|199:220|287:163,1,184,8|2
364,115,174643,1,0
286,163,174847,2,0,B|216:93|119:99,1,184,8|2
28,97,175460,1,0
120,99,175664,2,0,B|119:50|167:22,1,92,8|0
253,46,176072,38,0,B|342:63|434:31,2,184,2|8|2
164,24,177092,1,0
192,111,177296,1,10
282,126,177500,1,0
465,116,177704,6,0,B|420:199|319:218,1,184,6|8
228,206,178316,1,2
140,177,178520,2,0,B|89:175|57:212,1,92
129,268,178929,1,10
216,296,179133,1,0
397,274,179337,6,0,B|320:216|228:206,1,184,6|8
140,177,179949,2,0,B|96:156|86:106,2,92,2|0|0
228,206,180561,2,0,B|276:190|309:161,1,92,10|0
453,49,180969,37,4
455,140,181173,1,0
453,49,181377,1,10
374,96,181581,1,0
293,140,181785,1,0
374,96,181989,1,2
453,49,182193,1,8
455,140,182397,1,2
375,186,182602,5,0
296,234,182806,1,0
293,325,183010,1,10
296,234,183214,1,0
375,186,183418,1,0
374,96,183622,1,8
293,140,183826,1,10
212,185,184030,1,0
36,131,184234,5,6
115,84,184438,1,0
203,59,184642,2,0,B|302:27|378:99,1,184,10|0
437,163,185254,1,0
423,254,185458,2,0,B|386:229|333:235,1,92,10|0
165,163,185866,38,0,B|114:169|83:126,2,92,2|0|8
256,146,186479,1,0
226,234,186683,2,0,B|216:283|166:300,2,92,2|0|8
238,143,187295,1,0
312,197,187499,2,0,B|356:221|356:273,1,92,2|0
348,363,187907,1,10
439,360,188111,1,0
451,268,188315,2,0,B|451:164|363:116,1,184,2|8
291,59,188927,1,2
199,65,189131,6,0,B|167:65|142:90|112:90,2,92,0|0|8
250,141,189743,1,0
209,223,189947,2,0,B|184:264|202:310,1,92,2|0
277,363,190356,1,10
352,309,190560,1,2
442,148,190764,6,0,B|390:62|289:59,1,184,4|8
214,110,191376,1,0
143,169,191580,2,0,B|113:205|60:208,1,92,2|0
195,243,191988,2,0,B|196:292|234:322,1,92,10|0
415,283,192396,38,0,B|439:192|415:101,1,184,6|8
323,101,193008,2,0,B|348:192|321:284,1,184,2|0
231,283,193620,2,0,B|244:239|243:192,1,92,10|0
231,100,194029,5,4
167,33,194233,1,0
142,121,194437,1,10
115,209,194641,1,0
88,297,194845,1,0
178,275,195049,1,2
153,363,195253,1,8
242,341,195457,1,2
330,319,195661,5,0
469,273,195865,1,0
359,175,196069,1,0
330,319,196273,1,0
428,209,196477,1,0
283,179,196681,1,0
330,319,196885,1,0
359,175,197089,1,0
318,33,197293,38,0,B|270:20|228:42,1,92,6|0
147,84,197702,1,0
329,106,197906,2,0,B|377:119|419:97,1,92,2|8
500,55,198314,1,2
496,147,198518,1,0
436,217,198722,1,0
254,195,198926,6,0,B|206:182|164:204,1,92,6|0
83,246,199334,1,0
265,268,199538,2,0,B|313:281|355:259,1,92,2|8
436,217,199946,1,2
432,309,200150,1,0
372,379,200354,1,0
188,375,200558,6,0,B|135:373|110:333,1,92,6|0
83,246,200966,1,0
265,268,201170,2,0,B|316:272|350:241,1,92,2|8
426,72,201579,2,0,B|375:68|341:99,1,92,10|0
265,268,201987,1,2
268,163,202191,37,0
116,58,202395,2,0,B|71:82|59:126,1,92,2|0
115,301,202803,2,0,B|145:265|194:260,1,92,2|8
356,346,203211,1,10
446,364,203415,1,0
487,184,203619,1,0
352,59,203823,6,0,B|312:33|264:44,1,92,6|0
173,62,204231,1,0
341,138,204435,2,0,B|384:157|401:203,1,92,2|8
436,288,204843,1,2
352,325,205047,1,0
173,279,205251,1,0
108,213,205456,6,0,B|83:168|105:125,1,92,6|0
173,62,205864,1,0
208,245,206068,2,0,B|220:294|265:322,1,92,2|8
352,325,206476,1,2
407,251,206680,1,0
407,67,206884,1,0
316,49,207088,37,14
265,126,207292,1,0
217,205,207496,1,0
137,39,207700,1,2
265,126,207904,1,0
419,226,208108,1,2
255,310,208312,1,0
265,126,208516,1,0
207,58,208720,5,0
361,155,208924,1,0
179,167,209129,1,0
319,50,209333,1,0
275,228,209537,1,4
275,228,209945,1,4
401,274,210353,22,0,B|425:305|423:339,2,69.0000026321412,0|0|2
399,204,210965,2,0,B|414:168|444:153,2,69.0000026321412,0|0|2
339,242,211577,2,0,B|300:247|272:228,1,69.0000026321412,0|2
155,156,211985,6,0,B|121:136|110:104,2,69.0000026321412,0|0|2
184,220,212597,2,0,B|183:259|161:284,2,69.0000026321412,0|0|2
226,162,213210,2,0,B|260:142|293:149,1,69.0000026321412,0|2
430,146,213618,54,0,B|468:142|496:161,2,69.0000026321412,0|0|2
369,111,214230,2,0,B|346:79|349:45,2,69.0000026321412,0|0|2
370,183,214842,2,0,B|353:218|323:232,1,69.0000026321412,0|2
195,283,215250,6,0,B|160:299|127:291,2,69.0000026321412,0|0|2
265,295,215862,2,0,B|297:317|306:350,2,69.0000026321412,0|0|2
239,228,216474,2,0,B|243:189|266:165,1,69.0000026321412,0|2
451,78,216883,6,0,B|374:16|276:36,1,184,6|0
214,61,217495,37,0
152,92,217699,2,0,B|117:109|108:146,1,69.0000026321412,2|0
178,158,218107,2,0,B|166:196|132:208,1,69.0000026321412,2|0
9,367,218515,38,0,B|89:319|188:333,1,184,6|0
255,339,219127,21,0
322,324,219331,2,0,B|358:315|374:281,1,69.0000026321412,2|0
308,255,219739,2,0,B|326:217|359:214,1,69.0000026321412,2|0
499,68,220147,54,0,B|417:20|321:37,1,184,6|0
255,54,220760,5,0
192,83,220964,1,0
133,48,221168,1,0
71,79,221372,1,0
128,117,221576,1,0
67,149,221780,5,0
107,218,221984,1,0
182,162,222188,1,0
211,266,222392,1,0
251,150,222596,1,0
337,257,222800,1,0
304,105,223004,1,0
449,196,223208,1,0
340,352,223407,6,0,B|232:378|133:332,1,211.60000403595,6|8
66,250,224019,1,0
55,144,224223,1,0
151,187,224427,1,0
256,188,224631,2,0,B|313:194|354:158,1,105.800002017975,8|0
501,5,225039,6,0,B|411:69|297:51,1,211.60000403595,6|8
194,43,225651,2,0,B|132:42|112:96,1,105.800002017975
204,147,226059,1,0
309,140,226263,2,0,B|365:133|404:176,1,105.800002017975,10|0
489,369,226671,6,0,B|393:324|283:332,1,211.60000403595,6|8
177,333,227284,1,0
70,335,227488,2,0,B|35:231|80:128,1,211.60000403595,2|8
132,36,228100,1,0
186,127,228304,38,0,B|140:229|176:333,1,211.60000403595,2|8
280,355,228916,1,0
382,330,229120,2,0,B|439:325|470:275,1,105.800002017975,2|0
471,118,229528,2,0,B|414:123|383:173,1,105.800002017975,10|0
280,355,229936,6,0,B|156:326|127:224,1,211.60000403595,6|0
123,119,230548,1,0
187,35,230752,2,0,B|243:44|268:97,1,105.800002017975,2|0
260,275,231161,2,0,B|249:219|281:173,1,105.800002017975,10|0
423,26,231569,6,0,B|493:103|470:224,1,211.60000403595,6|8
363,293,232181,2,0,B|259:253|157:295,1,211.60000403595,2|0
49,227,232793,2,0,B|37:171|49:120,1,105.800002017975,10|0
96,29,233201,38,0,B|134:64|194:58,1,105.800002017975,6|0
298,37,233609,1,10
250,243,233813,2,0,B|299:227|324:172,1,105.800002017975,0|0
358,73,234221,1,2
509,221,234425,2,0,B|520:170|485:121,1,105.800002017975,8|2
418,38,234834,5,0
434,142,235038,1,0
328,136,235242,1,8
292,235,235446,1,2
212,304,235650,1,0
124,159,235854,1,8
128,162,236058,2,0,B|160:117|213:100,1,105.800002017975,8|0
418,38,236466,6,0,B|456:138|409:245,1,211.60000403595,6|8
360,328,237078,1,0
283,255,237282,2,0,B|240:216|184:227,1,105.800002017975
209,330,237690,1,8
283,255,237894,1,0
344,52,238098,38,0,B|245:-9|139:31,1,211.60000403595,6|8
59,97,238711,1,0
51,202,238915,2,0,B|76:253|134:261,1,105.800002017975
219,199,239323,2,0,B|260:160|316:179,1,105.800002017975,10|0
470,324,239731,6,0,B|363:346|260:314,1,211.60000403595,6|8
162,276,240343,1,0
59,97,240547,2,0,B|161:128|268:106,1,211.60000403595,6|8
367,69,241159,1,0
484,244,241363,6,0,B|377:266|274:234,1,211.60000403595,6|8
176,194,241975,1,0
87,135,242179,2,0,B|62:186|81:237,1,105.800002017975,2|0
275,234,242588,2,0,B|291:179|264:132,1,105.800002017975,10|0
171,30,242996,38,0,B|95:27|44:79,1,138.000005264282,6|0
20,160,243608,1,0
175,289,243812,1,8
310,313,244016,1,0
275,234,244220,1,0
410,259,244424,1,0
420,127,244628,6,0,B|362:87|286:90,1,138.000005264282,6|0
144,199,245240,2,0,B|199:237|275:234,1,138.000005264282,2|0
379,223,245852,1,0
293,162,246056,1,0
196,122,246261,1,4
256,192,246465,12,0,249117
