osu file format v9

[General]
AudioFilename: Nightwish - Wishmaster - 07 - Bare Grace Misery.mp3
AudioLeadIn: 1985
PreviewTime: 65446
Countdown: 1
SampleSet: Normal
StackLeniency: 0.7
Mode: 1
LetterboxInBreaks: 1

[Editor]
DistanceSpacing: 1
BeatDivisor: 4
GridSize: 8

[Metadata]
Title:Bare Grace Misery
Artist:Nightwish
Creator:KuraiPettan
Version:lepidon! - Taiko Oni
Source:
Tags:lepidopodus ErufenRito

[Difficulty]
HPDrainRate:5
CircleSize:5
OverallDifficulty:5
ApproachRate:5
SliderMultiplier:1.4
SliderTickRate:1

[Events]
//Background and Video events
0,0,"taiko.png"
//Break Periods
//Storyboard Layer 0 (Background)
//Storyboard Layer 1 (Fail)
//Storyboard Layer 2 (Pass)
//Storyboard Layer 3 (Foreground)
//Storyboard Sound Samples
//Background Colour Transformations
3,100,163,162,255

[TimingPoints]
163,397.324680484736,4,1,0,80,1,0
24002,394.736842105263,4,1,0,80,1,0
27181,397.324680484736,4,1,0,80,1,0
65324,-100,4,1,0,80,0,1
78038,-100,4,1,0,80,0,0
87574,393.44262295082,4,1,0,80,1,0
90652,-111.111111111111,4,1,0,80,0,0
90752,397.324680484736,4,1,0,80,1,0
90752,-111.111111111111,4,1,0,80,0,0
93657,-125,4,1,0,80,0,0
96835,-142.857142857143,4,1,0,80,0,0
103367,-125,4,1,0,80,0,0
106545,-111.111111111111,4,1,0,80,0,0
106646,392.156862745098,4,1,0,80,1,0
106646,-111.111111111111,4,1,0,80,0,0
109548,-100,4,1,0,80,0,0
109824,397.324680484736,4,1,0,80,1,0
144788,387.096774193548,4,1,0,80,1,0
147967,396.039603960396,4,1,0,80,1,1
147967,-100,4,1,0,80,0,1
150864,-83.3333333333333,4,1,0,80,0,1
154042,-71.4285714285714,4,1,0,80,0,1
157221,-62.5,4,1,0,80,0,1
159056,-62.5,4,1,0,80,0,0
159207,-100,4,1,0,80,0,0
160681,397.324680484736,4,1,0,80,1,0
182931,394.736842105263,4,1,0,80,1,0
186009,-80,4,1,0,80,0,0
186109,397.324680484736,4,1,0,80,1,1
186109,-80,4,1,0,80,0,1
198823,-100,4,1,0,80,0,0
208359,392.156862745098,4,1,0,80,1,0

[Colours]
Combo1 : 137,135,141
Combo2 : 96,99,153

[HitObjects]
248,168,163,1,8
248,168,560,1,8
248,168,957,1,8
320,240,1156,1,0
360,264,1255,1,0
376,216,1354,1,8
368,120,1553,1,4
168,192,2149,1,8
360,264,2546,1,8
408,216,2745,1,0
272,192,3142,1,0
288,224,3242,1,0
408,176,3341,1,0
344,280,3738,1,0
472,224,4136,1,0
416,176,4334,1,8
352,152,4533,1,0
288,120,4732,1,0
200,312,5328,1,8
336,312,5725,1,0
336,312,6122,1,8
256,200,6520,1,0
312,160,6718,1,0
312,160,6818,1,0
312,160,6917,1,8
312,160,7116,1,0
312,160,7215,1,0
312,160,7314,1,8
384,168,7513,1,8
424,224,7712,1,8
408,160,7910,1,4
376,88,8506,5,8
408,224,8904,1,8
424,288,9102,1,0
296,232,9500,1,0
264,216,9599,1,0
232,200,9698,1,0
368,176,10096,1,0
504,160,10493,1,0
448,208,10692,1,8
416,272,10890,1,0
352,296,11089,1,0
232,216,11486,1,0
272,160,11685,1,8
408,136,12082,1,0
456,192,12281,1,0
384,200,12480,1,8
312,208,12678,1,0
192,128,13076,1,0
264,120,13274,1,8
336,136,13473,1,0
368,152,13572,1,0
384,184,13672,1,8
376,216,13771,1,8
360,248,13870,1,0
336,272,13970,1,0
304,288,14069,1,0
376,288,14268,1,4
256,216,14665,5,0
368,152,14864,1,8
456,264,15261,1,0
408,136,15658,1,8
272,176,16055,1,0
368,152,16453,1,8
440,32,16850,1,0
408,136,17049,1,0
440,200,17247,1,8
408,264,17446,1,0
280,208,17843,1,0
320,152,18042,1,8
456,176,18439,1,0
368,64,18837,1,8
360,200,19234,1,0
432,80,19631,1,8
352,240,20029,1,0
296,200,20227,1,0
336,144,20426,1,8
408,160,20625,1,0
280,112,21022,5,0
432,80,21221,1,8
408,216,21618,1,0
400,248,21717,1,0
384,280,21817,1,0
312,280,22015,1,8
248,152,22413,1,0
392,160,22810,1,8
456,288,23207,1,0
392,304,23406,1,0
384,232,23605,1,8
392,160,23803,1,0
352,24,24199,1,8
344,96,24396,1,8
368,160,24594,1,0
296,160,24791,1,8
232,184,24988,1,8
288,216,25186,1,0
352,192,25383,1,8
416,168,25580,1,8
424,240,25778,1,0
424,168,25975,1,8
384,112,26173,1,8
384,184,26370,1,0
400,248,26567,1,8
368,312,26765,1,8
344,200,26962,1,4
208,160,27379,5,0
264,200,27578,1,8
384,136,27975,1,0
464,200,28372,1,8
392,200,28571,1,0
336,208,28770,1,0
400,240,29167,1,8
464,200,29366,1,0
352,120,29962,1,8
296,160,30160,1,0
264,224,30359,1,0
400,184,30756,1,8
392,320,31154,1,0
352,264,31352,1,0
360,192,31551,1,8
344,56,31948,1,0
377,191,32346,1,8
400,256,32544,1,0
266,299,32942,1,0
303,239,33140,1,8
275,174,33339,1,0
242,160,33438,1,0
242,160,33538,5,0
377,125,33935,1,8
456,240,34332,1,0
415,105,34730,1,8
403,173,34928,1,0
367,233,35127,1,0
400,97,35524,1,8
397,167,35723,1,0
430,302,36120,1,0
439,232,36319,1,8
397,167,36518,1,0
330,186,36716,1,0
346,46,37114,1,8
431,156,37511,1,0
335,258,37908,1,8
381,125,38306,1,0
419,259,38703,1,8
371,207,38902,1,0
310,121,39299,1,0
379,127,39498,1,8
371,207,39696,1,0
341,226,39796,1,0
341,226,39895,5,0
429,117,40292,1,8
358,237,40690,1,0
450,131,41087,1,8
451,201,41286,1,0
415,260,41484,1,0
351,343,41782,1,0
360,131,41882,1,8
417,171,42080,1,0
318,267,42478,1,0
304,198,42676,1,8
236,214,42875,1,0
172,244,43073,1,0
301,190,43471,1,8
427,130,43868,1,0
417,199,44067,1,0
388,262,44265,1,8
325,137,44663,1,0
272,176,44861,1,0
280,208,44961,1,0
464,138,45060,1,8
176,184,45259,1,0
303,307,45656,1,0
325,137,45855,1,8
366,193,46053,1,0
331,201,46153,1,0
377,262,46252,5,0
371,122,46649,1,8
366,193,47047,1,0
485,120,47444,1,8
377,262,47643,1,0
412,321,47841,1,0
375,222,48139,1,0
390,190,48239,1,8
320,196,48437,1,0
250,188,48636,1,0
192,148,48835,1,0
260,135,49033,1,8
327,151,49232,1,0
389,183,49431,1,0
464,300,49828,1,8
403,173,50225,1,0
352,216,50424,1,0
474,52,50623,1,8
411,177,51020,1,0
278,145,51417,1,8
347,141,51616,1,0
356,174,51715,1,0
368,206,51815,1,8
375,240,51914,1,8
409,232,52013,1,0
421,265,52113,1,0
421,265,52212,1,0
351,266,52411,1,0
291,228,52609,5,4
489,297,53205,1,0
498,40,53404,1,8
409,148,53801,1,0
374,208,54000,1,0
378,277,54199,1,0
416,219,54397,1,8
339,102,54795,1,0
390,149,54993,1,8
320,160,55192,1,0
286,171,55291,1,0
464,168,55391,1,0
414,217,55589,1,8
365,267,55788,1,0
312,137,56185,1,0
336,208,56384,1,0
451,153,56583,1,8
401,284,56980,1,0
331,281,57179,1,0
304,238,57576,1,8
370,215,57775,1,0
438,204,57973,1,0
394,149,58172,1,8
334,112,58370,1,0
303,129,58470,1,0
367,173,58569,1,0
394,149,58768,1,8
373,215,58966,5,0
168,168,59562,1,0
240,176,59761,1,8
376,168,60158,1,0
424,216,60357,1,0
416,288,60556,1,0
400,224,60754,1,8
312,112,61152,1,0
376,136,61350,1,8
440,168,61549,1,0
448,96,61748,1,8
424,160,61946,1,0
392,168,62046,1,0
384,216,62145,1,0
248,256,62542,1,0
200,208,62741,1,0
200,208,62840,1,0
200,176,62940,1,8
264,152,63138,1,0
424,160,63337,1,8
368,120,63536,1,4
432,104,64132,1,8
432,176,64330,1,0
432,208,64430,1,0
416,240,64529,1,8
264,152,64728,1,0
248,184,64827,1,0
216,176,64926,1,0
264,120,65125,1,4
336,240,65522,5,0
360,176,65721,1,8
304,136,65920,1,0
336,152,66019,1,0
368,160,66118,1,8
384,232,66317,1,0
424,176,66516,1,8
424,176,66615,1,8
416,248,66714,1,0
280,280,67112,1,0
248,216,67310,1,8
264,144,67509,1,0
296,152,67608,1,0
328,136,67708,1,8
248,216,67906,1,0
282,221,68006,1,0
456,200,68105,1,8
392,232,68304,1,4
280,312,68701,1,0
248,288,68800,1,0
304,248,68900,1,8
328,136,69297,1,0
425,236,69694,1,8
452,98,70092,1,0
406,230,70489,1,8
312,125,70886,1,0
365,169,71085,1,8
428,199,71284,1,8
358,190,71482,1,4
288,311,71880,5,0
406,230,72078,1,8
389,298,72277,1,0
389,298,72376,1,0
393,263,72476,1,8
365,169,72674,1,0
404,111,72873,1,8
418,143,72972,1,8
420,179,73072,1,0
288,311,73469,1,0
406,230,73667,1,8
389,298,73866,1,0
389,298,73965,1,0
393,263,74065,1,8
365,169,74263,1,8
357,203,74363,1,8
404,111,74462,1,0
420,179,74661,1,4
282,155,75058,1,0
420,179,75257,1,8
408,318,75654,1,0
383,252,75853,1,0
378,182,76051,1,8
373,111,76250,1,4
506,152,76647,1,0
455,200,76846,1,8
355,233,77045,1,0
320,231,77144,1,0
285,225,77243,1,0
223,192,77442,1,8
243,163,77541,1,8
277,164,77641,1,0
311,167,77740,1,0
344,177,77839,1,0
210,132,78237,5,0
279,140,78435,1,8
412,182,78833,1,0
459,137,79230,1,8
427,273,79627,1,0
379,141,80025,1,8
416,6,80422,1,0
405,110,80621,1,0
402,145,80720,1,0
387,176,80819,1,8
357,239,81018,1,0
217,250,81415,1,0
387,176,81614,1,8
460,164,82011,1,0
398,289,82409,1,8
387,176,82806,1,0
441,219,83005,1,0
460,164,83203,1,8
320,151,83601,1,0
254,176,83799,1,0
226,197,83899,1,0
260,204,83998,1,8
330,205,84197,1,0
205,141,84594,5,0
460,164,84793,1,8
425,299,85190,1,0
360,174,85587,1,8
383,36,85985,1,0
402,174,86382,1,8
350,303,86779,1,0
328,330,86879,1,0
292,331,86978,1,0
257,326,87077,1,0
360,174,87177,1,8
414,217,87375,1,4
304,129,87770,1,8
337,138,87869,1,8
374,128,87967,1,8
421,178,88164,1,0
406,246,88360,1,8
387,275,88459,1,8
336,244,88557,1,8
325,174,88754,1,0
384,137,88951,1,8
379,171,89049,1,8
451,154,89147,1,8
408,209,89344,1,0
384,137,89541,1,8
375,170,89639,1,8
314,143,89737,1,8
371,182,89934,1,0
360,248,90131,1,0
368,280,90229,1,0
368,312,90328,1,0
221,140,90524,1,4
111,227,90950,5,0
172,261,91149,1,0
306,299,91546,1,0
445,295,91943,1,0
320,231,92341,1,0
201,156,92738,1,0
305,248,93135,1,0
411,339,93533,1,0
325,228,93930,1,0
412,337,94327,1,0
324,227,94725,1,0
412,335,95122,1,0
343,212,95519,1,0
397,167,95718,1,8
433,107,95917,1,0
495,139,96115,1,8
459,199,96314,1,0
463,129,96513,1,8
418,183,96711,1,0
278,167,97109,5,0
331,296,97506,1,0
216,216,97903,1,0
318,311,98301,1,0
409,205,98698,1,0
276,251,99095,1,0
369,146,99493,1,8
303,170,99691,1,8
366,200,99890,1,0
369,269,100089,1,0
377,338,100287,1,0
247,285,100685,1,0
189,196,101082,1,0
299,110,101479,1,0
346,241,101877,1,0
346,241,102274,1,0
346,241,102671,1,0
346,241,102870,1,0
397,193,103069,1,0
436,135,103267,1,8
421,203,103466,5,0
280,208,103863,1,0
144,224,104261,1,0
280,264,104658,1,0
416,240,105055,1,0
416,240,105453,1,0
408,104,105850,1,8
408,136,105949,1,8
400,136,106049,1,8
360,192,106247,1,0
304,232,106446,1,0
240,256,106646,1,0
368,312,107038,1,0
392,176,107430,1,0
360,240,107626,1,0
256,136,107822,1,0
288,200,108018,1,0
344,240,108214,1,0
376,256,108312,1,0
408,272,108410,1,0
408,272,108508,1,0
408,272,108606,1,0
376,280,108704,1,0
344,280,108802,1,0
312,280,108900,1,0
280,288,108998,1,0
304,224,109195,1,0
344,168,109391,1,4
464,96,109783,5,8
448,168,110022,1,0
440,200,110121,1,0
424,232,110221,1,8
304,248,110618,1,0
264,192,110817,1,0
256,160,110916,1,0
288,144,111015,1,8
384,80,111413,1,0
392,184,111611,1,0
360,104,111711,1,0
392,216,111810,1,8
320,216,112009,1,0
312,328,112207,1,8
296,296,112307,1,8
264,280,112406,1,0
232,264,112505,1,0
200,248,112605,1,0
168,184,112803,1,0
232,168,113002,1,8
304,168,113201,1,0
336,168,113300,1,0
368,168,113399,1,8
480,256,113797,1,0
408,256,113995,1,0
376,256,114095,1,0
376,224,114194,1,8
400,88,114591,1,0
424,120,114691,1,0
440,152,114790,1,0
432,224,114989,1,8
368,256,115187,1,0
296,192,115386,1,0
264,192,115485,1,0
240,168,115585,1,8
264,144,115684,1,8
296,152,115783,1,0
368,160,115982,1,8
384,232,116181,5,8
360,296,116379,1,0
328,304,116479,1,0
304,280,116578,1,8
376,288,116777,1,0
352,152,116975,1,0
392,208,117174,1,0
416,232,117273,1,0
400,200,117373,1,8
464,72,117770,1,0
464,136,117969,1,0
464,104,118068,1,0
448,208,118167,1,8
416,272,118366,1,0
368,216,118565,1,8
344,192,118664,1,8
312,176,118763,1,0
280,168,118863,1,0
248,168,118962,1,0
176,176,119161,1,0
464,136,119359,1,8
424,192,119558,1,0
400,224,119657,1,0
408,192,119757,1,8
336,208,119955,1,0
280,168,120154,1,0
216,200,120353,1,0
184,192,120452,1,0
216,184,120551,1,8
352,144,120949,1,0
384,136,121048,1,0
416,144,121147,1,0
416,144,121247,1,0
448,160,121346,1,8
280,176,121644,1,0
312,168,121743,1,8
376,192,121942,1,0
400,216,122041,1,0
400,248,122141,1,0
384,312,122339,1,8
328,272,122538,5,0
400,152,122935,1,8
496,256,123333,1,0
376,192,123730,1,8
256,264,124127,1,0
376,192,124525,1,8
416,248,124922,1,0
352,272,125121,1,0
392,216,125319,1,8
392,144,125518,1,0
320,152,125716,1,0
456,152,126114,1,8
448,288,126511,1,0
392,216,126908,1,8
336,88,127306,1,0
368,152,127504,1,0
392,216,127703,1,8
416,80,128100,1,0
400,152,128299,1,8
392,184,128398,1,8
376,288,128498,1,8
312,264,128696,1,0
264,216,128895,5,0
392,160,129292,1,8
392,296,129690,1,0
360,232,129888,1,0
376,168,130087,1,8
448,168,130286,1,0
392,208,130484,1,0
392,160,130882,1,8
384,232,131080,1,0
336,280,131279,1,0
304,296,131378,1,0
272,304,131478,1,0
392,160,131676,1,8
344,104,131875,1,0
408,128,132074,1,8
408,200,132272,1,0
400,232,132372,1,0
408,200,132471,1,8
448,144,132670,1,0
408,128,132868,1,8
392,200,133067,1,0
392,232,133166,1,0
392,160,133266,1,8
360,296,133663,1,0
432,280,133862,1,0
432,248,133961,1,8
432,216,134060,1,8
400,152,134259,1,0
336,168,134458,1,8
264,184,134656,1,8
296,184,134756,1,8
192,184,134855,1,0
192,184,135054,1,0
464,96,135252,5,8
448,168,135451,1,0
440,200,135550,1,0
424,232,135650,1,8
304,248,136047,1,0
264,192,136246,1,0
256,160,136345,1,0
288,144,136444,1,8
384,80,136842,1,0
392,184,137040,1,0
360,104,137140,1,0
392,216,137239,1,8
320,216,137438,1,0
312,328,137636,1,8
296,296,137736,1,8
264,280,137835,1,0
232,264,137934,1,0
200,248,138034,1,0
168,184,138232,1,0
232,168,138431,1,8
304,168,138630,1,0
336,168,138729,1,0
368,168,138828,1,8
480,256,139226,1,0
408,256,139424,1,0
376,256,139524,1,0
376,224,139623,1,8
400,88,140020,1,0
424,120,140120,1,0
440,152,140219,1,0
432,224,140418,1,8
368,256,140616,1,0
296,192,140815,1,0
264,192,140914,1,0
240,168,141013,1,8
264,144,141113,1,8
296,152,141212,1,0
368,160,141411,1,8
384,232,141609,5,8
360,296,141808,1,0
328,304,141907,1,0
304,280,142007,1,8
376,288,142205,1,0
352,152,142404,1,0
392,208,142603,1,0
416,232,142702,1,0
400,200,142801,1,8
464,72,143199,1,0
464,136,143397,1,0
464,104,143497,1,0
448,208,143596,1,8
416,272,143795,1,0
368,216,143993,1,8
344,192,144093,1,8
312,176,144192,1,0
280,168,144291,1,0
248,168,144391,1,0
176,176,144589,1,0
240,160,144788,1,8
272,168,144981,1,0
344,168,145175,1,0
376,168,145271,1,0
408,168,145368,1,0
408,240,145562,1,0
384,136,145852,1,8
392,104,145949,1,8
344,168,146142,1,0
408,168,146433,1,8
408,168,146529,1,8
384,232,146723,1,0
416,168,146917,1,8
376,224,147110,1,0
328,224,147239,1,0
288,264,147368,1,0
248,232,147497,1,0
232,136,147967,5,4
304,136,148165,1,4
360,264,148561,1,4
376,328,148759,1,4
440,200,149155,1,4
416,264,149353,1,4
280,264,149749,1,4
352,264,149947,1,4
352,128,150343,1,12
344,264,150739,1,12
232,136,151135,1,4
304,136,151333,1,4
360,264,151729,1,4
376,328,151927,1,4
440,200,152323,1,4
416,264,152521,1,4
280,264,152917,1,4
352,264,153115,1,4
352,128,153511,1,12
344,264,153907,1,12
232,136,154303,5,4
304,136,154501,1,4
360,264,154897,1,4
376,328,155095,1,4
440,200,155491,1,4
416,264,155689,1,4
280,264,156085,1,4
352,264,156283,1,4
352,128,156679,1,12
344,264,157075,1,12
392,136,157471,1,4
392,208,157669,1,4
400,136,157867,1,8
328,128,158066,1,4
272,176,158264,1,4
336,192,158462,1,8
384,248,158660,1,4
336,304,158858,1,4
208,160,160681,5,0
264,200,161078,1,8
384,136,161475,1,0
464,200,161872,1,8
392,200,162071,1,0
336,208,162270,1,0
400,240,162667,1,8
464,200,162866,1,0
352,120,163462,1,8
296,160,163660,1,0
264,224,163859,1,0
400,184,164256,1,8
392,320,164654,1,0
352,264,164852,1,0
360,192,165051,1,8
344,56,165448,1,0
377,191,165846,1,8
400,256,166044,1,0
266,299,166442,1,0
303,239,166640,1,8
377,191,166740,1,8
275,174,166839,1,0
242,160,167038,5,0
377,125,167435,1,8
456,240,167832,1,0
415,105,168230,1,8
403,173,168428,1,0
367,233,168627,1,0
400,97,169024,1,8
397,167,169223,1,0
430,302,169620,1,0
439,232,169819,1,8
397,167,170018,1,0
330,186,170216,1,0
346,46,170614,1,8
431,156,171011,1,0
328,168,171309,1,0
335,258,171408,1,8
248,184,171607,1,0
381,125,172004,1,0
419,259,172203,1,8
371,207,172402,1,0
310,121,172799,1,0
379,127,172998,1,8
344,136,173097,1,0
371,207,173196,1,0
341,226,173296,1,0
341,226,173395,5,0
429,117,173792,1,8
358,237,174190,1,0
450,131,174587,1,8
451,201,174786,1,0
415,260,174984,1,0
351,343,175282,1,0
360,131,175382,1,8
417,171,175580,1,0
318,267,175978,1,0
288,248,176077,1,0
304,198,176176,1,8
236,214,176375,1,0
172,244,176573,1,0
301,190,176971,1,8
427,130,177368,1,0
417,199,177567,1,0
388,262,177765,1,8
325,137,178163,1,0
272,176,178361,1,0
280,208,178461,1,0
464,138,178560,1,8
445,205,178759,1,0
303,307,179156,1,0
325,137,179355,1,8
366,193,179553,1,0
331,201,179653,1,0
377,262,179752,5,0
371,122,180149,1,8
366,193,180547,1,0
485,120,180944,1,8
377,262,181143,1,0
412,321,181341,1,0
375,222,181639,1,0
390,190,181739,1,8
320,196,181937,1,0
250,188,182136,1,0
192,148,182335,1,0
260,135,182533,1,8
327,151,182732,1,0
389,183,182931,1,0
464,300,183325,1,8
403,173,183720,1,0
352,216,183917,1,0
474,52,184115,1,8
411,177,184509,1,0
278,145,184904,1,8
347,141,185102,5,0
356,174,185200,1,0
368,206,185299,1,8
375,240,185398,1,8
409,232,185496,1,0
421,265,185595,1,0
421,265,185694,1,0
351,266,185891,1,4
336,240,186307,5,0
360,176,186506,1,8
304,136,186704,1,0
336,152,186804,1,0
368,160,186903,1,8
384,232,187102,1,0
424,176,187300,1,8
424,176,187400,1,8
416,248,187499,1,0
280,280,187896,1,0
248,216,188095,1,8
264,144,188294,1,0
296,152,188393,1,0
328,136,188492,1,8
352,200,188691,1,0
416,248,188790,1,8
424,280,188890,1,0
392,176,189088,1,4
280,312,189486,1,0
248,288,189585,1,0
304,248,189684,1,8
328,136,190082,1,0
272,176,190280,1,0
425,236,190479,1,8
452,98,190876,1,0
408,192,191174,1,0
406,230,191274,1,8
312,125,191671,1,0
365,169,191870,1,8
425,236,191969,1,8
428,199,192068,1,8
358,190,192267,1,4
288,311,192664,5,0
406,230,192863,1,8
389,298,193062,1,0
389,298,193161,1,0
393,263,193260,1,8
365,169,193459,1,0
404,111,193658,1,8
418,143,193757,1,8
420,179,193856,1,0
288,311,194254,1,0
406,230,194452,1,8
389,298,194651,1,0
389,298,194750,1,0
393,263,194850,1,8
365,169,195048,1,8
357,203,195148,1,0
404,111,195247,1,8
420,179,195446,1,4
282,155,195843,1,0
288,192,195942,1,0
420,179,196042,1,8
408,318,196439,1,0
376,320,196538,1,0
383,252,196638,1,0
352,256,196737,1,0
378,182,196836,1,8
373,111,197035,1,4
506,152,197432,1,0
455,200,197631,1,8
355,233,197830,1,0
320,231,197929,1,0
285,225,198028,1,0
223,192,198227,1,8
243,163,198326,1,8
277,164,198426,1,0
311,167,198525,1,0
344,177,198624,1,0
210,132,199022,5,0
279,140,199220,1,8
412,182,199618,1,0
459,137,200015,1,8
427,273,200412,1,0
320,264,200710,1,0
379,141,200810,1,8
416,6,201207,1,0
405,110,201406,1,0
402,145,201505,1,0
387,176,201604,1,8
357,239,201803,1,0
217,250,202200,1,0
387,176,202399,1,8
460,164,202796,1,0
398,289,203193,1,8
387,176,203591,1,0
360,192,203690,1,0
441,219,203789,1,0
460,164,203988,1,8
320,151,204385,1,0
254,176,204584,1,0
226,197,204683,1,0
260,204,204783,1,8
330,205,204981,1,0
205,141,205379,5,0
460,164,205577,1,8
425,299,205975,1,0
360,174,206372,1,8
383,36,206769,1,0
336,88,206968,1,0
312,112,207067,1,0
402,174,207167,1,8
336,200,207365,1,0
328,330,207465,1,0
350,303,207564,1,0
292,331,207763,1,0
257,326,207862,1,0
360,174,207961,1,8
414,217,208160,1,4
304,129,208555,1,8
337,138,208653,1,8
374,128,208751,1,8
421,178,208947,1,0
406,246,209143,1,8
387,275,209241,1,8
336,244,209339,1,8
325,174,209535,1,0
384,137,209731,1,8
379,171,209829,1,8
451,154,209927,1,8
408,209,210123,1,0
384,137,210319,1,8
375,170,210417,1,8
314,143,210515,1,8
371,182,210711,1,0
344,200,210809,1,0
320,224,210908,1,0
288,248,211006,1,0
256,264,211104,1,0
256,192,211300,12,0,216202
