osu file format v9

[General]
AudioFilename: Nightwish - Wishmaster - 07 - Bare Grace Misery.mp3
AudioLeadIn: 1985
PreviewTime: 65446
Countdown: 1
SampleSet: Soft
StackLeniency: 0.7
Mode: 0
LetterboxInBreaks: 1

[Editor]
DistanceSpacing: 1.2
BeatDivisor: 4
GridSize: 8

[Metadata]
Title:Bare Grace Misery
Artist:Nightwish
Creator:KuraiPettan
Version:Hard
Source:
Tags:lepidopodus ErufenRito

[Difficulty]
HPDrainRate:7
CircleSize:4
OverallDifficulty:6
ApproachRate:8
SliderMultiplier:2
SliderTickRate:1

[Events]
//Background and Video events
0,0,"BG.jpg"
//Break Periods
2,90724,96359
//Storyboard Layer 0 (Background)
//Storyboard Layer 1 (Fail)
//Storyboard Layer 2 (Pass)
//Storyboard Layer 3 (Foreground)
//Storyboard Sound Samples
//Background Colour Transformations
3,100,163,162,255

[TimingPoints]
163,397.324680484736,4,2,0,0,1,0
954,-100,4,1,1,72,0,0
24002,394.736842105263,4,1,1,72,1,0
27181,397.324680484736,4,2,1,72,1,0
51543,-100,4,1,1,72,0,0
87574,393.44262295082,4,1,1,72,1,0
90752,397.324680484736,4,1,1,72,1,0
97019,-100,4,1,1,69,0,0
106646,392.156862745098,4,1,1,69,1,0
109783,-100,4,1,1,69,0,1
109824,397.324680484736,4,1,1,69,1,1
122538,-100,4,1,1,69,0,0
135252,-100,4,1,1,69,0,1
144788,387.096774193548,4,1,1,69,1,1
147967,396.039603960396,4,1,1,69,1,0
159650,-100,4,1,1,0,0,0
160681,397.324680484736,4,1,1,0,1,0
160978,-100,4,2,0,72,0,0
182931,394.736842105263,4,2,0,72,1,0
186109,397.324680484736,4,1,1,72,1,0
208359,392.156862745098,4,1,1,72,1,0
214535,-100,4,2,1,0,0,0

[Colours]
Combo1 : 137,135,141
Combo2 : 96,99,153

[HitObjects]
256,96,163,1,0
256,296,560,1,0
80,192,957,5,0
32,104,1156,1,0
32,104,1255,1,0
32,104,1354,2,0,B|80:80|128:104,1,100
304,192,1950,5,0
376,120,2149,2,0,B|416:120|478:195|415:261|376:261,1,200,8|0
304,336,2745,1,0
240,264,2944,1,8
168,336,3142,2,0,B|128:336|88:264|128:184|168:184,1,200,0|0
192,88,3738,2,0,B|242:104|262:166,2,100,8|0|0
96,56,4334,1,0
56,248,4732,6,0,B|98:277|111:348|111:348|140:306|204:301,1,200
272,344,5328,2,0,B|326:333|356:266|302:207|247:218,1,200,8|0
152,240,5924,1,0
184,144,6122,2,0,B|129:133|99:66|153:7|208:18,1,200,8|0
272,96,6718,1,0
360,48,6917,2,0,B|415:59|445:126|391:185|336:174,1,200,8|0
256,232,7513,1,0
336,288,7712,1,0
256,344,7910,1,0
88,232,8308,5,0
72,184,8407,1,0
72,136,8506,2,0,B|80:88|112:40|176:32|248:64,1,200,8|0
200,152,9102,2,0,B|264:168|296:128,1,100,0|8
368,200,9500,2,0,B|288:288|152:248,1,200,0|0
88,232,10096,1,8
88,232,10493,5,0
136,320,10692,1,0
232,360,10890,1,8
328,344,11089,2,0,B|408:320|424:288|424:288|376:256|384:184,1,200,0|0
480,216,11685,2,0,B|448:184|456:120|456:120|408:144|352:128,1,200,8|0
400,40,12281,1,0
296,40,12480,6,0,B|224:40|224:40|200:40|200:64|200:64|104:64,1,200,8|0
48,144,13076,1,0
111,220,13274,2,0,B|215:220,1,100
248,248,13572,1,0
296,248,13672,1,0
360,168,13870,1,0
392,208,13970,1,0
424,248,14069,1,0
488,168,14268,1,0
256,360,14864,5,8
72,272,15261,1,0
256,192,15658,1,8
448,128,16055,1,0
448,128,16254,1,0
448,128,16453,1,8
328,288,16850,5,0
248,352,17049,1,0
168,288,17247,1,8
96,216,17446,2,0,B|96:176|171:114|237:177|237:216,1,200
288,128,18042,1,8
368,192,18241,1,0
432,272,18439,2,0,B|432:312|357:374|291:311|291:272,1,200,0|8
432,128,19234,2,0,B|432:88|357:26|291:89|291:128,1,200,0|8
88,144,20029,5,0
176,192,20227,1,0
88,240,20426,1,8
16,304,20625,2,0,B|16:344|91:406|157:343|157:304,1,200
88,240,21221,2,0,B|48:208|0:192|0:192|56:176|96:136,1,200,8|0
104,48,21817,2,0,B|156:58|178:107,1,100,0|8
288,240,22413,5,0
376,288,22611,1,0
448,360,22810,2,0,B|488:360|550:285|487:219|448:219,1,200,8|0
376,288,23406,1,0
288,336,23605,1,8
200,288,23803,1,0
112,112,24199,5,0
184,40,24396,2,0,B|192:104|256:136,1,100,2|0
168,192,24791,1,0
168,192,24988,2,0,B|120:232|120:320,1,100,2|0
224,280,25383,2,0,B|264:328|320:328,1,100,0|2
320,224,25778,5,0
320,224,25975,2,0,B|368:184|368:128,1,100,0|0
264,136,26370,1,0
200,56,26567,2,0,B|152:96|152:152,1,100,0|2
224,216,26962,1,4
48,312,27379,5,0
120,248,27578,2,0,B|152:288|136:344|136:344|176:312|232:344,1,200,2|0
328,344,28174,1,0
344,248,28372,2,0,B|392:264|416:320|416:320|472:296|480:240,1,200,2|0
256,40,29167,5,2
168,88,29366,1,0
72,64,29564,1,0
96,160,29763,1,0
48,248,29962,1,2
80,344,30160,1,0
136,264,30359,2,0,B|186:292|174:357|174:357|221:338|287:365,1,200,0|2
376,192,31154,5,0
312,112,31352,1,0
224,56,31551,2,0,B|200:104|224:160|224:160|184:184|136:160,1,200,2|0
320,280,32346,5,2
408,328,32544,1,0
480,256,32743,1,0
424,176,32942,1,0
464,80,33140,1,2
368,48,33339,1,0
88,152,33935,6,0,B|48:200|56:272,1,100,0|0
104,336,34332,1,0
176,272,34531,1,0
232,352,34730,1,2
408,264,35127,6,0,B|448:264|510:189|447:123|408:123,1,200,0|2
320,176,35723,1,0
264,96,35922,1,0
176,144,36120,1,0
80,112,36319,1,2
40,208,36518,1,0
96,296,36716,1,0
288,344,37114,5,2
368,288,37312,1,0
272,256,37511,2,0,B|288:208|343:191|343:191|318:135|267:131,1,200,0|2
80,56,38306,6,0,B|136:40|176:96|176:96|128:144|152:216,1,200,0|2
48,144,38902,1,0
72,240,39100,1,0
40,336,39299,1,0
136,312,39498,1,2
232,344,39696,1,0
328,56,40292,5,2
352,152,40491,1,0
440,192,40690,2,0,B|480:192|542:267|479:333|440:333,1,200,0|2
368,264,41286,1,0
288,320,41484,1,0
224,240,41683,1,0
176,328,41882,1,2
88,280,42080,1,0
40,192,42279,6,0,B|24:144|40:88,2,100,0|0|2
120,136,42875,1,0
96,40,43073,1,0
296,80,43471,6,0,B|344:104|360:160,1,100,2|0
264,176,43868,1,0
304,264,44067,1,0
208,288,44265,1,2
80,136,44663,5,0
160,80,44861,1,0
256,112,45060,2,0,B|312:128|368:112,1,100,2|0
440,56,45457,1,0
480,144,45656,1,0
408,216,45855,1,2
448,312,46053,1,0
144,312,46649,6,0,B|112:272|64:256|64:256|112:240|144:192,1,200,2|0
48,160,47245,1,0
104,80,47444,1,2
192,24,47643,2,0,B|243:61|214:129|214:129|214:129,1,100
280,304,48239,5,2
368,344,48437,1,0
440,272,48636,1,0
392,184,48835,1,0
472,128,49033,1,2
416,48,49232,1,0
320,72,49431,1,0
160,192,49828,6,0,B|120:192|58:267|121:333|160:333,1,200,2|0
232,264,50424,1,0
296,192,50623,2,0,B|336:192|398:267|335:333|296:333,1,200,2|0
232,264,51219,1,0
160,192,51417,1,2
232,56,51715,5,0
280,48,51815,1,0
328,56,51914,1,0
376,80,52013,2,0,B|424:104|440:176,1,100
336,168,52411,1,0
392,248,52609,1,4
208,328,53007,6,0,B|168:328|106:253|169:187|208:187,1,200,0|2
272,104,53603,1,0
344,40,53801,2,0,B|376:88|368:136|368:136|416:104|472:128,1,200,0|2
432,224,54397,2,0,B|416:288|448:320|448:320|400:360|336:320,1,200
288,256,54993,1,2
216,328,55192,1,0
168,240,55391,1,0
96,312,55589,1,0
40,224,55788,1,2
192,96,56185,5,0
256,176,56384,1,0
328,248,56583,2,0,B|328:288|253:350|187:287|187:248,1,200,2|0
116,176,57179,2,0,B|116:136|191:74|257:137|257:176,1,200,0|0
187,248,57775,1,0
136,336,57973,2,0,B|192:368|240:328,1,100,0|2
288,256,58370,2,0,B|333:289|326:347|326:347|385:362|426:314,1,200
312,64,59364,5,0
400,112,59562,1,0
472,184,59761,2,0,B|472:224|397:286|331:223|331:184,1,200,2|0
184,320,60556,5,2
120,240,60754,1,0
32,192,60953,1,0
120,144,61152,1,0
184,64,61350,1,2
248,144,61549,1,0
336,192,61748,1,0
248,240,61946,1,0
184,320,62145,1,4
384,320,62542,6,0,B|432:288|480:320|480:320|480:320|440:280|488:208,1,200,0|2
376,224,63138,1,0
368,128,63337,2,0,B|320:160|272:128|272:128|272:128|312:168|264:240,1,200,0|2
184,176,63933,1,0
96,128,64132,2,0,B|72:184|96:232,1,100
256,344,64728,5,0
256,344,65125,1,4
416,88,65721,6,0,B|356:55|312:76|312:76|333:119|306:169,1,200,2|0
224,120,66317,1,0
136,72,66516,2,0,B|104:128|144:176,1,100,2|0
224,344,67112,1,0
272,256,67310,2,0,B|328:288|328:352|328:352|376:352|416:320,1,200,2|0
472,248,67906,1,0
392,192,68105,1,2
463,122,68304,6,0,B|463:82|388:20|322:83|322:122,1,200,0|0
320,224,68900,2,0,B|320:264|245:326|179:263|179:224,1,200,2|0
248,152,69496,1,0
320,80,69694,2,0,B|320:40|245:-22|179:41|179:80,1,200,2|0
104,152,70290,1,0
56,240,70489,2,0,B|112:272|168:232|168:232|168:232|168:232,1,100,2|0
248,272,70886,2,0,B|264:344|344:360|344:360|392:280|392:280,1,200,0|2
416,216,71482,1,0
416,216,72078,6,0,B|328:176|520:96|416:40|416:40,1,200,2|0
336,96,72674,2,0,B|296:8|216:200|160:96|160:96,1,200
64,272,73469,1,0
128,352,73667,2,0,B|176:304|160:240|160:240|264:288|264:288,1,200,2|0
328,312,74263,1,0
256,128,74661,6,0,B|256:88|331:26|397:89|397:128,1,200,0|0
328,200,75257,2,0,B|328:240|253:302|187:239|187:200,1,200,2|0
256,128,75853,1,0
216,40,76051,2,0,B|168:64|160:120|160:120|104:136|96:192,1,200,2|0
80,288,76647,1,0
168,336,76846,2,0,B|224:368|280:328|280:328|280:328|280:328,1,100,2|0
328,264,77243,2,0,B|360:312|360:360|360:360|416:368|456:336,1,200,0|2
424,240,77839,1,0
152,120,78435,6,0,B|200:80|192:32|192:32|232:56|296:32,1,200,2|0
256,128,79031,1,0
352,136,79230,2,0,B|304:176|312:224|312:224|272:200|208:224,1,200,2|0
264,312,79826,1,0
176,360,80025,2,0,B|96:320|184:224|88:192,1,200,2|0
40,280,80621,2,0,B|-16:240|-16:144|48:96,1,200
256,40,81415,5,0
344,80,81614,2,0,B|304:120|248:128|248:128|224:184|248:240,1,200,2|0
336,192,82210,1,0
432,176,82409,2,0,B|448:232|432:280|432:280|392:304|336:296,1,200,2|0
256,352,83005,1,0
176,296,83203,1,2
88,336,83402,6,0,B|64:288|96:232|96:232|72:176|112:120,1,200
192,184,83998,1,2
288,208,84197,2,0,B|304:144|256:112|256:112|312:72|368:88,1,200
384,176,84793,1,2
256,328,85190,5,0
160,328,85389,1,0
56,328,85587,2,0,B|56:288|56:288|56:208|136:208|136:208|192:208,1,200,2|0
304,72,86382,1,2
352,160,86581,2,0,B|304:176|248:160|248:160|272:216|240:272,1,200
56,200,87375,2,0,B|32:136|64:88|120:72|168:96,1,200
240,160,87967,5,2
184,248,88164,1,0
240,336,88360,1,0
296,248,88557,1,2
344,160,88754,1,0
400,248,88951,1,0
344,336,89147,1,2
296,248,89344,1,0
240,160,89541,5,0
184,248,89737,1,2
240,336,89934,1,0
344,336,90131,1,0
400,248,90328,1,2
344,160,90524,1,4
48,112,97109,6,0,B|88:56|144:48|144:48|136:96|168:144,1,200,0|0
464,112,97903,2,0,B|424:56|368:48|368:48|376:96|344:144,1,200,0|0
256,304,98698,1,0
256,104,99095,1,0
80,208,99493,5,2
160,272,99691,1,0
256,304,99890,1,2
352,272,100089,1,0
432,208,100287,1,2
256,104,100685,6,0,B|152:104|40:160,1,200,0|0
256,104,101479,2,0,B|360:104|472:160,1,200,0|0
256,192,102274,1,0
256,192,102671,5,2
160,224,102870,1,0
208,312,103069,1,2
304,312,103267,1,0
344,224,103466,1,2
464,64,103863,6,0,B|416:96|400:136|400:136|384:88|328:64,1,200,0|2
48,64,104658,2,0,B|96:96|112:136|112:136|128:88|184:64,1,200,0|2
256,248,105453,1,0
330,65,105850,5,2
296,160,106049,1,0
256,64,106247,1,2
216,160,106446,1,0
184,64,106646,1,2
256,248,107038,5,0
328,64,107430,2,0,B|328:24|253:-38|187:25|187:64,1,200,0|0
32,192,108214,1,2
112,248,108410,5,0
128,344,108606,1,0
208,296,108802,1,0
256,208,108998,1,2
304,296,109195,1,0
392,344,109391,1,0
408,248,109587,1,0
496,192,109783,5,2
296,192,110221,2,0,B|248:152|152:232|91:187,2,200
256,80,111413,1,0
256,280,111810,1,0
432,176,112207,5,2
352,112,112406,1,0
256,80,112605,1,2
160,112,112803,1,0
80,176,113002,1,2
256,280,113399,6,0,B|360:280|472:224,1,200,0|0
256,280,114194,2,0,B|152:280|40:224,1,200,0|0
256,192,114989,1,0
256,192,115386,5,2
352,160,115585,1,0
304,72,115783,1,2
208,72,115982,1,0
168,160,116181,1,2
48,320,116578,6,0,B|96:288|112:248|112:248|128:296|184:320,1,200,0|2
464,320,117373,2,0,B|416:288|400:248|400:248|384:296|328:320,1,200,0|0
256,136,118167,1,0
182,319,118565,5,2
216,224,118763,1,0
256,320,118962,1,2
296,224,119161,1,0
328,320,119359,1,2
256,136,119757,5,0
184,320,120154,2,0,B|184:360|259:422|325:359|325:320,1,200,0|0
480,192,120949,1,2
400,136,121147,5,0
384,40,121346,1,0
304,88,121545,1,0
256,176,121743,1,2
208,88,121942,1,0
120,40,122141,1,0
104,136,122339,1,0
16,192,122538,5,2
160,328,122935,2,0,B|208:256|288:400|360:314,1,200
488,192,123730,1,0
344,56,124127,2,0,B|296:-16|216:128|144:42,1,200
16,192,124922,5,0
96,248,125121,1,0
192,208,125319,2,0,B|192:264|168:312|168:312|224:296|280:320,1,200
440,224,126114,2,0,B|440:168|464:120|464:120|408:136|352:112,1,200
368,312,126908,1,0
280,144,127306,1,0
320,344,127703,1,0
184,200,128100,5,0
104,256,128299,1,0
32,192,128498,1,0
64,96,128696,1,0
160,112,128895,1,0
352,56,129292,6,0,B|408:96|400:160,1,100
304,136,129690,1,0
176,288,130087,6,0,B|120:248|128:184,1,100
224,208,130484,1,0
408,288,130882,6,0,B|368:344|304:336,1,100
328,240,131279,1,0
328,240,131676,1,0
152,144,132074,6,0,B|112:240|160:344,1,200
360,336,132868,2,0,B|400:240|352:136,1,200
256,312,133663,1,0
256,208,133862,5,0
256,208,133961,1,0
256,208,134060,1,2
203,127,134259,1,0
307,127,134458,1,2
203,127,134656,1,0
307,127,134855,1,2
256,40,135054,1,0
256,40,135252,1,0
384,192,135650,5,0
200,264,136047,1,0
384,320,136444,1,0
272,160,136842,1,0
272,360,137239,1,0
80,296,137636,5,0
32,208,137835,1,0
120,168,138034,1,0
288,64,138431,6,0,B|408:72|432:192,2,200
376,240,139623,2,0,B|256:232|232:112,2,200
184,304,140815,5,0
104,248,141013,1,0
184,192,141212,1,0
128,112,141411,1,0
216,64,141609,1,0
384,176,142007,6,0,B|400:256|336:328|240:312,1,200
128,176,142801,2,0,B|112:256|176:328|272:312,1,200
256,112,143596,1,0
88,320,143993,5,0
40,232,144192,1,0
120,168,144391,1,0
80,80,144589,1,0
80,80,144689,1,0
80,80,144788,1,0
176,104,144981,1,0
256,48,145175,1,0
256,48,145271,5,0
256,48,145368,1,0
336,104,145562,1,0
432,80,145755,1,0
432,80,145852,1,0
432,80,145949,1,0
384,168,146142,1,0
464,224,146336,1,0
464,224,146433,1,0
464,224,146529,1,0
424,320,146723,1,0
336,264,146917,5,0
256,320,147110,2,0,B|216:376,5,66.6666666666667
256,320,147967,5,0
176,264,148165,1,0
336,144,148561,1,0
256,200,148759,1,0
176,16,149155,5,0
256,80,149353,1,0
416,200,149749,1,0
336,144,149947,1,0
256,328,150343,2,0,B|384:288|128:248|267:192,1,200
112,288,151135,5,0
112,192,151333,1,0
256,48,151729,1,0
256,144,151927,1,0
400,288,152323,1,0
400,192,152521,1,0
256,328,152917,1,0
256,224,153115,1,0
152,56,153511,5,0
352,56,153907,1,0
400,248,154303,5,0
304,248,154501,1,0
112,296,154897,1,0
208,296,155095,1,0
400,352,155491,1,0
304,352,155689,1,0
216,168,156085,1,0
112,168,156283,1,0
256,32,156679,5,0
256,32,157075,1,0
368,192,157471,6,0,B|408:240|368:296,1,100
144,192,158066,2,0,B|104:240|144:296,1,100
256,120,158660,1,0
256,224,158858,1,0
256,192,159749,8,4,160681
40,72,161078,6,0,B|104:120|176:16|256:96,1,200,2|0
176,160,161674,2,0,B|240:208|312:104|392:184,1,200,0|0
312,248,162270,1,0
128,320,162667,5,2
80,232,162866,1,0
144,152,163064,1,0
80,72,163263,1,0
168,32,163462,1,2
232,112,163660,1,0
296,40,163859,2,0,B|336:40|398:115|335:181|296:181,1,200,0|2
440,320,164654,5,0
344,344,164852,1,0
248,320,165051,1,2
400,192,165448,2,0,B|360:144|360:104|360:104|328:168|264:168,1,200,0|2
272,64,166044,5,0
192,128,166243,1,0
128,48,166442,1,0
96,144,166640,1,2
8,104,166839,1,0
256,264,167435,5,2
456,248,167832,1,0
272,328,168230,1,2
424,192,168627,1,0
256,80,169024,5,2
184,144,169223,1,0
112,80,169422,1,0
104,176,169620,1,0
8,160,169819,1,2
56,248,170018,1,0
24,344,170216,1,0
224,312,170614,6,0,B|304:272|336:368|424:296,1,200,2|0
360,224,171210,1,0
456,192,171408,1,2
384,120,171607,1,0
88,72,172203,5,2
168,136,172402,1,0
72,168,172600,1,0
152,224,172799,2,0,B|120:272|64:272|64:272|72:320|120:352,1,200
304,280,173594,5,0
232,208,173792,2,0,B|232:168|307:106|373:169|373:208,2,200,2|0|2
400,96,174984,2,0,B|328:64|272:64|208:96,1,200,0|2
120,56,175580,1,0
136,152,175779,1,0
40,144,175978,1,0
80,240,176176,1,2
176,256,176375,1,0
192,352,176573,6,0,B|240:352|272:296|272:296|296:352|344:352,1,200,0|2
464,192,177368,1,0
312,56,177765,1,2
256,144,177964,1,0
200,56,178163,1,0
148,249,178560,5,2
204,329,178759,1,0
308,329,178957,1,0
364,249,179156,1,0
184,160,179553,2,0,B|184:120|259:58|325:121|325:160,1,200
256,232,180149,1,2
72,304,180547,5,0
24,216,180745,2,0,B|72:192|120:216|120:216|96:168|128:112,1,200
208,168,181341,1,0
384,72,181739,5,2
448,144,181937,1,0
368,208,182136,1,0
424,288,182335,1,0
344,344,182533,1,2
264,280,182732,1,0
176,320,182931,1,0
24,192,183325,5,2
224,192,183720,1,0
312,144,183917,2,0,B|344:208|304:264,1,100,0|2
386,52,184509,1,0
434,140,184707,1,0
434,244,184904,1,2
386,332,185102,1,0
192,280,185496,2,0,B|160:240|152:192|160:136|200:72,1,200
416,296,186506,6,0,B|356:329|312:308|312:308|333:265|306:215,1,200,2|0
224,264,187102,1,0
136,312,187300,2,0,B|104:256|144:208,1,100,2|0
224,40,187896,1,0
272,128,188095,2,0,B|328:96|328:32|328:32|376:32|416:64,1,200,2|0
472,136,188691,1,0
392,192,188890,1,2
463,262,189088,6,0,B|463:302|388:364|322:301|322:262,1,200,0|0
320,160,189684,2,0,B|320:120|245:58|179:121|179:160,1,200,2|0
248,232,190280,1,0
320,304,190479,2,0,B|320:344|245:406|179:343|179:304,1,200,2|0
104,232,191075,1,0
56,144,191274,2,0,B|112:112|168:152|168:152|168:152|168:152,1,100,2|0
248,112,191671,2,0,B|264:40|344:24|344:24|392:104|392:104,1,200,0|2
416,168,192267,1,0
416,168,192863,6,0,B|328:208|520:288|416:344|416:344,1,200,2|0
336,288,193459,2,0,B|296:376|216:184|160:288|160:288,1,200
64,112,194254,1,0
128,32,194452,2,0,B|176:80|160:144|160:144|264:96|264:96,1,200,2|0
328,72,195048,1,0
256,256,195446,6,0,B|256:296|331:358|397:295|397:256,1,200,0|0
328,184,196042,2,0,B|328:144|253:82|187:145|187:184,1,200,2|0
256,256,196638,1,0
216,344,196836,2,0,B|168:320|160:264|160:264|104:248|96:192,1,200,2|0
80,96,197432,1,0
168,48,197631,2,0,B|200:104|160:160|160:160|160:160|160:160,1,100,2|0
256,200,198028,2,0,B|232:248|176:248|176:248|176:304|232:328,1,200
320,280,198624,1,0
64,128,199220,6,0,B|112:88|104:40|104:40|144:64|208:40,1,200,2|0
168,136,199816,1,0
264,144,200015,2,0,B|216:184|224:232|224:232|184:208|120:232,1,200,2|0
184,312,200611,1,0
280,312,200810,2,0,B|368:256|384:368|472:304,1,200,8|0
416,224,201406,2,0,B|360:136|472:120|408:32,1,200
216,80,202200,5,0
120,56,202399,2,0,B|104:112|120:160|120:160|160:184|216:176,1,200,2|0
256,264,202995,1,0
352,240,203193,2,0,B|368:296|352:344|352:344|312:368|256:360,1,200,2|0
176,312,203789,1,0
88,360,203988,1,2
56,264,204187,6,0,B|24:168|64:56,1,200
144,128,204783,1,2
224,64,204981,2,0,B|256:160|216:272,1,200
144,192,205577,1,2
304,312,205975,5,0
400,288,206173,1,0
472,216,206372,2,0,B|472:176|397:114|331:177|331:216,1,200,8|0
160,112,207167,1,2
112,200,207365,2,0,B|160:216|216:200|216:200|192:256|224:312,1,200
408,248,208160,2,0,B|432:312|400:360|344:376|296:352,1,200
256,264,208751,5,2
320,184,208947,1,0
416,160,209143,1,0
320,120,209339,1,2
256,40,209535,1,0
192,120,209731,1,0
96,160,209927,1,2
192,184,210123,1,0
256,264,210319,5,2
256,264,210515,1,2
208,352,210711,1,0
208,352,210908,1,0
304,352,211104,1,2
304,352,211300,1,0
256,192,211398,8,0,214633
