osu file format v9

[General]
AudioFilename: Amaranth.mp3
AudioLeadIn: 0
PreviewTime: 71650
Countdown: 1
SampleSet: Normal
StackLeniency: 0.6
Mode: 0
LetterboxInBreaks: 1

[Editor]
Bookmarks: 15166,30399,34149,49149,64149,71649,86649,94149,109149,116649,131649,146649,154149,161649,176649,191649,206649,221649,229149
DistanceSpacing: 1
BeatDivisor: 4
GridSize: 8

[Metadata]
Title:Amaranth
Artist:Nightwish
Creator:KuraiPettan
Version:Shaggaranth
Source:
Tags:ShaggoN

[Difficulty]
HPDrainRate:6
CircleSize:5
OverallDifficulty:6
ApproachRate:8
SliderMultiplier:2.2
SliderTickRate:1

[Events]
//Background and Video events
Video,-234,"Amaranth.AVI"
0,0,"BG.png"
//Break Periods
2,86859,93174
2,146390,153409
2,176859,190205
//Storyboard Layer 0 (Background)
//Storyboard Layer 1 (Fail)
//Storyboard Layer 2 (Pass)
//Storyboard Layer 3 (Foreground)
//Storyboard Sound Samples
//Background Colour Transformations
3,100,163,162,255

[TimingPoints]
15409,468.75,4,1,1,100,1,0
34149,-100,4,1,1,61,0,0
71650,-100,4,1,1,100,0,1
86181,-100,4,1,1,100,0,0
93914,-100,4,1,1,60,0,0
116650,-100,4,1,1,100,0,1
116707,-100,4,1,1,100,0,0
131181,-100,4,1,1,100,0,0
131650,-100,4,1,1,100,0,1
146181,-100,4,1,1,100,0,0
176650,-100,4,1,1,0,0,0
190945,-100,4,1,1,100,0,0
191649,-100,4,1,1,100,0,1
191707,-100,4,1,1,100,0,0
206649,-100,4,1,1,100,0,1
221649,-100,4,1,1,100,0,0

[Colours]
Combo1 : 154,203,52
Combo2 : 209,35,48
Combo3 : 16,152,107
Combo4 : 225,128,19

[HitObjects]
128,176,15174,2,0,B|84:135|72:72,2,110,4|0|0
224,120,15877,2,0,B|349:120|416:32,1,220,8|0
416,144,16580,1,0
416,256,16815,2,0,B|391:305|328:344,1,110,8|0
232,336,17284,1,0
144,264,17518,1,0
76,67,17752,2,0,B|98:116|80:176,1,110,8|0
144,264,18221,1,0
232,192,18455,1,0
416,64,18690,6,0,B|384:104|325:124,2,110,8|0|4
424,176,19393,1,0
344,248,19627,2,0,B|229:252|136:312,2,220,8|0|8
256,184,20799,1,0
160,128,21034,2,0,B|99:109|58:55,1,110
160,216,21502,2,0,B|96:216|40:178,1,110,8|0
352,128,21971,2,0,B|412:109|453:55,1,110
352,216,22439,2,0,B|415:216|471:178,1,110,8|0
256,176,22909,5,4
256,64,23143,1,0
256,176,23377,2,0,B|150:226|356:279|256:352,1,220,8|0
152,312,24080,1,0
64,248,24315,2,0,B|83:192|80:120,1,110,8|0
184,104,24784,1,0
296,104,25018,1,0
408,104,25252,2,0,B|460:139|472:200,1,110,8|0
360,200,25721,2,0,B|388:255|369:314,1,110
280,272,26190,2,0,B|272:334|223:372,1,110,8|0
112,312,26659,5,0
192,240,26893,1,0
32,240,27127,1,8
112,160,27362,1,0
112,48,27596,2,0,B|60:79|40:136,1,110
112,48,28065,2,0,B|164:79|184:136,1,110,8|0
400,72,28534,5,0
320,144,28768,1,0
480,144,29002,1,8
400,224,29237,1,0
400,336,29471,2,0,B|348:305|328:248,1,110
400,336,29940,2,0,B|452:305|472:248,1,110,8|0
256,192,30409,5,4
56,64,30643,2,0,B|100:70|160:112,1,110,0|8
256,192,31112,1,0
56,320,31346,2,0,B|100:314|160:272,1,110,0|8
256,192,31815,1,0
476,192,32049,2,0,B|449:211|410:183|368:192,1,110,0|8
256,64,32518,5,0
256,320,32752,1,0
256,64,32987,1,0
64,192,33221,1,8
256,320,33455,1,0
256,64,33690,1,0
256,320,33924,1,0
256,64,34159,6,0,B|298:103|368:112,1,110,4|0
384,192,34627,1,2
472,192,34862,1,0
424,264,35096,2,0,B|370:290|336:344,1,110
296,264,35565,1,2
216,224,35799,1,0
136,184,36034,2,0,B|116:132|80:88,2,110,0|0|2
216,136,36737,1,0
296,176,36971,2,0,B|281:88|455:139|432:40,2,220,0|2|0
368,232,38143,5,0
432,296,38377,2,0,B|384:337|320:344,1,110,2|0
256,304,38846,1,0
176,344,39080,1,0
96,304,39315,1,2
16,344,39549,1,0
96,304,39784,2,0,B|41:260|40:139|115:97,1,220,0|2
152,184,40487,1,0
200,112,40721,2,0,B|226:159|240:232,1,110
312,256,41190,1,2
376,192,41424,1,0
412,107,41659,6,0,B|472:139|471:260|416:304,2,220,0|2|0
328,120,42830,1,0
240,120,43065,2,0,B|224:65|168:40,2,110,2|0|0
151,120,43768,1,0
88,176,44002,1,2
104,264,44237,2,0,B|177:334|304:344,1,220
444,210,44940,2,0,B|402:242|376:296,1,110,2|0
296,256,45409,5,0
216,224,45643,1,0
296,184,45877,1,2
216,152,46112,1,0
136,120,46346,2,0,B|181:81|192:16,1,110
256,88,46815,5,2
256,88,46932,1,0
256,88,47049,1,0
344,88,47284,1,0
416,32,47518,1,0
488,88,47752,1,2
416,144,47987,1,0
360,32,48221,1,0
472,32,48455,1,0
472,144,48690,1,2
360,144,48924,1,0
280,176,49159,6,0,B|257:116|208:64,1,110,4|0
168,152,49627,1,2
80,160,49862,2,0,B|52:106|48:48,2,110
112,240,50565,1,2
176,304,50799,1,0
256,336,51034,2,0,B|368:336,1,110
504,280,51502,2,0,B|394:280,1,110,2|0
256,224,51971,2,0,B|368:224,1,110
504,168,52440,2,0,B|394:168,1,110,2|0
312,144,52909,5,0
232,112,53143,1,0
301,61,53377,2,0,B|352:87|413:93,2,110,2|0|0
216,32,54080,1,0
128,40,54315,1,2
48,72,54549,1,0
24,160,54784,2,0,B|136:160,1,110
272,216,55252,2,0,B|162:216,1,110,2|0
24,272,55721,2,0,B|136:272,1,110
272,328,56190,2,0,B|162:328,2,110,2|0|0
352,288,56893,5,0
416,224,57127,2,0,B|450:172|464:112,1,110,2|0
384,88,57596,1,0
312,136,57830,1,0
256,72,58065,1,2
256,72,58299,1,0
176,104,58534,2,0,B|129:138|72:152,1,110
40,232,59002,1,2
40,232,59237,1,0
112,280,59471,2,0,B|164:262|232:264,1,110
288,320,59940,1,2
288,320,60174,1,0
360,264,60409,5,0
424,208,60643,1,0
360,144,60877,2,0,B|387:94|445:69,2,110,2|0|0
280,104,61580,1,0
256,192,61815,5,2
256,192,61932,1,0
256,192,62049,1,0
256,272,62284,1,0
176,192,62518,1,0
256,112,62752,1,2
336,192,62987,1,0
176,272,63221,1,0
176,112,63455,1,0
336,112,63690,1,2
336,272,63924,1,0
176,272,64159,6,0,B|120:288|66:272,1,110,4|0
120,200,64627,2,0,B|65:179|32:133,1,110,2|0
120,112,65096,1,0
189,55,65330,1,0
256,112,65565,1,2
256,200,65799,1,0
336,272,66034,6,0,B|392:288|446:272,1,110
392,200,66502,2,0,B|446:179|479:133,1,110,2|0
392,112,66971,1,0
323,55,67205,1,0
256,112,67440,1,2
256,200,67674,1,0
192,264,67909,6,0,B|136:278|72:272,1,110,4|0
88,184,68377,1,2
176,184,68612,1,0
136,104,68846,2,0,B|79:83|48:40,2,110,0|0|2
184,32,69549,1,4
256,80,69784,5,0
256,304,70018,1,2
256,80,70252,1,2
176,192,70487,1,2
216,192,70604,1,2
256,192,70721,1,2
296,192,70838,1,2
336,192,70955,1,2
400,304,71190,1,2
400,80,71424,1,2
400,304,71659,6,0,B|344:283|288:280,1,110,4|0
184,304,72127,1,8
80,280,72362,1,0
56,176,72596,2,0,B|48:119|24:72,2,110,0|0|8
144,112,73299,1,0
248,72,73534,2,0,B|353:81|448:168,1,220,0|8
328,352,74471,2,0,B|223:343|128:256,1,220,0|8
152,152,75174,1,0
248,208,75409,6,0,B|309:212|368:240,1,110
424,320,75877,1,8
440,208,76112,2,0,B|463:108|314:172|328:48,1,220
216,56,76815,1,8
128,128,77049,1,0
128,240,77284,1,0
216,312,77518,1,0
328,312,77752,2,0,B|351:212|202:276|216:152,2,220,8|0|8
416,248,78924,1,0
352,160,79159,6,0,B|392:120|416:64,1,110,4|0
312,40,79627,1,8
208,72,79862,2,0,B|161:44|104:40,1,110
160,136,80330,1,0
64,192,80565,1,8
160,240,80799,1,0
256,288,81034,2,0,B|208:321|152:336,2,110,0|0|8
256,176,81737,1,0
256,288,81971,2,0,B|304:321|360:336,2,110,0|0|8
256,176,82674,1,0
256,192,82909,12,4,86659
88,80,93924,5,0
64,168,94159,1,4
152,152,94393,2,0,B|133:208|136:264,2,110,0|2|0
216,96,95096,1,0
304,96,95330,1,0
376,152,95565,1,2
456,192,95799,1,0
376,232,96034,2,0,B|319:338|197:339,1,220,0|2
88,200,96737,1,0
88,200,96971,2,0,B|144:93|266:92,2,220,0|2|0
168,240,98143,5,0
248,280,98377,2,0,B|284:322|344:336,2,110,2|0|0
328,240,99080,1,0
248,200,99315,1,2
328,160,99549,1,0
248,120,99784,2,0,B|200:59|97:59|56:120,1,220,0|2
56,232,100487,1,0
152,176,100721,2,0,B|263:235|58:286|152:352,2,220,0|2|0
128,64,101893,5,0
216,80,102127,1,2
304,64,102362,1,0
392,80,102596,2,0,B|447:98|488:152,1,110
392,168,103065,2,0,B|435:206|452:271,1,110,2|0
360,272,103534,1,0
280,304,103768,1,0
288,216,104002,2,0,B|278:157|240:112,2,110,2|0|0
208,256,104705,1,0
152,328,104940,2,0,B|177:227|34:260|56:152,1,220,2|0
112,80,105643,5,0
184,136,105877,2,0,B|211:88|256:48,1,110,2|0
312,120,106346,1,0
376,184,106580,1,0
376,272,106815,5,2
376,272,106932,1,0
376,272,107049,1,0
312,216,107284,1,0
440,216,107518,1,0
440,328,107752,1,2
312,328,107987,1,0
376,192,108221,1,0
472,272,108455,1,0
376,352,108690,1,2
280,272,108924,1,0
192,352,109159,6,0,B|148:308|80:288,1,110,4|0
24,248,109627,1,2
24,248,109862,1,0
24,160,110096,2,0,B|68:116|136:96,1,110
176,40,110564,1,2
176,40,110799,1,0
256,64,111034,2,0,B|309:81|328:128|328:128|360:128,1,110
256,144,111502,2,0,B|203:161|184:208|184:208|152:208,1,110,2|0
256,224,111971,2,0,B|309:241|328:288|328:288|360:288,1,110
256,296,112440,2,0,B|203:313|184:360|184:360|152:360,1,110,2|0
320,352,112909,6,0,B|364:308|432:288,1,110
488,248,113377,1,2
488,248,113612,1,0
488,160,113846,2,0,B|444:116|376:96,1,110
336,40,114314,1,2
336,40,114549,1,0
256,72,114784,5,0
256,312,115018,1,2
256,72,115252,1,2
336,192,115487,1,2
296,192,115604,1,2
256,192,115721,1,2
216,192,115838,1,2
176,192,115955,1,2
112,312,116190,1,2
112,72,116424,1,2
112,312,116659,6,0,B|172:303|216:264,1,110,4|0
296,336,117127,1,8
387,268,117362,2,0,B|426:302|486:311,2,110
448,176,118065,1,8
400,80,118299,1,0
288,64,118534,2,0,B|160:12|96:128,1,220,0|8
120,232,119237,1,0
224,184,119471,2,0,B|274:161|336:168,2,110,0|0|8
288,240,120174,1,0
232,336,120409,6,0,B|98:342|48:240,1,220,0|8
168,56,121112,2,0,B|302:50|352:152,1,220
448,104,121815,1,8
416,208,122049,1,0
328,280,122284,2,0,B|381:299|432:336,2,110,0|0|8
312,168,122987,1,0
256,72,123221,2,0,B|175:75|163:187|80:200,2,220,0|8|4
368,72,124393,5,0
424,168,124627,1,8
368,264,124862,2,0,B|314:290|280:344,1,110
175,335,125330,1,0
88,264,125565,1,8
88,152,125799,1,0
184,208,126034,2,0,B|228:242|256:295,1,110
224,152,126502,2,0,B|197:102|153:68,1,110,8|0
288,136,126971,2,0,B|332:170|360:223,2,110,0|0|8
256,32,127674,1,0
256,192,127909,12,4,131190
432,72,131659,6,0,B|393:114|336:144,1,110,4|0
256,72,132127,1,8
166,138,132362,2,0,B|119:114|80:72,2,110
256,200,133065,1,8
256,312,133299,1,0
352,256,133534,2,0,B|407:273|448:320,1,110
352,184,134002,2,0,B|409:178|465:205,1,110,8|0
160,256,134471,2,0,B|105:273|64:320,1,110
160,184,134939,2,0,B|102:178|46:205,2,110,8|0|0
256,136,135643,5,0
160,88,135877,1,8
256,40,136112,2,0,B|367:59|448:152,1,220
464,256,136815,1,8
384,336,137049,1,0
352,232,137284,2,0,B|326:202|285:197|264:168,2,110,0|0|8
280,312,137987,1,0
192,248,138221,2,0,B|75:208|22:109,2,220,0|8|4
168,144,139393,5,0
264,200,139627,1,8
368,232,139862,2,0,B|426:218|476:159,1,110
360,144,140330,2,0,B|402:102|414:25,1,110,0|8
304,64,140799,1,0
208,120,141034,1,0
304,168,141268,1,0
208,224,141502,2,0,B|161:249|121:239|121:239|104:256,1,110,8|0
304,264,141971,2,0,B|351:289|391:279|391:279|408:296,2,110,0|0|8
208,320,142674,1,0
256,192,142909,12,0,146190
64,64,154159,5,0
64,64,154393,1,0
208,240,154627,2,0,B|147:218|107:144,1,110,2|0
184,32,155096,1,0
184,32,155330,1,0
256,200,155565,2,0,B|221:157|203:99,1,110,2|0
328,32,156034,1,0
328,32,156268,1,0
256,200,156502,2,0,B|291:157|309:99,1,110,2|0
448,64,156971,1,0
448,64,157205,1,0
304,240,157439,2,0,B|365:218|405:144,1,110,2|0
448,320,157909,5,0
448,320,158143,1,0
304,144,158377,2,0,B|365:166|405:240,1,110,2|0
328,352,158846,1,0
328,352,159080,1,0
256,184,159315,2,0,B|291:227|309:285,1,110,2|0
184,352,159784,1,0
184,352,160018,1,0
256,184,160252,2,0,B|221:227|203:285,1,110,2|0
64,320,160721,1,0
64,320,160955,1,0
208,144,161189,2,0,B|147:166|107:240,1,110,2|0
256,305,161659,6,0,B|376:345|504:193|368:25|241:78,1,440,4|0
256,184,162830,1,0
144,184,163065,2,0,B|130:129|147:70,1,110
255,75,163534,2,0,B|376:40|504:192|367:358|244:299,1,440,4|0
256,200,164705,1,0
144,200,164940,2,0,B|130:255|147:314,1,110,2|0
255,308,165409,6,0,B|306:335|384:336,1,110
336,232,165877,2,0,B|393:237|466:209,1,110,2|0
376,128,166346,2,0,B|426:100|471:36,2,110,0|0|2
318,33,167049,1,0
256,128,167284,2,0,B|136:112|64:24,2,220,0|2|0
344,192,168455,1,0
256,256,168690,1,2
168,192,168924,1,0
256,82,169159,6,0,B|256:192,1,110,4|0
311,96,169627,2,0,B|256:192,1,110,2|0
351,137,170096,2,0,B|256:192,1,110
366,192,170565,2,0,B|256:192,1,110,2|0
351,247,171034,2,0,B|256:192,1,110
311,287,171502,2,0,B|256:192,1,110,2|0
256,302,171971,2,0,B|256:192,1,110
201,287,172440,2,0,B|256:192,1,110,2|0
160,247,172909,2,0,B|256:192,1,110
146,192,173377,2,0,B|256:192,1,110,2|0
160,137,173846,2,0,B|256:192,1,110
201,96,174315,2,0,B|256:192,1,110,2|0
352,96,174784,5,0
352,288,175018,1,0
160,288,175252,1,2
160,96,175487,1,0
384,192,175721,1,0
256,320,175955,1,2
128,192,176190,1,2
256,64,176424,1,2
256,192,176659,1,0
256,192,190955,5,8
256,192,191424,1,8
104,64,191659,6,0,B|96:121|64:176,1,110,4|0
168,216,192127,1,8
216,312,192362,2,0,B|158:315|104:336,2,110
320,288,193065,1,8
424,256,193299,1,0
416,144,193534,2,0,B|376:96|360:32,1,110
96,144,194002,2,0,B|136:96|152:32,1,110,8|0
368,200,194471,2,0,B|324:154|304:92,1,110
144,200,194940,2,0,B|187:154|207:92,1,110,8|0
256,208,195409,5,0
192,296,195643,1,0
280,360,195877,1,8
344,272,196112,2,0,B|422:184|408:56,1,220
312,120,196815,1,8
208,152,197049,1,0
104,120,197284,2,0,B|74:66|24:32,2,110,0|0|8
128,224,197987,1,0
232,256,198221,2,0,B|266:325|354:351|432:344,2,220,0|8|4
336,216,199393,5,0
232,192,199627,1,8
128,160,199862,2,0,B|78:124|98:60,1,110
208,48,200330,1,0
304,96,200565,1,8
208,152,200799,1,0
304,200,201034,1,0
208,256,201268,1,0
304,200,201502,2,0,B|345:157|408:136,1,110,8|0
208,200,201971,2,0,B|167:157|104:136,2,110,0|0|8
256,304,202674,1,0
256,192,202909,12,4,205721
256,192,206190,5,4
432,56,206659,6,0,B|410:103|400:160,1,110,4|0
336,248,207127,1,8
240,304,207362,2,0,B|192:334|136:344,2,110
144,248,208065,1,8
48,192,208299,1,0
144,136,208534,2,0,B|129:78|129:25,1,110
264,144,209002,2,0,B|280:87|308:42,1,110,8|0
376,200,209471,2,0,B|428:171|479:159,1,110
376,320,209940,2,0,B|432:336|477:364,2,110,8|0|0
280,264,210643,5,0
176,304,210877,1,8
72,264,211112,2,0,B|62:148|152:64,1,220
216,160,211815,1,8
288,72,212049,2,0,B|323:119|392:144,1,110
464,136,212518,2,0,B|429:183|360:208,1,110,0|8
288,272,212987,1,0
176,272,213221,2,0,B|136:152|0:184,2,220,0|8|4
232,368,214393,5,0
344,368,214627,1,8
384,264,214862,2,0,B|395:201|424:152,1,110
360,64,215330,1,0
256,88,215565,1,8
192,272,215799,1,0
352,168,216034,1,0
160,168,216268,1,0
320,272,216502,2,0,B|373:299|408:352,1,110,8|0
192,272,216971,2,0,B|139:299|104:352,1,110
256,160,217440,2,0,B|232:120|279:83|256:48,1,110,8|0
256,192,217909,12,4,220721
256,192,221190,5,4
256,192,221659,5,4
456,320,221893,2,0,B|412:314|352:272,1,110,0|8
256,192,222362,1,0
456,64,222596,2,0,B|412:70|352:112,1,110,0|8
256,192,223065,1,0
36,192,223299,2,0,B|63:173|102:201|144:192,1,110,0|8
256,320,223768,5,0
256,64,224002,1,8
256,320,224237,1,0
448,192,224471,1,8
256,64,224705,1,0
256,320,224940,1,8
256,64,225174,1,0
256,192,225409,5,8
104,64,225643,1,0
104,64,225877,1,0
256,192,226112,1,8
408,64,226346,1,0
408,64,226580,1,0
256,192,226815,1,8
256,352,227049,1,8
352,112,227518,5,0
160,112,227752,1,8
256,296,227986,1,0
160,112,228455,5,0
352,112,228689,1,8
256,296,228924,1,0
