osu file format v9

[General]
AudioFilename: Amaranth.mp3
AudioLeadIn: 0
PreviewTime: 71650
Countdown: 1
SampleSet: Normal
StackLeniency: 0.7
Mode: 0
LetterboxInBreaks: 1

[Editor]
Bookmarks: 21025,141259,141376
DistanceSpacing: 1
BeatDivisor: 4
GridSize: 8

[Metadata]
Title:Amaranth
Artist:Nightwish
Creator:KuraiPettan
Version:Normal
Source:
Tags:ShaggoN

[Difficulty]
HPDrainRate:3
CircleSize:4
OverallDifficulty:3
ApproachRate:4
SliderMultiplier:1.6
SliderTickRate:1

[Events]
//Background and Video events
Video,-234,"Amaranth.AVI"
0,0,"BG.png"
//Break Periods
2,86389,92838
2,154123,160338
2,176858,190338
//Storyboard Layer 0 (Background)
//Storyboard Layer 1 (Fail)
//Storyboard Layer 2 (Pass)
//Storyboard Layer 3 (Foreground)
//Storyboard Sound Samples
//Background Colour Transformations
3,100,163,162,255

[TimingPoints]
15409,468.75,4,1,1,100,1,0
71650,-100,4,1,1,100,0,1
86181,-100,4,1,1,100,0,0
116650,-100,4,1,1,100,0,1
131181,-100,4,1,1,100,0,0
131650,-100,4,1,1,100,0,1
146181,-100,4,1,1,100,0,0
161416,-200,4,1,1,100,0,0
176650,-100,4,1,1,100,0,0
191649,-100,4,1,1,100,0,1
206180,-100,4,1,1,100,0,0
206649,-100,4,1,1,100,0,1
221649,-100,4,1,1,100,0,0

[Colours]
Combo1 : 154,203,52
Combo2 : 209,35,48
Combo3 : 16,152,107
Combo4 : 225,128,19

[HitObjects]
216,32,15174,2,0,B|168:112|224:192,1,160
296,200,15877,2,0,B|344:280|288:360,1,160,8|0
216,344,16580,2,0,B|136:296,1,80,0|8
200,240,17049,6,0,B|128:192,1,80
256,96,17752,2,0,B|256:16,2,80,8|0|0
312,240,18689,2,0,B|384:192,2,80,8|0|0
240,280,19392,2,0,B|256:320|312:328,1,80,0|8
464,328,20095,5,0
376,192,20564,1,8
256,80,21033,2,0,B|224:56|184:48|184:48|144:56|104:80,1,160,0|8
40,224,21971,1,0
200,232,22439,2,0,B|224:192|288:200,2,80,8|0|0
264,280,23142,2,0,B|288:368,1,80,0|8
384,232,23845,6,0,B|441:224|451:166|411:120|354:146,1,160,0|8
224,208,24783,2,0,B|144:250|56:207,1,160,0|8
147,72,25721,1,0
320,56,26189,5,8
392,96,26424,1,0
344,160,26658,2,0,B|328:248|384:312,2,160,0|8|0
256,296,28064,1,8
168,160,28533,2,0,B|184:248|128:312,2,160,0|8|0
256,32,29939,1,0
320,176,30408,6,0,B|320:224|352:256,1,80,8|0
408,304,30877,1,0
424,144,31345,6,0,B|424:96|392:64,1,80,8|0
256,144,32049,1,0
88,144,32517,2,0,B|88:96|120:64,2,80
192,264,33455,2,0,B|192:312|160:344,2,80
168,184,34158,6,0,B|160:96|256:32,1,160,0|8
344,200,35095,2,0,B|352:288|256:352,1,160,0|8
128,272,36033,5,0
104,112,36502,1,8
256,56,36970,1,0
408,112,37439,1,8
384,272,37908,1,0
256,176,38377,6,0,B|224:240|224:240|200:248|200:248|160:320,2,160,8|0|8
96,192,39783,1,0
184,56,40252,2,0,B|264:8|336:56,1,160,8|0
416,192,41189,1,8
256,224,41658,1,0
176,360,42127,6,0,B|120:304|128:200,2,160,2|0|2
336,360,43533,2,0,B|392:304|384:200,1,160,0|8
256,120,44470,2,0,B|256:296,2,160,0|8|0
104,64,45877,1,8
256,24,46345,1,0
408,64,46815,1,8
256,192,47283,12,0,49158
256,40,49627,5,2
384,136,50095,1,0
336,288,50564,1,8
176,288,51033,1,0
128,136,51502,1,8
256,40,51970,6,0,B|328:40|328:40|376:64|424:64,2,160,0|8|0
256,192,53377,2,0,B|96:192,2,160,8|0|8
256,344,54783,2,0,B|328:344|328:344|376:320|424:320,2,160,0|8|0
312,192,56189,5,8
416,72,56658,1,0
256,96,57127,1,8
96,72,57595,1,0
200,192,58064,1,8
256,344,58533,6,0,B|336:344|416:288,1,160,0|8
256,248,59470,2,0,B|176:248|96:192,1,160,0|8
256,152,60408,2,0,B|336:152|416:96,2,160,0|8|0
256,192,61815,12,2,63690
192,40,64158,6,0,B|167:71|116:72|116:72|132:115|93:166,1,160,0|2
256,192,65095,1,0
320,344,65564,2,0,B|344:312|395:311|395:311|379:268|418:217,1,160,8|0
416,80,66502,5,8
256,48,66970,1,0
96,80,67440,1,8
224,184,67908,6,0,B|221:270|123:305,1,160,0|8
288,328,68845,2,0,B|291:242|389:207,1,160,0|8
456,176,69549,2,0,B|496:144|496:96,3,80
328,72,70720,2,0,B|264:88|256:104|256:104|248:88|184:72,1,160,0|8
256,216,71658,6,0,B|256:376,2,160,0|8|0
96,192,73064,6,0,B|104:240|64:288,1,80,8|0
22,211,73533,1,0
104,72,74002,1,8
256,128,74470,1,0
408,72,74939,1,8
490,211,75408,1,0
416,192,75642,2,0,B|408:240|448:288,2,80,0|8|0
256,232,76580,6,0,B|240:280|192:296,1,80,0|8
128,320,77049,1,0
112,240,77283,2,0,B|95:165|95:165|113:151|113:151|96:77,3,160,0|8|0|8
256,64,79158,6,0,B|320:32|360:96|424:56,2,160,0|8|0
352,192,80564,1,8
256,320,81033,2,0,B|320:352|360:288|424:328,2,160,0|8|0
160,192,82439,1,8
256,64,82908,5,0
464,192,83611,1,0
256,320,84314,1,0
256,192,84783,12,8,86189
344,200,94158,6,0,B|352:288|256:352,1,160,0|8
168,184,95095,2,0,B|160:96|256:32,1,160,0|8
384,112,96033,5,0
408,272,96502,1,8
256,328,96970,1,0
104,272,97439,1,8
128,112,97908,1,0
256,208,98377,6,0,B|288:144|288:144|312:136|312:136|352:64,2,160,8|0|8
416,192,99783,1,0
328,328,100252,2,0,B|248:376|176:328,1,160,8|0
96,192,101189,1,8
256,160,101658,1,0
336,24,102127,6,0,B|392:80|384:184,2,160,2|0|2
176,24,103533,2,0,B|120:80|128:184,1,160,0|8
256,264,104470,2,0,B|256:88,2,160,0|8|0
400,192,105877,5,8
477,55,106345,1,0
319,84,106814,1,8
256,192,107283,12,4,109158
256,344,109627,5,8
128,248,110095,1,0
176,96,110564,1,8
336,96,111033,1,0
384,248,111502,1,8
256,344,111970,6,0,B|184:344|184:344|136:320|88:320,2,160,0|8|0
256,192,113377,2,0,B|416:192,2,160,8|0|8
256,40,114783,2,0,B|184:40|184:40|136:64|88:64,2,160,0|8|0
200,192,116189,5,8
96,312,116658,1,0
256,288,117127,1,8
416,312,117595,1,0
312,192,118064,1,8
256,40,118533,6,0,B|176:40|96:96,1,160,0|8
256,136,119470,2,0,B|336:136|416:192,1,160,0|8
256,232,120408,2,0,B|176:232|96:288,1,160,0|8
256,328,121345,2,0,B|336:328|416:384,1,160,0|8
256,192,122283,12,8,123689
320,344,124158,6,0,B|345:313|396:312|396:312|380:269|419:218,1,160,0|2
256,192,125095,1,0
192,40,125564,2,0,B|168:72|117:73|117:73|133:116|94:167,1,160,8|0
416,304,126502,5,8
256,336,126970,1,0
96,304,127440,1,8
224,200,127908,6,0,B|221:114|123:79,1,160,0|8
288,56,128845,2,0,B|291:142|389:177,1,160,0|8
256,192,129783,12,0,131189
256,192,131658,6,0,B|256:112,3,80
376,216,132830,2,0,B|408:248|408:304,1,80
256,352,133533,1,0
96,288,134002,2,0,B|104:200|16:144,2,160,8|0|8
224,192,135409,2,0,B|224:112|320:64,2,160,0|8|0
304,336,136814,6,0,B|392:320|432:248,1,160
272,192,137752,1,0
304,48,138220,2,0,B|392:64|432:136,1,160
272,192,139158,6,0,B|224:160|160:232|104:184,1,160
152,120,139861,1,0
384,72,140564,5,0
360,232,141033,1,0
256,352,141502,1,0
152,232,141970,1,0
128,72,142439,1,0
256,168,142908,6,0,B|296:112|296:112|208:80|208:80|256:16,2,240
256,192,144783,12,0,146189
192,208,146658,6,0,B|192:160|160:128,1,80,8|0
104,80,147127,1,0
88,240,147595,6,0,B|88:288|120:320,1,80,8|0
256,240,148299,1,0
424,240,148767,2,0,B|424:288|392:320,2,80
320,120,149705,2,0,B|320:72|352:40,2,80
160,120,150642,6,8,B|120:104|80:120,1,80
160,264,151345,2,8,B|120:280|80:264,1,80
224,192,152049,1,0
368,272,152517,2,0,B|448:288,2,80,0|8|0
368,112,153455,2,0,B|448:96,2,80,0|8|0
208,112,161658,6,0,B|264:80|320:152|368:104,1,160
360,272,163533,2,0,B|304:240|248:312|200:264,1,160
104,144,165408,2,0,B|56:144|32:192|56:256|120:240,2,160
256,192,168220,6,0,B|312:128,1,80
352,200,169158,2,0,B|376:296|480:288,1,160
424,136,171033,2,0,B|400:40|296:48,1,160
152,88,172908,5,0
104,152,173377,1,0
104,232,173845,1,0
152,296,174314,1,0
256,192,174783,12,0,176658
256,168,191658,6,0,B|240:120|280:56|256:10,2,160,0|8|0
416,192,193064,6,0,B|408:144|448:96,1,80,8|0
490,173,193533,1,0
408,312,194002,1,8
256,256,194470,1,0
104,312,194939,1,8
22,173,195408,1,0
96,192,195642,2,0,B|104:144|64:96,2,80,0|8|0
256,152,196580,6,0,B|272:104|320:88,1,80,0|8
384,64,197049,1,0
400,144,197283,2,0,B|417:219|417:219|399:233|399:233|416:307,3,160,0|8|0|8
256,320,199158,6,0,B|192:352|152:288|88:328,2,160,0|8|0
160,192,200564,1,8
256,64,201033,2,0,B|192:32|152:96|88:56,2,160,0|8|0
352,192,202439,1,8
256,320,202908,5,0
48,192,203611,1,0
256,64,204314,1,0
256,192,204783,12,8,206189
256,80,206658,5,0
376,192,207127,1,8
256,304,207595,1,0
144,192,208064,1,8
256,192,208299,12,0,210408
256,192,210877,37,8
456,328,211580,22,0,B|456:248,1,80,0|8
376,232,212049,2,0,B|352:200|352:152,1,80
256,32,212752,1,8
160,160,213220,1,0
256,288,213689,1,8
416,288,214158,6,0,B|448:312|464:360,2,80,0|0|8
352,240,214861,1,0
256,112,215330,6,0,B|176:80,1,80,0|8
64,192,216033,1,0
184,304,216502,1,8
296,192,216970,2,0,B|302:197|376:224,1,80
448,248,217439,1,8
400,96,217908,5,0
176,192,218611,1,0
400,288,219314,1,0
256,192,219783,12,0,221658
