osu file format v9

[General]
AudioFilename: Amaranth.mp3
AudioLeadIn: 0
PreviewTime: 71650
Countdown: 1
SampleSet: Normal
StackLeniency: 0.7
Mode: 0
LetterboxInBreaks: 1

[Editor]
Bookmarks: 21025,141259
DistanceSpacing: 1
BeatDivisor: 4
GridSize: 8

[Metadata]
Title:Amaranth
Artist:Nightwish
Creator:KuraiPettan
Version:Hard
Source:
Tags:ShaggoN

[Difficulty]
HPDrainRate:6
CircleSize:4
OverallDifficulty:6
ApproachRate:8
SliderMultiplier:2.1
SliderTickRate:1

[Events]
//Background and Video events
Video,-234,"Amaranth.AVI"
0,0,"BG.png"
//Break Periods
2,154124,160674
2,176857,190205
//Storyboard Layer 0 (Background)
//Storyboard Layer 1 (Fail)
//Storyboard Layer 2 (Pass)
//Storyboard Layer 3 (Foreground)
//Storyboard Sound Samples
//Background Colour Transformations
3,100,163,162,255

[TimingPoints]
15409,468.75,4,1,1,100,1,0
71650,-100,4,1,1,100,0,1
86181,-100,4,1,1,100,0,0
116650,-100,4,1,1,100,0,1
131181,-100,4,1,1,100,0,0
131650,-100,4,1,1,100,0,1
146181,-100,4,1,1,100,0,0
161416,-200,4,1,1,100,0,0
176650,-100,4,1,1,100,0,0
191649,-100,4,1,1,100,0,1
206180,-100,4,1,1,100,0,0
206649,-100,4,1,1,100,0,1
221649,-100,4,1,1,100,0,0

[Colours]
Combo1 : 154,203,52
Combo2 : 209,35,48
Combo3 : 16,152,107
Combo4 : 225,128,19

[HitObjects]
256,40,15174,5,8
112,192,15643,5,0
160,288,15877,2,0,B|208:328|264:344|288:344|288:344,1,105
360,344,16345,2,0,B|416:344|464:281|416:208|360:208,1,210,0|8
256,192,17049,1,0
152,176,17283,6,0,B|96:176|50:112|96:40|152:40,1,210,0|8
256,72,17987,1,0
360,40,18220,2,0,B|416:40|462:104|416:176|360:176,1,210,0|8
320,272,18924,5,0
256,352,19159,1,0
192,272,19393,1,0
152,176,19627,2,0,B|120:64|-8:64,2,210,8|0|8
312,312,21033,6,0,B|360:296|416:312|416:312|392:256|416:208,1,210,0|8
480,128,21736,1,0
376,104,21970,2,0,B|388:42|468:24,2,105,0|0|8
304,184,22674,1,0
208,232,22909,5,0
112,280,23142,1,0
32,344,23377,1,8
320,40,23845,5,0
464,192,24314,1,8
320,344,24783,1,0
232,152,25252,6,0,B|216:96|146:86,1,105,8|0
144,192,25720,1,0
48,232,25955,2,0,B|64:288|133:297,1,105,0|8
288,72,26658,6,0,B|352:16|424:136|488:64,1,210,0|2
224,312,27595,2,0,B|160:368|88:248|24:320,1,210,0|2
64,40,28533,5,0
112,128,28767,1,0
200,192,29002,1,8
256,280,29236,1,0
312,192,29470,1,0
400,128,29705,1,0
448,40,29939,1,8
240,56,30408,5,0
152,112,30642,1,8
48,96,30877,2,0,B|0:184|64:264,1,157.5,8|0
96,272,31345,1,0
192,312,31580,2,0,B|244:331|311:288|291:203|238:184,1,210,8|0
392,40,32517,5,0
432,136,32752,1,0
472,232,32986,1,8
120,344,33455,5,0
80,248,33690,1,0
40,152,33924,1,8
128,104,34158,6,0,B|232:64|336:104,1,210,0|8
272,192,34861,1,0
360,248,35095,1,0
160,320,35564,6,0,B|104:328|44:268|72:192|124:172,1,210,8|0
128,72,36267,1,0
208,144,36502,2,0,B|264:136|324:196|296:272|244:292,1,210,8|0
416,152,37439,6,0,B|208:224,1,210,8|0
112,248,38142,2,0,B|56:224|40:168,1,105,0|8
144,152,38611,2,0,B|121:95|149:44,1,105
352,96,39314,1,8
424,176,39549,5,0
376,272,39783,2,0,B|336:304|320:368|320:368|288:320|208:320,1,210,0|8
136,328,40486,2,0,B|104:288|120:224,1,105
288,96,41189,6,0,B|344:112|384:136|384:136|424:112|488:96,2,210,8|0|8
184,64,42361,1,0
80,96,42595,1,0
256,216,43064,6,0,B|312:224|312:296,1,105,8|0
207,276,43533,2,0,B|160:241|158:159|228:122|279:139,1,210,0|8
368,184,44236,1,0
448,112,44470,1,0
256,32,44939,5,8
64,112,45408,1,0
256,192,45877,2,0,B|320:216|320:296,1,105,8|0
216,288,46345,1,0
216,288,46814,1,8
256,80,47283,5,0
360,56,47517,1,0
448,120,47752,1,2
256,304,48220,5,0
152,328,48454,1,0
64,264,48689,1,2
48,56,49158,6,0,B|48:152|208:40|208:176,1,210,0|2
296,104,49861,1,0
288,208,50095,1,0
104,304,50564,2,0,B|56:272|56:208,1,105,8|0
48,112,51033,2,0,B|37:56|93:-6|171:17|193:68,1,210,0|8
264,256,51970,5,0
336,336,52205,1,0
440,312,52439,1,8
480,104,52908,2,0,B|432:72|344:144|256:96,1,210,0|8
192,40,53611,1,0
104,104,53845,1,0
160,192,54080,1,0
104,280,54314,1,8
192,344,54549,5,0
256,264,54783,2,0,B|320:176|456:168,2,210,0|8|0
256,264,56189,2,0,B|192:176|56:168,2,210,0|0|8
328,336,57361,1,0
408,272,57595,1,0
256,128,58064,6,0,B|192:136|152:80,1,105,8|0
240,32,58533,2,0,B|160:240,1,210,0|8
272,352,59470,2,0,B|352:144,1,210,0|8
160,256,60408,2,0,B|104:248|88:184,1,105
184,152,60877,1,8
256,192,60994,12,0,62283
48,336,62517,5,0
120,256,62752,1,2
224,224,62986,1,0
296,152,63220,1,0
392,128,63455,1,0
464,48,63689,1,2
480,296,64158,6,0,B|392:296|392:296|368:328|368:328|272:328,1,210,0|2
184,328,64861,1,0
104,264,65095,1,0
152,56,65564,6,0,B|200:24|264:40,1,105,8|0
376,208,66033,2,0,B|328:240|264:224,1,105
312,128,66502,2,0,B|376:88|456:112|488:184|456:240,2,210,8|0|8
200,256,67908,6,0,B|136:296|56:272|24:200|56:144,1,210,0|8
128,120,68611,1,0
56,40,68845,1,0
256,104,69314,2,0,B|320:112|336:176,1,105,8|0
336,272,69783,2,0,B|272:264|256:200,2,105,0|0|8
432,224,70486,5,0
432,224,70603,1,0
432,224,70720,1,0
432,120,70955,2,0,B|368:120|336:184,1,105,0|8
256,104,71424,1,0
255,205,71658,5,0
154,171,71892,1,0
192,269,72127,1,8
86,273,72361,1,4
296,304,72830,5,0
328,208,73064,2,0,B|398:229|394:311,2,105,8|8|0
136,120,74002,1,8
344,80,74470,1,8
200,232,74939,1,8
224,24,75408,5,8
216,128,75642,1,0
312,168,75877,2,0,B|352:200|344:264,1,105,8|0
144,336,76580,1,0
48,296,76814,1,8
24,192,77049,1,0
47,89,77283,6,0,B|86:139|138:129|138:129|102:182|116:238,1,210,0|8
256,72,78220,1,0
395,229,78689,1,8
192,192,79158,6,0,B|208:256|160:296,1,105
320,192,79627,2,0,B|304:256|352:296,1,105,8|0
408,88,80330,5,0
312,48,80564,1,8
256,136,80799,1,0
256,136,81033,1,0
200,48,81267,1,0
104,88,81502,1,8
176,288,81970,5,0
256,352,82205,1,0
336,288,82439,1,8
416,96,82908,6,0,B|448:152|416:208,1,105
328,152,83377,1,8
264,240,83611,2,0,B|216:272|137:244|128:163|166:123,1,210
96,48,84314,1,8
256,192,84783,12,8,86189
256,336,86658,6,0,B|320:336|344:272,1,105
248,232,87127,2,0,B|215:184|243:105|324:96|364:134,1,210,8|0
464,136,87830,2,0,B|496:183|468:262|387:271|347:233,1,210
256,56,88767,5,0
152,72,89002,1,8
48,88,89236,1,0
256,328,89705,5,0
360,312,89940,1,8
464,296,90174,1,0
304,160,90642,5,0
216,104,90877,2,0,B|169:72|90:100|81:181|119:221,1,210,8|0
216,216,91580,2,0,B|48:40,1,210
64,272,92517,5,0
152,336,92752,1,8
256,352,92986,1,0
448,112,93455,5,0
360,48,93690,1,8
256,32,93924,1,0
256,136,94158,6,0,B|144:160|48:64,1,210,0|8
256,248,95095,2,0,B|384:224|464:320,1,210,0|8
440,200,95799,1,0
472,96,96033,5,0
256,40,96502,1,8
40,96,96970,1,0
184,248,97439,2,0,B|232:272|256:324|256:324|280:272|328:248,1,210,8|0
448,72,98377,6,0,B|392:104|408:184,1,105,8|0
424,264,98845,1,0
64,72,99314,2,0,B|120:104|104:184,1,105,8|0
88,264,99783,6,0,B|72:336|144:376|216:368|232:272,1,210,0|8
424,120,100720,2,0,B|440:48|368:8|296:16|280:112,2,210,0|8|0
336,184,101892,1,0
352,288,102127,1,8
256,328,102361,1,0
160,288,102595,2,0,B|112:256|120:184|120:184|216:104,1,210,0|8
272,64,103299,5,0
272,64,103533,2,0,B|320:96|312:168|312:168|216:248,1,210,0|8
160,288,104236,1,0
248,336,104470,1,0
336,280,104705,1,0
440,256,104939,1,8
248,48,105408,5,0
336,104,105643,1,0
440,128,105877,1,8
256,192,105994,12,0,107283
224,296,107517,6,0,B|151:216,1,105,0|2
255,213,107986,2,0,B|182:133,1,105
287,131,108455,2,0,B|214:51,1,105,0|2
424,72,109158,6,0,B|488:184|416:288,1,210,0|8
344,336,109861,1,0
256,272,110095,2,0,B|192:160|264:56,1,210,0|8
144,80,110799,1,0
56,144,111033,1,0
120,232,111267,1,0
40,304,111502,1,8
232,224,111970,6,0,B|288:232|304:296,1,105
200,328,112439,1,8
352,184,112908,6,0,B|288:136|288:136|296:96|296:96|216:32,1,210,0|8
152,112,113611,1,0
64,56,113845,1,0
160,248,114314,1,8
256,296,114549,2,0,B|360:360,1,105
352,248,115017,2,0,B|408:224|416:152,1,105,0|8
312,144,115486,5,0
312,144,115603,1,0
312,144,115720,1,0
280,48,115955,1,0
280,48,116189,1,8
200,112,116424,1,0
96,96,116658,6,0,B|104:32|184:8,2,105,0|0|8
88,200,117361,1,4
256,320,117830,2,0,B|312:296|336:232,1,105,0|8
424,288,118299,6,0,B|446:231|418:169,1,105
256,64,119002,1,8
80,184,119470,1,0
256,320,119939,1,8
352,136,120408,5,0
320,240,120642,1,0
360,336,120877,1,8
256,320,121111,1,0
152,344,121345,1,0
80,264,121580,6,0,B|56:216|88:152,1,105,0|8
176,208,122049,1,0
168,104,122283,2,0,B|215:72|294:100|303:181|265:221,3,210,0|8|0|8
400,48,124158,6,0,B|360:192,1,105
344,256,124627,1,8
320,360,124861,1,0
112,344,125330,5,0
168,256,125564,1,8
256,192,125799,1,0
256,192,126033,1,0
168,128,126267,1,0
112,40,126501,1,8
312,112,126970,5,0
384,192,127205,1,0
312,272,127439,1,8
208,88,127908,6,0,B|161:56|82:84|73:165|111:205,1,210,0|8
104,304,128611,2,0,B|151:336|230:308|239:227|201:187,1,210
304,160,129314,1,8
256,192,129783,12,8,131189
432,40,131658,5,0
408,144,131892,1,0
384,248,132127,1,8
360,352,132361,1,4
80,40,132830,5,0
104,144,133064,1,8
128,248,133299,1,0
152,352,133533,2,0,B|96:360|24:328|16:240|40:184,1,210,0|8
360,352,134470,38,0,B|416:360|488:328|496:240|472:184,1,210,0|8
336,72,135408,21,0
304,168,135642,2,0,B|280:232|208:232,1,105,0|8
216,128,136111,1,0
104,304,136580,5,0
203,337,136814,1,8
307,337,137048,1,0
408,304,137283,2,0,B|464:272|496:176|464:96,1,210,0|8
104,304,138220,2,0,B|48:272|16:176|48:96,1,210,0|8
240,48,139158,6,0,B|280:88|280:144,1,105
232,232,139627,2,0,B|192:192|192:136,1,105,8|0
328,224,140095,6,0,B|328:280|288:320,1,105
184,328,140564,1,8
88,296,140799,1,0
56,192,141033,1,0
88,88,141267,1,0
184,56,141502,1,8
344,192,141970,6,0,B|240:192,1,105
136,192,142439,1,8
296,64,142908,5,0
393,102,143142,2,0,B|446:131|449:190,1,105,0|8
344,192,143611,2,0,B|296:216|272:268|272:268|248:216|200:192,1,210
104,152,144314,1,8
256,192,144783,12,8,146189
448,72,146658,5,0
368,144,146892,1,0
328,240,147127,2,0,B|318:296|243:333|178:283|176:228,1,210,8|0
256,168,147830,2,0,B|256:384,1,210
160,192,148767,5,0
120,96,149002,1,8
24,48,149236,1,0
352,192,149705,5,0
392,288,149940,1,8
488,336,150174,1,0
280,336,150642,5,8
224,248,150877,1,8
280,48,151345,1,8
224,136,151580,1,8
24,192,152049,1,0
224,248,152517,6,0,B|272:288|336:272,1,105,0|8
424,240,152986,1,0
224,136,153455,6,0,B|272:96|336:112,1,105,0|8
424,144,153924,1,0
112,72,161424,5,0
136,72,161541,1,0
160,88,161658,2,0,B|184:144|248:152,1,105,0|8
272,48,162595,2,0,B|328:64|344:120,1,105,0|8
376,216,163533,2,0,B|384:280|416:320|416:320|360:320|312:352,1,210
184,232,165408,6,0,B|128:240|104:296,2,105,0|8|0
256,160,166814,2,0,B|312:152|336:96,2,105,8|0|8
240,56,168220,5,0
136,80,168689,1,8
96,176,169158,2,0,B|216:224|232:344,1,210
408,216,171033,2,0,B|288:168|272:48,1,210
256,272,172908,5,0
168,216,173377,1,8
200,112,173845,1,0
312,112,174314,1,8
344,216,174783,1,0
168,328,175720,6,0,B|104:336|80:264,2,105,0|8|0
256,192,190955,5,8
256,192,191424,1,8
256,192,191658,5,0
357,226,191892,1,0
319,128,192127,1,8
216,96,192361,1,4
216,96,192830,5,0
183,189,193064,2,0,B|114:167|114:87,2,105,8|0|0
375,277,194002,1,8
167,317,194470,1,0
311,165,194939,1,8
287,373,195408,5,0
295,269,195642,1,0
199,229,195877,2,0,B|159:197|167:133,1,105,8|0
367,61,196580,1,0
463,101,196814,1,8
487,205,197049,1,0
464,308,197283,6,0,B|425:258|373:268|373:268|409:215|395:159,1,210,0|8
255,325,198220,1,0
116,168,198689,1,8
319,205,199158,6,0,B|303:141|351:101,1,105
191,205,199627,2,0,B|207:141|159:101,1,105,8|0
103,309,200330,5,0
199,349,200564,1,8
255,261,200799,1,0
255,261,201033,1,0
311,349,201267,1,0
407,309,201502,1,8
335,109,201970,5,0
255,45,202205,1,0
175,109,202439,1,8
95,301,202908,6,0,B|63:245|95:189,1,105
183,245,203377,1,8
247,157,203611,2,0,B|295:125|374:153|383:234|345:274,1,210
415,349,204314,1,8
256,192,204783,12,8,206189
96,96,206658,6,0,B|104:32|184:8,2,105,0|0|8
88,200,207361,1,0
152,288,207595,1,0
256,320,207830,2,0,B|312:296|336:232,1,105,0|8
424,288,208299,6,0,B|446:231|418:169,1,105
256,64,209002,1,8
80,184,209470,1,0
256,320,209939,1,8
352,136,210408,5,0
320,240,210642,1,0
360,336,210877,1,8
256,320,211111,1,0
152,344,211345,1,0
80,264,211580,6,0,B|56:216|88:152,1,105,0|8
176,208,212049,1,0
168,104,212283,2,0,B|215:72|294:100|303:181|265:221,2,210,0|8|0
168,104,213689,1,8
272,336,214158,6,0,B|232:296|232:240,1,105
280,152,214627,2,0,B|320:192|320:248,1,105,8|0
184,160,215095,6,0,B|184:104|224:64,1,105
328,56,215564,1,8
424,88,215799,1,0
456,192,216033,1,0
424,296,216267,1,0
328,328,216502,1,8
168,192,216970,6,0,B|272:192,1,105
376,192,217439,1,8
216,320,217908,5,0
119,282,218142,2,0,B|66:253|63:194,1,105,0|8
168,192,218611,2,0,B|216:168|240:116|240:116|264:168|312:192,1,210
408,232,219314,1,8
256,192,219783,12,0,220720
256,192,221189,5,8
256,192,221658,12,0,222595
48,48,222830,5,0
144,80,223064,1,8
208,168,223299,1,0
104,192,223533,1,0
160,280,223767,1,0
256,328,224002,1,8
256,328,224236,1,0
352,280,224470,1,0
408,192,224704,1,0
304,168,224939,1,8
368,80,225173,1,0
464,48,225408,1,0
488,152,225642,6,0,B|512:256,1,105,8|8
24,232,226345,2,8,B|0:128,1,105
256,192,227049,1,0
416,56,227517,5,0
416,160,227752,1,8
472,248,227986,1,0
96,56,228455,5,0
96,160,228690,1,8
40,248,228924,1,0
