osu file format v12

[General]
AudioFilename: 7 Days To The Wolves.mp3
AudioLeadIn: 0
PreviewTime: 64709
Countdown: 0
SampleSet: Normal
StackLeniency: 0.2
Mode: 0
LetterboxInBreaks: 1
WidescreenStoryboard: 1

[Editor]
Bookmarks: 6072,24861,38540,63112,86105,88474,92421,116895,142158,154790,167421,180053
DistanceSpacing: 1
BeatDivisor: 4
GridSize: 8
TimelineZoom: 1.4

[Metadata]
Title:7 Days To The Wolves
TitleUnicode:7 Days To The Wolves
Artist:Nightwish
ArtistUnicode:Nightwish
Creator:zinsser
Version:Insane
Source:Dark Passion Play
Tags:seven days to the wolves
BeatmapID:379474
BeatmapSetID:141353

[Difficulty]
HPDrainRate:6
CircleSize:4
OverallDifficulty:6
ApproachRate:9
SliderMultiplier:2
SliderTickRate:1

[Events]
//Background and Video events
0,0,"86_5.jpg",0,0
//Break Periods
2,88001,91839
2,141586,154208
//Storyboard Layer 0 (Background)
//Storyboard Layer 1 (Fail)
//Storyboard Layer 2 (Pass)
//Storyboard Layer 3 (Foreground)
//Storyboard Sound Samples
//Background Colour Transformations
3,100,163,162,255

[TimingPoints]
3229,394.736842105263,4,1,0,50,1,0
6387,-100,4,1,0,50,0,0
12604,-125,4,1,0,50,0,0
13196,-100,4,1,0,50,0,0
18919,-125,4,1,0,50,0,0
19511,-100,4,1,0,50,0,0
22077,-125,4,1,0,50,0,0
22669,-100,4,1,0,50,0,0
25235,-125,4,1,0,50,0,0
25827,-100,4,1,0,50,0,0
31551,-125,4,1,0,50,0,0
32143,-100,4,1,0,50,0,0
34709,-125,4,1,0,50,0,0
35696,-100,4,1,0,50,0,0
63229,-100,4,1,0,60,0,1
65005,-100,4,1,0,100,0,1
68163,-166.666666666667,4,1,0,80,0,1
69544,-100,4,1,0,100,0,1
86962,-100,4,1,0,75,0,1
87061,-100,4,1,0,50,0,1
87160,-100,4,1,0,25,0,1
87456,-100,4,1,0,100,0,1
87555,-100,4,1,0,75,0,1
87654,-100,4,1,0,50,0,1
87752,-100,4,1,0,25,0,1
88097,-100,4,1,0,100,0,0
109610,-166.666666666667,4,1,0,80,0,0
110597,-100,4,1,0,100,0,0
116913,-100,4,1,0,60,0,1
117505,-100,4,1,0,100,0,1
141781,-100,4,1,0,100,0,0
161123,-133.333333333333,4,1,0,100,0,0
163270,-100,4,1,0,5,0,0
163319,-100,4,1,0,100,0,0
168130,-100,4,1,0,100,0,0
183204,-100,4,1,0,5,0,0

[Colours]
Combo1 : 255,0,0
Combo2 : 0,200,0
Combo3 : 170,170,255
Combo4 : 200,0,200
Combo5 : 255,255,0

[HitObjects]
407,93,3229,6,0,P|380:135|336:158,1,100,2|0,0:0|0:0,0:0:0:0:
305,251,3623,2,0,P|237:184|260:91,1,200,0|2,0:0|0:0,0:0:0:0:
131,325,4808,2,0,P|88:300|62:257,1,100,2|0,0:0|0:0,0:0:0:0:
158,227,5202,1,0,0:0:0:0:
103,142,5400,1,0,0:0:0:0:
202,137,5597,1,2,0:0:0:0:
380,253,6387,6,0,P|337:228|311:185,1,100,2|0,0:0|0:0,0:0:0:0:
304,86,6781,1,2,0:0:0:0:
381,254,6979,2,0,P|307:314|216:282,1,200,0|0,0:0|0:0,0:0:0:0:
155,203,7571,1,2,0:0:0:0:
97,121,7768,2,0,P|54:206|105:287,1,200,0|0,0:0|0:0,0:3:0:0:
205,282,8360,1,2,0:0:0:0:
97,120,8558,2,0,P|191:108|251:183,1,200,0|0,0:0|0:0,0:3:0:0:
299,271,9150,2,0,P|324:313|367:338,1,100,2|0,0:0|0:0,0:0:0:0:
396,242,9544,6,0,P|370:199|327:174,1,100,2|0,0:0|0:0,0:0:0:0:
230,197,9939,1,2,0:0:0:0:
396,242,10136,2,0,P|448:162|407:75,1,200,0|0,0:0|0:0,0:3:0:0:
346,155,10729,1,2,0:0:0:0:
248,175,10926,2,0,P|249:125|275:84,1,100,0|0,0:0|0:0,0:0:0:0:
327,282,11321,5,8,0:0:0:0:
152,241,11518,1,8,0:0:0:0:
230,79,11715,1,8,0:0:0:0:
371,192,11913,1,8,0:0:0:0:
230,304,12110,1,8,0:0:0:0:
152,141,12308,1,8,0:0:0:0:
327,101,12505,1,8,0:0:0:0:
327,282,12702,6,14,B|316:293|316:293|226:176,1,160
150,242,13294,1,0,0:0:0:0:
150,242,13393,1,0,0:0:0:0:
150,242,13492,1,0,0:0:0:0:
150,242,13590,1,0,0:0:0:0:
150,242,13689,1,2,0:0:0:0:
234,301,13886,2,0,P|283:305|327:282,1,100,0|0,0:0|0:0,0:0:0:0:
391,204,14281,6,0,L|423:125,4,50,0|0|0|0|2,0:0|0:0|0:0|0:0|0:0,0:0:0:0:
307,148,14873,2,0,P|259:134|211:147,1,100,0|0,0:0|0:0,0:0:0:0:
142,220,15268,5,0,0:0:0:0:
153,242,15367,1,0,0:0:0:0:
136,260,15465,1,0,0:0:0:0:
113,248,15564,1,0,0:0:0:0:
117,223,15663,1,0,0:0:0:0:
243,204,15860,5,2,0:0:0:0:
343,198,16058,1,0,0:0:0:0:
367,201,16156,1,0,0:0:0:0:
388,213,16255,2,0,P|426:242|445:287,1,100,2|0,0:0|0:0,0:0:0:0:
346,299,16650,1,0,0:0:0:0:
243,204,16847,6,0,L|191:206,2,50,0|0|2,0:0|0:0|0:0,0:0:0:0:
487,174,17242,2,0,P|472:65|392:43,1,200,0|0,0:0|0:0,0:3:0:0:
296,45,17834,1,2,0:0:0:0:
196,47,18031,1,0,0:0:0:0:
196,148,18229,2,0,L|135:229,1,100,2|0,0:0|0:0,0:0:0:0:
107,88,18623,2,0,L|46:169,1,100,2|0,0:0|0:0,0:0:0:0:
44,248,19018,6,0,B|43:268|43:268|206:284,1,160,14|0,0:3|0:0,0:0:0:0:
286,290,19610,1,0,0:0:0:0:
182,281,19807,1,0,0:0:0:0:
284,290,20005,1,0,0:0:0:0:
308,290,20104,1,0,0:0:0:0:
332,290,20202,2,0,L|432:290,1,100,2|0,0:0|0:0,0:0:0:0:
331,289,20597,5,0,0:0:0:0:
330,189,20794,1,0,0:0:0:0:
330,165,20893,1,0,0:0:0:0:
330,141,20991,2,0,L|330:40,1,100,2|0,0:0|0:0,0:0:0:0:
329,142,21386,5,0,0:0:0:0:
229,142,21584,1,0,0:0:0:0:
205,142,21683,1,0,0:0:0:0:
181,142,21781,2,0,L|80:142,1,100,2|0,0:0|0:0,0:0:0:0:
87,222,22176,6,0,B|80:237|80:237|234:283,1,160,14|0,0:3|0:0,0:0:0:0:
315,257,22768,2,0,P|318:306|290:347,1,100
438,242,23163,2,0,P|476:190|472:140,2,100,0|2|0,0:0|0:0|0:0,0:0:0:0:
376,163,23755,1,2,0:0:0:0:
358,145,23854,1,0,0:0:0:0:
340,127,23952,2,0,B|105:127,1,200
21,217,24544,1,2,0:0:0:0:
39,235,24643,1,0,0:0:0:0:
57,253,24741,2,0,B|292:253,1,200
337,253,25334,6,0,B|359:265|359:265|341:128,1,160,14|0,0:3|0:0,0:3:0:0:
344,51,25926,2,0,L|443:73,1,100
445,172,26321,1,0,0:0:0:0:
258,272,26518,1,2,0:0:0:0:
238,287,26617,1,0,0:0:0:0:
215,297,26715,6,0,P|121:317|54:248,1,200,0|0,0:0|0:0,0:3:0:0:
46,224,27209,1,0,0:0:0:0:
38,200,27308,2,0,P|43:150|74:112,1,100,2|0,0:0|0:0,2:0:0:0:
156,55,27702,1,0,0:0:0:0:
246,98,27900,1,0,0:0:0:0:
153,135,28097,1,2,0:0:0:0:
235,192,28294,1,0,0:0:0:0:
306,262,28492,5,0,0:0:0:0:
389,152,28689,1,0,0:0:0:0:
404,132,28788,1,0,0:0:0:0:
418,111,28886,2,0,L|481:25,1,100,2|0,0:0|0:0,0:0:0:0:
509,196,29281,1,0,0:0:0:0:
441,270,29479,2,0,P|373:313|334:307,1,100,0|2,0:0|0:0,0:0:0:0:
509,196,29873,6,0,P|494:101|406:64,1,200,0|0,0:0|0:0,0:3:0:0:
307,44,30465,1,10,0:0:0:0:
227,185,30663,1,8,0:0:0:0:
210,24,30860,1,8,0:0:0:0:
318,144,31058,1,8,0:0:0:0:
159,109,31255,1,10,0:0:0:0:
307,44,31452,1,8,0:0:0:0:
227,185,31650,6,0,B|250:185|250:185|243:324,1,160,14|0,0:3|0:0,0:3:0:0:
99,240,32242,2,0,L|156:328,1,100
70,144,32636,2,0,P|119:141|162:166,2,100,0|2|0,0:0|0:0|0:0,0:0:0:0:
267,94,33229,1,0,0:0:0:0:
345,156,33426,2,0,P|306:188|257:195,2,100,0|2|0,0:0|0:0|0:0,0:0:0:0:
386,352,34018,1,0,0:0:0:0:
435,265,34215,2,0,P|472:297|486:344,2,100,0|2|0,0:0|0:0|0:0,0:0:0:0:
351,188,34808,6,2,B|207:87|207:87,2,160
465,41,35992,1,2,0:0:0:0:
50,344,36386,1,2,0:0:0:0:
465,132,37176,5,2,0:0:0:0:
322,118,37373,1,0,0:0:0:0:
223,222,37571,1,0,0:0:0:0:
251,363,37768,1,0,0:0:0:0:
370,282,37965,1,0,0:0:0:0:
370,282,38064,1,0,0:0:0:0:
370,282,38163,2,0,L|416:322,2,50
420,72,38755,6,0,P|470:203|461:298,1,200
370,282,39347,2,0,P|291:271|263:293,1,100
468,260,39742,6,0,P|462:161|420:72,1,200
319,68,40334,1,0,0:0:0:0:
296,79,40433,1,0,0:0:0:0:
273,88,40531,1,0,0:0:0:0:
178,121,40729,1,0,0:0:0:0:
159,286,40926,2,0,L|114:197,1,100
186,382,41321,2,0,P|136:384|93:359,1,100
159,286,41715,5,0,0:0:0:0:
221,210,41913,1,0,0:0:0:0:
238,192,42011,1,0,0:0:0:0:
255,174,42110,2,0,L|356:73,2,100
238,192,42604,1,0,0:0:0:0:
221,210,42702,1,0,0:0:0:0:
161,286,42900,1,0,0:0:0:0:
125,192,43097,2,0,P|75:194|32:169,1,100
195,106,43492,6,0,P|148:89|119:50,1,100
281,157,43886,2,0,P|327:174|357:213,1,100
398,305,44281,1,0,0:0:0:0:
410,326,44380,1,0,0:0:0:0:
432,336,44479,1,0,0:0:0:0:
412,201,44676,6,0,L|495:258,1,100
322,243,45071,2,0,P|292:282|245:299,1,100
146,291,45465,2,0,P|99:308|69:347,1,100
100,200,45860,2,0,L|204:192,1,100
283,283,46255,1,0,0:0:0:0:
283,283,46452,1,0,0:0:0:0:
359,340,46650,5,0,0:0:0:0:
450,298,46847,2,0,P|420:258|373:241,1,100
360,340,47242,2,0,P|313:322|283:283,1,100
247,190,47636,1,0,0:0:0:0:
250,89,47834,1,0,0:0:0:0:
164,139,48031,1,0,0:0:0:0:
285,283,48229,2,0,P|380:274|423:189,1,200,0|0,0:0|0:0,0:3:0:0:
476,35,49018,1,2,0:0:0:0:
256,192,49043,12,0,50597,0:0:0:0:
86,124,51386,5,0,0:0:0:0:
111,124,51484,1,0,0:0:0:0:
135,132,51583,1,0,0:0:0:0:
154,147,51682,1,0,0:0:0:0:
172,165,51781,2,0,P|186:259|274:297,1,200,0|0,0:0|0:0,0:3:0:0:
266,194,52373,2,0,P|251:100|223:72,2,100
172,165,52965,1,0,0:0:0:0:
250,99,53163,1,0,0:0:0:0:
350,100,53360,1,0,0:0:0:0:
434,153,53558,1,0,0:0:0:0:
471,245,53755,6,0,B|472:288|486:290,4,50
396,179,54347,1,0,0:0:0:0:
300,282,54544,2,0,P|209:310|136:247,1,200
127,224,55038,1,0,0:0:0:0:
131,198,55136,2,0,P|149:152|190:124,1,100
312,22,55531,2,0,P|314:71|290:115,1,100
483,344,56123,5,0,0:0:0:0:
415,270,56321,1,0,0:0:0:0:
510,241,56518,1,0,0:0:0:0:
355,113,56715,2,0,L|435:174,1,100
433,49,57110,2,0,L|523:117,2,100
332,47,57702,2,0,P|101:168|424:236,1,800
103,101,60268,5,2,0:0:0:0:
139,116,60367,1,0,0:0:0:0:
174,131,60465,1,0,0:0:0:0:
207,60,60663,1,0,0:0:0:0:
277,92,60860,1,2,0:0:0:0:
234,293,61452,5,2,0:0:0:0:
271,308,61551,1,0,0:0:0:0:
305,323,61650,1,0,0:0:0:0:
338,252,61847,1,0,0:0:0:0:
408,283,62044,1,2,0:0:0:0:
393,50,62636,2,0,P|328:4|257:81,1,200,2|0,0:0|0:0,0:0:0:0:
258,153,63229,6,0,L|258:191,7,25,2|0|0|0|0|0|0|0,0:0|0:0|0:0|0:0|0:0|0:0|0:0|0:0,0:0:0:0:
240,195,63623,6,0,L|240:240,7,25
257,237,64018,6,0,L|257:280,7,25
239,279,64413,6,0,L|239:324,8,25
152,76,65202,5,0,0:0:0:0:
146,105,65301,1,0,0:0:0:0:
149,134,65400,2,0,P|190:185|244:190,1,100
356,107,65794,2,0,P|400:172|396:213,1,100
403,214,66090,1,0,0:0:0:0:
398,244,66189,1,0,0:0:0:0:
383,269,66288,1,0,0:0:0:0:
364,291,66386,5,0,0:0:0:0:
264,297,66584,1,0,0:0:0:0:
183,239,66781,2,0,P|162:295|185:354,1,100
83,230,67176,1,0,0:0:0:0:
32,316,67373,1,0,0:0:0:0:
84,230,67571,2,0,L|30:96,2,100
274,86,68360,6,0,P|325:112|380:107,1,89.9999972534181
356,143,68755,2,0,P|317:166|273:170,1,89.9999972534181
273,200,69150,2,0,P|324:226|379:221,1,89.9999972534181
355,257,69544,6,0,P|291:313|157:341,1,200,2|0,0:0|0:0,0:0:0:0:
77,281,70136,1,0,0:0:0:0:
77,160,70334,2,0,L|77:60,1,100
197,60,70729,2,0,L|259:60,2,50
197,179,71123,1,0,0:0:0:0:
282,264,71321,1,0,0:0:0:0:
366,179,71518,2,0,L|366:118,2,50
451,264,71913,1,0,0:0:0:0:
451,383,72110,1,0,0:0:0:0:
330,383,72308,2,0,L|239:383,2,50
294,245,72702,5,0,0:0:0:0:
277,220,72801,1,0,0:0:0:0:
264,192,72900,2,0,L|315:85,1,100,2|0,0:0|0:0,0:0:0:0:
206,245,73294,5,0,0:0:0:0:
189,220,73393,1,0,0:0:0:0:
176,192,73492,2,0,L|227:84,1,100,2|0,0:0|0:0,0:0:0:0:
118,245,73886,5,0,0:0:0:0:
101,220,73985,1,0,0:0:0:0:
88,192,74084,2,0,L|138:84,1,100,2|0,0:0|0:0,0:0:0:0:
30,245,74479,5,0,0:0:0:0:
13,220,74578,1,0,0:0:0:0:
0,192,74677,2,0,L|50:85,1,100,2|0,0:0|0:0,0:0:0:0:
192,101,75071,5,2,0:0:0:0:
491,101,75465,1,2,0:0:0:0:
193,240,75860,2,0,B|194:340,2,100,14|0|0,0:3|0:0|0:0,0:0:0:0:
293,240,76452,1,0,0:0:0:0:
393,240,76650,2,0,L|393:340,1,100
393,140,77044,2,0,L|393:86,2,50
292,140,77439,1,0,0:0:0:0:
192,140,77636,1,0,0:0:0:0:
91,140,77834,6,0,P|50:112|31:66,1,100
51,212,78229,1,0,0:0:0:0:
67,230,78327,1,0,0:0:0:0:
86,245,78426,1,0,0:0:0:0:
86,31,78623,2,0,P|195:61|289:121,1,200
289,121,79117,1,0,0:0:0:0:
308,138,79215,2,0,B|408:220|276:287|276:287|410:343,1,300
455,209,80005,1,0,0:0:0:0:
488,63,80202,2,0,L|379:108,2,100
32,352,80992,5,0,0:0:0:0:
256,32,81386,1,0,0:0:0:0:
480,352,81781,1,0,0:0:0:0:
0,192,82176,5,2,0:0:0:0:
18,175,82275,1,0,0:0:0:0:
40,164,82373,1,0,0:0:0:0:
64,159,82472,1,0,0:0:0:0:
88,160,82571,2,0,P|194:183|273:277,1,200
309,148,83163,2,0,L|287:102,2,50
357,236,83557,1,0,0:0:0:0:
228,206,83754,1,0,0:0:0:0:
162,130,83952,1,0,0:0:0:0:
66,159,84150,2,0,L|141:240,2,100
77,308,84742,2,0,L|6:239,1,100
277,262,85136,1,0,0:0:0:0:
512,192,85334,5,2,0:0:0:0:
494,209,85433,1,0,0:0:0:0:
472,220,85531,1,0,0:0:0:0:
448,226,85630,1,0,0:0:0:0:
424,224,85729,2,0,P|318:201|239:107,1,200
162,99,86321,1,0,0:0:0:0:
162,198,86518,1,0,0:0:0:0:
204,288,86715,1,0,0:0:0:0:
298,344,86913,2,0,L|319:299,3,50
432,200,87505,2,0,L|411:245,3,50
71,347,92439,5,0,0:0:0:0:
71,277,92636,2,0,L|269:357,1,200
256,281,93229,1,0,0:0:0:0:
255,351,93426,2,0,L|441:277,1,200
476,183,94018,1,0,0:0:0:0:
476,157,94117,1,0,0:0:0:0:
470,132,94215,2,0,P|441:90|383:99,1,100
224,42,94610,1,0,0:0:0:0:
41,39,94808,6,0,B|72:65|146:51,2,100
152,196,95400,2,0,B|176:244|176:244|227:262,1,100
360,188,95794,2,0,B|336:140|336:140|285:122,1,100
307,104,96090,2,0,L|365:35,1,50
439,78,96386,2,0,B|463:294,1,200
461,276,96978,1,0,0:0:0:0:
368,315,97176,5,0,0:0:0:0:
342,315,97275,1,0,0:0:0:0:
317,308,97373,2,0,P|247:256|239:222,1,100
211,152,97768,1,0,0:0:0:0:
319,309,97965,2,0,P|257:349|148:298,1,200
237,251,98558,1,0,0:0:0:0:
310,183,98755,1,0,0:0:0:0:
331,170,98854,1,0,0:0:0:0:
355,165,98952,2,0,P|419:169|467:225,2,100
331,170,99446,1,0,0:0:0:0:
310,183,99545,5,0,0:0:0:0:
145,241,99742,1,0,0:0:0:0:
83,288,99939,2,0,P|69:220|100:180,1,100
206,64,100334,1,0,0:0:0:0:
230,57,100433,1,0,0:0:0:0:
254,57,100531,2,0,L|309:79,2,50
255,157,100926,1,0,0:0:0:0:
399,96,101123,5,0,0:0:0:0:
380,114,101222,1,0,0:0:0:0:
371,136,101321,2,0,L|425:220,1,100
266,362,101715,5,0,0:0:0:0:
261,338,101814,1,0,0:0:0:0:
246,319,101913,2,0,L|145:323,1,100
101,115,102308,5,0,0:0:0:0:
125,121,102407,1,0,0:0:0:0:
149,119,102506,2,0,L|196:29,1,100
256,192,102727,12,0,104281,0:0:0:0:
363,237,105071,6,0,P|320:253|280:292,1,100
163,262,105465,2,0,P|171:216|157:162,1,100
241,76,105860,2,0,P|276:106|330:121,1,100
363,237,106255,6,0,P|353:281|365:336,1,100
163,262,106650,2,0,P|129:231|76:214,1,100
241,76,107044,2,0,P|285:62|326:24,1,100
349,31,107340,1,0,0:0:0:0:
373,38,107439,6,0,P|443:134|370:185,1,200
387,198,107933,2,0,L|423:231,1,50
402,330,108229,1,0,0:0:0:0:
302,335,108426,1,0,0:0:0:0:
294,158,108623,2,0,P|251:174|211:213,1,100
91,311,109018,2,0,P|51:188|96:110,1,200
375,325,109807,6,0,P|336:301|292:297,1,89.9999972534181
292,268,110202,2,0,P|343:241|398:246,1,89.9999972534181
374,211,110597,6,0,P|310:155|183:124,1,200,2|0,0:0|0:0,0:0:0:0:
450,66,111386,1,0,0:0:0:0:
337,24,111584,1,0,0:0:0:0:
217,30,111781,2,0,L|124:71,2,100
126,188,112373,2,0,L|219:150,1,100
401,89,113952,6,0,L|350:118,2,50,2|0|0,0:0|0:0|0:0,0:0:0:0:
416,188,114347,1,0,0:0:0:0:
358,269,114544,1,2,0:0:0:0:
111,295,115136,6,0,L|162:266,2,50,2|0|0,0:0|0:0|0:0,0:0:0:0:
96,196,115531,1,0,0:0:0:0:
154,115,115728,1,2,0:0:0:0:
453,97,116321,2,0,P|361:18|288:53,1,200,2|0,0:0|0:0,0:0:0:0:
303,143,116913,6,0,L|287:175,11,25,2|0|0|0|0|0|0|0|0|0|0|0,0:0|0:0|0:0|0:0|0:0|0:0|0:0|0:0|0:0|0:0|0:0|0:0,0:0:0:0:
283,195,117505,2,2,B|341:177|362:233|362:233|495:171|512:294,1,300
46,45,118886,6,0,B|245:45|245:45|145:133|124:315,1,500
124,313,119972,1,0,0:0:0:0:
124,313,120071,1,0,0:0:0:0:
224,314,120268,1,0,0:0:0:0:
252,218,120465,1,0,0:0:0:0:
306,133,120663,1,0,0:0:0:0:
381,67,120860,2,0,B|487:77|487:77|407:125|407:125|432:262|537:297,1,400,0|2,0:0|0:0,0:0:0:0:
194,120,122044,6,0,B|166:84|204:24|275:-9|355:52|356:145|256:176|256:176|256:252,1,400
256,346,123229,1,2,0:0:0:0:
325,346,123426,2,0,P|431:307|459:226,1,200
459,161,124018,5,0,0:0:0:0:
389,161,124215,2,0,B|389:223|389:223|389:277|326:277|326:277|241:277,1,200
212,277,124808,1,0,0:0:0:0:
268,149,125202,1,0,0:0:0:0:
406,177,125597,2,0,P|464:100|400:38,1,200
135,69,126386,5,0,0:0:0:0:
124,91,126485,1,0,0:0:0:0:
101,102,126584,1,0,0:0:0:0:
256,123,126781,1,2,0:0:0:0:
377,69,126979,5,0,0:0:0:0:
388,91,127078,1,0,0:0:0:0:
411,102,127177,1,0,0:0:0:0:
256,123,127373,1,2,0:0:0:0:
203,217,127571,5,0,0:0:0:0:
192,239,127670,1,0,0:0:0:0:
169,250,127769,1,0,0:0:0:0:
256,123,127965,1,2,0:0:0:0:
309,217,128163,5,0,0:0:0:0:
320,239,128262,1,0,0:0:0:0:
343,250,128361,1,0,0:0:0:0:
256,123,128558,1,2,0:0:0:0:
255,222,128755,1,0,0:0:0:0:
255,247,128854,1,0,0:0:0:0:
255,271,128952,1,0,0:0:0:0:
255,296,129051,1,0,0:0:0:0:
255,321,129150,2,0,L|357:321,1,100
454,321,129544,5,0,0:0:0:0:
454,295,129643,1,0,0:0:0:0:
454,270,129741,1,0,0:0:0:0:
454,244,129840,1,0,0:0:0:0:
454,218,129939,2,0,P|436:130|347:64,1,200
251,65,130531,1,0,0:0:0:0:
150,65,130729,2,0,L|30:65,2,100
77,265,131518,5,0,0:0:0:0:
98,277,131617,1,0,0:0:0:0:
122,282,131715,2,0,P|186:289|233:254,1,100
203,71,132110,1,0,0:0:0:0:
309,71,132308,1,0,0:0:0:0:
224,224,132702,2,0,B|152:296|48:192|152:88|240:176|240:176|256:192|256:192|272:208|272:208|360:296|464:192|360:88|272:176,1,600,0|2,0:0|0:0,0:0:0:0:
106,321,134676,5,2,0:0:0:0:
256,62,135071,1,2,0:0:0:0:
406,321,135465,1,2,0:0:0:0:
106,321,135860,1,0,0:0:0:0:
101,250,136058,2,0,P|126:143|207:81,1,200
256,62,136650,1,0,0:0:0:0:
319,90,136847,2,0,P|400:165|413:266,2,200
191,87,137834,2,0,P|119:154|101:250,2,200
406,321,139018,5,0,0:0:0:0:
415,249,139215,2,0,P|393:153|319:90,1,200
266,176,139808,1,0,0:0:0:0:
170,203,140005,1,0,0:0:0:0:
132,295,140202,2,0,P|68:223|111:124,2,200
98,133,141386,1,0,0:0:0:0:
94,318,154808,5,2,0:0:0:0:
265,373,155005,1,0,0:0:0:0:
444,380,155202,1,0,0:0:0:0:
267,338,155597,5,2,0:0:0:0:
441,295,155794,1,0,0:0:0:0:
265,295,156189,5,2,0:0:0:0:
424,212,156386,1,0,0:0:0:0:
367,71,156781,5,2,0:0:0:0:
262,254,156979,1,0,0:0:0:0:
247,214,157373,5,2,0:0:0:0:
287,38,157571,1,0,0:0:0:0:
349,237,157965,5,2,0:0:0:0:
169,250,158163,1,0,0:0:0:0:
248,88,158360,1,0,0:0:0:0:
351,275,158558,5,2,0:0:0:0:
135,233,158755,1,0,0:0:0:0:
280,67,158952,1,0,0:0:0:0:
339,316,159150,5,2,0:0:0:0:
106,202,159347,1,0,0:0:0:0:
321,57,159544,1,0,0:0:0:0:
315,354,159742,5,2,0:0:0:0:
85,161,159939,1,0,0:0:0:0:
361,62,160136,2,0,P|437:139|426:351,1,300
80,104,161123,6,0,B|96:128|96:128|128:80|128:80|160:128|160:128|192:80|192:80|224:128|224:128|256:80,1,300.000011444092,2|0,0:0|0:0,0:0:0:0:
400,96,162308,2,0,B|400:128|400:128|368:128|368:128|368:160|368:160|336:160|336:160|336:192|336:192|304:192|304:192|304:224|304:224|272:224|272:224|272:256|272:256|240:256|240:256|240:288|240:288|208:288|208:288,2,375.000014305115,2|0|0,0:0|0:0|0:0,0:0:0:0:
256,192,164306,12,0,166650,0:0:0:0:
72,314,167439,6,0,P|-2:233|13:145,1,200
53,51,168229,1,2,0:0:0:0:
77,51,168327,1,0,0:0:0:0:
102,51,168426,2,0,P|322:112|343:125,1,250,0|0,0:0|0:0,0:0:0:0:
338,147,169018,2,0,L|338:205,1,50,2|0,0:0|0:0,0:0:0:0:
338,222,169215,2,0,P|118:283|55:320,1,300,0|0,0:0|0:0,0:0:0:0:
76,169,170005,1,0,0:0:0:0:
210,102,170202,1,0,0:0:0:0:
186,220,170400,1,0,0:0:0:0:
305,216,170597,2,0,P|306:286|442:326,1,200,2|0,0:0|0:0,0:0:0:0:
459,333,171386,5,2,0:0:0:0:
435,333,171484,1,0,0:0:0:0:
410,330,171583,2,0,P|190:269|169:256,1,250,0|0,0:0|0:0,0:0:0:0:
173,236,172175,2,0,L|173:143,1,50,2|0,0:0|0:0,0:0:0:0:
174,162,172372,2,0,P|394:101|457:64,1,300,0|0,0:0|0:0,0:0:0:0:
436,215,173162,1,0,0:0:0:0:
302,282,173359,1,0,0:0:0:0:
326,164,173557,1,0,0:0:0:0:
207,168,173755,2,0,P|206:98|64:58,1,200,2|0,0:0|0:0,0:0:0:0:
65,282,174544,6,0,P|88:315|133:329,1,50,2|0,0:0|0:0,0:0:0:0:
115,337,174742,2,0,P|266:356|357:284,1,250
357,285,175334,2,0,P|378:232|381:199,1,50,2|0,0:0|0:0,0:0:0:0:
382,214,175531,2,0,P|324:70|189:28,1,300
97,47,176518,1,0,0:0:0:0:
174,111,176913,6,0,P|197:78|242:64,1,50,2|0,0:0|0:0,0:0:0:0:
224,56,177111,2,0,P|375:37|466:109,1,250
463,109,177702,2,0,P|432:322|273:363,2,400
368,236,179676,1,0,0:0:0:0:
276,363,180071,1,0,0:0:0:0:
256,192,180095,12,0,183229,0:0:0:0:
