osu file format v14

[General]
AudioFilename: niko baby AAA.mp3
AudioLeadIn: 0
PreviewTime: 34
Countdown: 0
SampleSet: Soft
StackLeniency: 0.7
Mode: 0
LetterboxInBreaks: 0
WidescreenStoryboard: 1

[Editor]
Bookmarks: 10320,36037
DistanceSpacing: 0.5
BeatDivisor: 6
GridSize: 4
TimelineZoom: 1.4

[Metadata]
Title:Niko's theme
TitleUnicode:Niko's theme
Artist:Nightmargin (Casey Gu) and Michael Shirt
ArtistUnicode:Nightmargin (Casey Gu) and Michael Shirt
Creator:Renumi
Version:Normal
Source:OneShot
Tags:solstice ambient video game niko little cat feet ralsei
BeatmapID:2164716
BeatmapSetID:1035369

[Difficulty]
HPDrainRate:4
CircleSize:3.5
OverallDifficulty:5
ApproachRate:5
SliderMultiplier:1.45
SliderTickRate:1

[Events]
//Background and Video events
0,0,"baby.jpg",0,0
//Break Periods
//Storyboard Layer 0 (Background)
//Storyboard Layer 1 (Fail)
//Storyboard Layer 2 (Pass)
//Storyboard Layer 3 (Foreground)
//Storyboard Sound Samples

[TimingPoints]
34,642.911229946524,4,2,1,40,1,0
51467,-100,4,2,1,40,0,0
51507,-100,4,2,1,41,0,0
51547,-100,4,2,1,42,0,0
51587,-100,4,2,1,43,0,0
51627,-100,4,2,1,44,0,0
51667,-100,4,2,1,45,0,0
51708,-100,4,2,1,46,0,0
51748,-100,4,2,1,47,0,0
51788,-100,4,2,1,48,0,0
51828,-100,4,2,1,49,0,0
51868,-100,4,2,1,50,0,0
51909,-100,4,2,1,51,0,0
51949,-100,4,2,1,52,0,0
51989,-100,4,2,1,53,0,0
52029,-100,4,2,1,54,0,0
52069,-100,4,2,1,55,0,0
52109,-100,4,2,1,56,0,0
52752,-100,4,2,1,54,0,0
52793,-100,4,2,1,52,0,0
52833,-100,4,2,1,51,0,0
52873,-100,4,2,1,49,0,0
52913,-100,4,2,1,47,0,0
52953,-100,4,2,1,45,0,0
52993,-100,4,2,1,43,0,0
53034,-100,4,2,1,41,0,0
53074,-100,4,2,1,39,0,0
53114,-100,4,2,1,37,0,0
53154,-100,4,2,1,35,0,0
53194,-100,4,2,1,33,0,0
53235,-100,4,2,1,31,0,0
53275,-100,4,2,1,29,0,0
53315,-100,4,2,1,27,0,0
53355,-100,4,2,1,25,0,0
53395,-100,4,2,1,5,0,0
54038,-100,4,2,1,7,0,0
54078,-100,4,2,1,9,0,0
54119,-100,4,2,1,11,0,0
54159,-100,4,2,1,13,0,0
54199,-100,4,2,1,15,0,0
54239,-100,4,2,1,17,0,0
54279,-100,4,2,1,19,0,0
54319,-100,4,2,1,21,0,0
54360,-100,4,2,1,23,0,0
54400,-100,4,2,1,25,0,0
54440,-100,4,2,1,27,0,0
54480,-100,4,2,1,29,0,0
54520,-100,4,2,1,31,0,0
54561,-100,4,2,1,33,0,0
54601,-100,4,2,1,35,0,0
54641,-100,4,2,1,37,0,0
54681,-100,4,2,1,40,0,0
55324,-100,4,2,1,35,0,0
55967,-100,4,2,1,5,0,0
56610,-100,4,2,1,7,0,0
56650,-100,4,2,1,9,0,0
56690,-100,4,2,1,11,0,0
56730,-100,4,2,1,13,0,0
56771,-100,4,2,1,15,0,0
56811,-100,4,2,1,17,0,0
56851,-100,4,2,1,19,0,0
56891,-100,4,2,1,21,0,0
56931,-100,4,2,1,23,0,0
56971,-100,4,2,1,25,0,0
57012,-100,4,2,1,27,0,0
57052,-100,4,2,1,29,0,0
57092,-100,4,2,1,31,0,0
57132,-100,4,2,1,33,0,0
57172,-100,4,2,1,35,0,0
57213,-100,4,2,1,37,0,0
57253,-100,4,2,1,40,0,0
57896,-100,4,2,1,35,0,0
58539,-100,4,2,1,5,0,0
59181,-166.666666666667,4,2,1,30,0,0
61753,-100,4,2,2,10,0,0
62717,-100,4,2,1,5,0,0

[Colours]
Combo1 : 249,252,133
Combo2 : 248,204,177
Combo3 : 224,187,255

[HitObjects]
136,128,34,5,2,3:2:0:0:
116,0,677,1,2,0:0:0:0:
36,103,1319,1,2,0:0:0:0:
384,256,2605,5,2,3:2:0:0:
404,384,3248,1,2,0:0:0:0:
484,281,3890,1,2,0:0:0:0:
256,192,5177,21,2,3:2:0:0:
168,148,5606,1,0,0:0:0:0:
168,148,5820,2,0,P|164:96|173:-14,2,145,2|2|2,0:0|0:0|0:0,0:0:0:0:
64,200,7749,2,0,P|74:247|78:296,1,96.6666666666667,2|0,3:2|0:0,0:0:0:0:
68,332,8391,2,0,P|115:321|166:317,1,96.6666666666667,2|0,0:0|0:0,0:0:0:0:
200,332,9034,1,2,0:0:0:0:
200,332,10320,5,2,3:2:0:0:
276,260,10749,1,0,0:0:0:0:
276,260,10963,2,0,P|328:256|431:269,2,145,2|2|2,0:0|0:0|0:0,0:0:0:0:
188,184,12892,2,0,P|188:135|196:84,1,96.6666666666667,2|0,3:2|0:0,0:0:0:0:
213,54,13535,2,0,P|160:56|60:32,1,145,2|6,0:0|0:0,0:0:0:0:
70,36,15463,21,2,3:2:0:0:
16,128,15892,1,0,0:0:0:0:
16,128,16106,2,0,P|8:192|11:274,1,145,2|6,0:0|0:0,0:0:0:0:
117,225,17392,1,0,0:0:0:0:
230,247,18035,2,0,P|233:304|226:358,1,96.6666666666667,2|0,3:2|0:0,0:0:0:0:
201,368,18678,2,0,P|258:364|360:385,1,145,2|6,0:0|0:0,0:0:0:0:
499,206,20607,5,2,3:2:0:0:
415,264,21035,1,0,0:0:0:0:
415,264,21250,2,0,P|421:300|521:343,1,145,2|6,0:0|0:0,0:0:0:0:
503,229,22535,1,0,0:0:0:0:
402,171,23178,2,0,P|402:131|395:66,1,96.6666666666667,2|0,3:2|0:0,0:0:0:0:
358,62,23821,2,0,P|310:68|260:67,1,96.6666666666667,2|0,0:0|0:0,0:0:0:0:
240,104,24464,1,2,3:2:0:0:
128,136,25107,1,2,3:2:0:0:
136,256,25750,21,2,3:2:0:0:
116,384,26393,1,2,0:0:0:0:
36,281,27035,1,2,0:0:0:0:
376,128,28322,5,2,3:2:0:0:
396,0,28965,1,2,0:0:0:0:
476,103,29607,1,2,0:0:0:0:
256,192,30893,21,2,3:2:0:0:
188,116,31322,1,0,0:0:0:0:
188,116,31536,2,0,B|108:112|136:128|40:120,2,145,2|2|2,0:0|0:0|0:0,0:0:0:0:
264,204,33465,2,0,P|308:200|369:202,1,96.6666666666667,2|0,3:2|0:0,0:0:0:0:
395,211,34108,2,0,P|391:167|391:106,1,96.6666666666667,2|0,0:0|0:0,0:0:0:0:
412,84,34751,1,2,0:0:0:0:
192,12,36037,5,2,3:2:0:0:
188,116,36465,1,0,0:0:0:0:
188,116,36680,2,0,P|184:172|199:267,2,145,2|2|2,0:0|0:0|0:0,0:0:0:0:
300,148,38608,2,0,P|304:196|306:245,1,96.6666666666667,2|0,3:2|0:0,0:0:0:0:
296,280,39251,2,0,P|367:270|441:272,1,145,2|6,0:0|0:0,0:0:0:0:
232,372,41180,21,2,3:2:0:0:
152,312,41609,1,0,0:0:0:0:
152,312,41823,2,0,B|64:312|116:328|4:328,1,145,2|6,0:0|0:0,0:0:0:0:
53,219,43109,1,0,0:0:0:0:
168,212,43752,2,0,P|168:160|163:107,1,96.6666666666667,2|0,3:2|0:0,0:0:0:0:
202,80,44394,2,0,P|153:84|53:84,1,145,2|6,0:0|0:0,0:0:0:0:
252,280,46323,5,2,3:2:0:0:
346,239,46752,1,0,0:0:0:0:
346,239,46966,2,0,B|434:239|382:255|493:251,1,145,2|6,0:0|0:0,0:0:0:0:
430,151,48252,1,0,0:0:0:0:
318,147,48895,2,0,P|318:95|325:43,1,96.6666666666667,2|0,3:2|0:0,0:0:0:0:
306,15,49538,2,0,P|354:19|406:18,1,96.6666666666667,2|0,0:0|0:0,0:0:0:0:
438,5,50181,1,2,3:2:0:0:
503,100,50824,1,2,3:2:0:0:
256,192,51467,12,0,53395,0:0:0:0:
256,192,54038,12,0,55967,0:0:0:0:
256,192,56610,12,0,58539,0:0:0:0:
426,318,59181,6,0,B|399:323|386:341|386:341|375:318|375:318|350:321|350:321|356:303|353:283|353:283|336:265|325:229|335:198|335:198|346:166|376:146|409:146|409:146|443:146|471:168|482:200|482:200|491:232|470:256,1,478.499985397339
