osu file format v14

[General]
AudioFilename: Impossible Nightcore Mix - Shontelle.mp3
AudioLeadIn: 0
PreviewTime: -1
Countdown: 1
SampleSet: None
StackLeniency: 0.7
Mode: 3
LetterboxInBreaks: 1
SpecialStyle: 0
WidescreenStoryboard: 1

[Editor]
DistanceSpacing: 0.8
BeatDivisor: 4
GridSize: 4
TimelineZoom: 1

[Metadata]
Title:Impossible-Hikari
TitleUnicode:Impossible-Hikari
Artist:Nightcore-mix
ArtistUnicode:Nightcore-mix
Creator:uzumaki hikari
Version:
Source:
Tags:
BeatmapID:691596
BeatmapSetID:309349

[Difficulty]
HPDrainRate:5
CircleSize:4
OverallDifficulty:5
ApproachRate:5
SliderMultiplier:1.4
SliderTickRate:1

[Events]
//Background and Video events
0,0,"bt3927-download_free_japanese_anime_wallpapers_kore_wa_zombie_desuka(11).jpg",0,0
//Break Periods
//Storyboard Layer 0 (Background)
//Storyboard Layer 1 (Fail)
//Storyboard Layer 2 (Pass)
//Storyboard Layer 3 (Foreground)
//Storyboard Sound Samples

[TimingPoints]
780.441860465116,232.558139534884,4,2,0,100,1,0
171180,-100,4,2,0,100,0,0

[HitObjects]
64,192,8092,128,0,9766:0:0:0:0:
448,192,9766,1,0,0:0:0:0:
320,192,9766,1,0,0:0:0:0:
192,192,9885,1,0,0:0:0:0:
448,192,10064,128,0,11857:0:0:0:0:
64,192,10483,1,0,0:0:0:0:
320,192,10782,1,0,0:0:0:0:
64,192,11021,1,0,0:0:0:0:
320,192,11319,1,0,0:0:0:0:
64,192,11618,1,0,0:0:0:0:
320,192,11857,1,0,0:0:0:0:
448,192,12156,128,0,13829:0:0:0:0:
64,192,13531,1,0,0:0:0:0:
64,192,13829,1,0,0:0:0:0:
64,192,14248,1,0,0:0:0:0:
192,192,14248,1,0,0:0:0:0:
320,192,14427,1,0,0:0:0:0:
448,192,14427,1,0,0:0:0:0:
448,192,15801,1,0,0:0:0:0:
448,192,16160,1,0,0:0:0:0:
64,192,16459,128,0,18192:0:0:0:0:
448,192,18192,1,0,0:0:0:0:
320,192,18192,1,0,0:0:0:0:
64,192,18431,1,0,0:0:0:0:
64,192,18790,1,0,0:0:0:0:
320,192,18969,1,0,0:0:0:0:
448,192,19208,1,0,0:0:0:0:
448,192,19686,1,0,0:0:0:0:
64,192,19985,1,0,0:0:0:0:
192,192,19985,1,0,0:0:0:0:
320,192,19985,1,0,0:0:0:0:
448,192,20104,1,0,0:0:0:0:
448,192,20642,1,0,0:0:0:0:
64,192,20821,1,0,0:0:0:0:
320,192,21001,1,0,0:0:0:0:
64,192,21240,1,0,0:0:0:0:
320,192,21479,1,0,0:0:0:0:
64,192,21837,1,0,0:0:0:0:
448,192,22017,1,0,0:0:0:0:
320,192,22017,1,0,0:0:0:0:
192,192,22136,1,0,0:0:0:0:
448,192,22674,1,0,0:0:0:0:
64,192,22853,1,0,0:0:0:0:
448,192,23869,128,0,25602:0:0:0:0:
64,192,24347,1,0,0:0:0:0:
320,192,25602,1,0,0:0:0:0:
64,192,25782,1,0,0:0:0:0:
64,192,26200,1,0,0:0:0:0:
320,192,26200,1,0,0:0:0:0:
448,192,26558,1,0,0:0:0:0:
192,192,26558,1,0,0:0:0:0:
64,192,26558,1,0,0:0:0:0:
192,192,26917,128,0,28351:0:0:0:0:
320,192,26917,1,0,0:0:0:0:
320,192,27455,1,0,0:0:0:0:
64,192,27813,1,0,0:0:0:0:
320,192,28351,1,0,0:0:0:0:
192,192,28590,1,0,0:0:0:0:
320,192,28590,1,0,0:0:0:0:
64,192,28590,1,0,0:0:0:0:
448,192,28770,1,0,0:0:0:0:
448,192,28949,128,0,30562:0:0:0:0:
64,192,29009,1,0,0:0:0:0:
320,192,29427,1,0,0:0:0:0:
64,192,29726,1,0,0:0:0:0:
64,192,30025,1,0,0:0:0:0:
320,192,30383,1,0,0:0:0:0:
64,192,30682,1,0,0:0:0:0:
64,192,30921,1,0,0:0:0:0:
64,192,31160,1,0,0:0:0:0:
448,192,31280,128,0,32714:0:0:0:0:
320,192,32714,1,0,0:0:0:0:
320,192,33132,1,0,0:0:0:0:
192,192,33252,128,0,35104:0:0:0:0:
320,192,34507,1,0,0:0:0:0:
320,192,35104,1,0,0:0:0:0:
448,192,35463,128,0,37435:0:0:0:0:
64,192,36957,1,0,0:0:0:0:
64,192,37256,1,0,0:0:0:0:
448,192,37614,128,0,39347:0:0:0:0:
64,192,38929,1,0,0:0:0:0:
64,192,39467,1,0,0:0:0:0:
192,192,39467,1,0,0:0:0:0:
320,192,39467,1,0,0:0:0:0:
448,192,39586,1,0,0:0:0:0:
320,192,39885,128,0,40722:0:0:0:0:
192,192,39885,128,0,40722:0:0:0:0:
192,192,40901,1,0,0:0:0:0:
320,192,40901,1,0,0:0:0:0:
448,192,41379,1,0,0:0:0:0:
64,192,41379,1,0,0:0:0:0:
320,192,41618,128,0,42813:0:0:0:0:
192,192,41618,128,0,42813:0:0:0:0:
64,192,42574,1,0,0:0:0:0:
448,192,43052,1,0,0:0:0:0:
320,192,43052,1,0,0:0:0:0:
192,192,43052,1,0,0:0:0:0:
320,192,43590,1,0,0:0:0:0:
448,192,43590,1,0,0:0:0:0:
192,192,43590,1,0,0:0:0:0:
64,192,43590,1,0,0:0:0:0:
448,192,43889,128,0,45622:0:0:0:0:
64,192,43889,1,0,0:0:0:0:
320,192,44487,1,0,0:0:0:0:
64,192,44726,1,0,0:0:0:0:
320,192,45323,1,0,0:0:0:0:
64,192,45622,1,0,0:0:0:0:
192,192,45622,1,0,0:0:0:0:
320,192,45801,1,0,0:0:0:0:
448,192,46041,128,0,47594:0:0:0:0:
320,192,47056,1,0,0:0:0:0:
320,192,47594,1,0,0:0:0:0:
448,192,47833,1,0,0:0:0:0:
320,192,48013,1,0,0:0:0:0:
192,192,48192,1,0,0:0:0:0:
64,192,48371,1,0,0:0:0:0:
192,192,48550,1,0,0:0:0:0:
320,192,48730,1,0,0:0:0:0:
448,192,48909,1,0,0:0:0:0:
320,192,49088,1,0,0:0:0:0:
192,192,49268,1,0,0:0:0:0:
64,192,49447,1,0,0:0:0:0:
448,192,49626,1,0,0:0:0:0:
320,192,49805,1,0,0:0:0:0:
192,192,49985,1,0,0:0:0:0:
64,192,50164,1,0,0:0:0:0:
192,192,50343,1,0,0:0:0:0:
320,192,50582,1,0,0:0:0:0:
448,192,50762,1,0,0:0:0:0:
320,192,50941,1,0,0:0:0:0:
192,192,51120,1,0,0:0:0:0:
64,192,51299,1,0,0:0:0:0:
192,192,51479,1,0,0:0:0:0:
320,192,51658,1,0,0:0:0:0:
448,192,51837,1,0,0:0:0:0:
320,192,52017,1,0,0:0:0:0:
192,192,52196,1,0,0:0:0:0:
64,192,52375,1,0,0:0:0:0:
448,192,52554,1,0,0:0:0:0:
320,192,52734,1,0,0:0:0:0:
192,192,52913,1,0,0:0:0:0:
64,192,53092,1,0,0:0:0:0:
448,192,53092,1,0,0:0:0:0:
320,192,53272,1,0,0:0:0:0:
192,192,53451,1,0,0:0:0:0:
64,192,53630,1,0,0:0:0:0:
64,192,53809,1,0,0:0:0:0:
192,192,53989,1,0,0:0:0:0:
320,192,54168,1,0,0:0:0:0:
448,192,54347,1,0,0:0:0:0:
64,192,54407,1,0,0:0:0:0:
64,192,54706,1,0,0:0:0:0:
64,192,55005,1,0,0:0:0:0:
192,192,55124,1,0,0:0:0:0:
320,192,55124,1,0,0:0:0:0:
448,192,55124,1,0,0:0:0:0:
448,192,57216,128,0,58710:0:0:0:0:
320,192,57216,1,0,0:0:0:0:
64,192,57515,1,0,0:0:0:0:
320,192,57873,1,0,0:0:0:0:
64,192,58232,1,0,0:0:0:0:
320,192,58710,1,0,0:0:0:0:
64,192,59009,128,0,60383:0:0:0:0:
192,192,60562,1,0,0:0:0:0:
320,192,60562,1,0,0:0:0:0:
448,192,60562,1,0,0:0:0:0:
448,192,60861,128,0,61937:0:0:0:0:
64,192,60921,1,0,0:0:0:0:
320,192,61339,1,0,0:0:0:0:
64,192,61937,1,0,0:0:0:0:
64,192,62176,1,0,0:0:0:0:
320,192,62355,1,0,0:0:0:0:
64,192,62594,1,0,0:0:0:0:
448,192,62774,1,0,0:0:0:0:
448,192,63192,1,0,0:0:0:0:
448,192,63431,1,0,0:0:0:0:
64,192,64626,1,0,0:0:0:0:
192,192,64626,1,0,0:0:0:0:
448,192,64925,1,0,0:0:0:0:
320,192,64925,1,0,0:0:0:0:
192,192,65284,128,0,66299:0:0:0:0:
320,192,65284,128,0,66299:0:0:0:0:
448,192,66299,1,0,0:0:0:0:
64,192,66299,1,0,0:0:0:0:
192,192,66539,1,0,0:0:0:0:
320,192,66539,1,0,0:0:0:0:
192,192,66778,1,0,0:0:0:0:
320,192,66778,1,0,0:0:0:0:
448,192,67375,1,0,0:0:0:0:
64,192,67375,1,0,0:0:0:0:
320,192,67674,1,0,0:0:0:0:
64,192,67913,1,0,0:0:0:0:
320,192,68092,1,0,0:0:0:0:
64,192,68272,1,0,0:0:0:0:
448,192,68511,1,0,0:0:0:0:
320,192,68511,1,0,0:0:0:0:
192,192,68869,1,0,0:0:0:0:
192,192,69228,1,0,0:0:0:0:
320,192,69527,1,0,0:0:0:0:
64,192,69646,1,0,0:0:0:0:
192,192,69945,1,0,0:0:0:0:
448,192,69945,1,0,0:0:0:0:
320,192,70303,1,0,0:0:0:0:
64,192,70303,1,0,0:0:0:0:
192,192,70542,1,0,0:0:0:0:
448,192,70542,1,0,0:0:0:0:
448,192,71499,1,0,0:0:0:0:
448,192,71738,1,0,0:0:0:0:
64,192,72276,128,0,73770:0:0:0:0:
192,192,73292,1,0,0:0:0:0:
192,192,73770,1,0,0:0:0:0:
448,192,73889,128,0,75264:0:0:0:0:
320,192,74367,1,0,0:0:0:0:
64,192,74845,1,0,0:0:0:0:
320,192,75264,1,0,0:0:0:0:
64,192,75503,1,0,0:0:0:0:
192,192,75503,1,0,0:0:0:0:
320,192,75503,1,0,0:0:0:0:
448,192,75562,1,0,0:0:0:0:
64,192,75981,1,0,0:0:0:0:
448,192,75981,128,0,77475:0:0:0:0:
320,192,76698,1,0,0:0:0:0:
64,192,77236,1,0,0:0:0:0:
448,192,77714,1,0,0:0:0:0:
320,192,77714,1,0,0:0:0:0:
192,192,77774,1,0,0:0:0:0:
192,192,77953,1,0,0:0:0:0:
320,192,78311,1,0,0:0:0:0:
64,192,78491,1,0,0:0:0:0:
448,192,78670,1,0,0:0:0:0:
192,192,78909,1,0,0:0:0:0:
320,192,79088,1,0,0:0:0:0:
192,192,79387,1,0,0:0:0:0:
320,192,79566,1,0,0:0:0:0:
448,192,79566,1,0,0:0:0:0:
192,192,79686,1,0,0:0:0:0:
64,192,79686,1,0,0:0:0:0:
192,192,79985,128,0,81299:0:0:0:0:
448,192,81658,1,0,0:0:0:0:
448,192,81957,1,0,0:0:0:0:
192,192,82256,128,0,83690:0:0:0:0:
448,192,83690,1,0,0:0:0:0:
448,192,83989,1,0,0:0:0:0:
448,192,84467,128,0,86021:0:0:0:0:
64,192,85662,1,0,0:0:0:0:
64,192,85961,1,0,0:0:0:0:
64,192,86200,1,0,0:0:0:0:
192,192,86200,1,0,0:0:0:0:
320,192,86200,1,0,0:0:0:0:
448,192,86200,1,0,0:0:0:0:
448,192,86618,128,0,88292:0:0:0:0:
64,192,87335,1,0,0:0:0:0:
320,192,87634,1,0,0:0:0:0:
64,192,87993,1,0,0:0:0:0:
320,192,88292,1,0,0:0:0:0:
192,192,88531,128,0,89128:0:0:0:0:
320,192,88531,128,0,89128:0:0:0:0:
448,192,89248,128,0,89726:0:0:0:0:
64,192,89248,128,0,89726:0:0:0:0:
192,192,89905,1,0,0:0:0:0:
320,192,89905,1,0,0:0:0:0:
192,192,90204,1,0,0:0:0:0:
320,192,90204,1,0,0:0:0:0:
448,192,90383,128,0,91997:0:0:0:0:
192,192,91877,1,0,0:0:0:0:
320,192,91877,1,0,0:0:0:0:
192,192,92236,1,0,0:0:0:0:
320,192,92236,1,0,0:0:0:0:
64,192,92594,1,0,0:0:0:0:
448,192,92654,1,0,0:0:0:0:
64,192,92953,1,0,0:0:0:0:
192,192,93252,1,0,0:0:0:0:
320,192,93610,1,0,0:0:0:0:
448,192,93909,1,0,0:0:0:0:
320,192,93909,1,0,0:0:0:0:
192,192,93909,1,0,0:0:0:0:
320,192,94447,1,0,0:0:0:0:
64,192,94447,1,0,0:0:0:0:
192,192,94447,1,0,0:0:0:0:
448,192,94805,1,0,0:0:0:0:
192,192,94805,1,0,0:0:0:0:
64,192,95044,1,0,0:0:0:0:
448,192,95044,1,0,0:0:0:0:
448,192,95284,128,0,95881:0:0:0:0:
64,192,95582,1,0,0:0:0:0:
64,192,95881,1,0,0:0:0:0:
64,192,96180,1,0,0:0:0:0:
192,192,96180,1,0,0:0:0:0:
448,192,96419,1,0,0:0:0:0:
64,192,96419,1,0,0:0:0:0:
192,192,96419,1,0,0:0:0:0:
320,192,96539,1,0,0:0:0:0:
448,192,96778,1,0,0:0:0:0:
320,192,97017,1,0,0:0:0:0:
64,192,97136,1,0,0:0:0:0:
64,192,97375,1,0,0:0:0:0:
192,192,97554,1,0,0:0:0:0:
320,192,97734,1,0,0:0:0:0:
448,192,97913,1,0,0:0:0:0:
320,192,98092,1,0,0:0:0:0:
192,192,98272,1,0,0:0:0:0:
64,192,98451,1,0,0:0:0:0:
192,192,98630,1,0,0:0:0:0:
320,192,98809,1,0,0:0:0:0:
448,192,98989,1,0,0:0:0:0:
320,192,99168,1,0,0:0:0:0:
192,192,99347,1,0,0:0:0:0:
64,192,99467,1,0,0:0:0:0:
64,192,99706,1,0,0:0:0:0:
192,192,99885,1,0,0:0:0:0:
320,192,100064,1,0,0:0:0:0:
64,192,100064,1,0,0:0:0:0:
448,192,100244,1,0,0:0:0:0:
192,192,100244,1,0,0:0:0:0:
320,192,100423,1,0,0:0:0:0:
64,192,100423,1,0,0:0:0:0:
448,192,100602,1,0,0:0:0:0:
192,192,100602,1,0,0:0:0:0:
320,192,100782,1,0,0:0:0:0:
448,192,100961,1,0,0:0:0:0:
64,192,101140,1,0,0:0:0:0:
192,192,101319,1,0,0:0:0:0:
320,192,101499,1,0,0:0:0:0:
448,192,101678,1,0,0:0:0:0:
320,192,101917,1,0,0:0:0:0:
192,192,102037,1,0,0:0:0:0:
64,192,102216,1,0,0:0:0:0:
192,192,102395,1,0,0:0:0:0:
320,192,102574,1,0,0:0:0:0:
448,192,102754,1,0,0:0:0:0:
448,192,102933,1,0,0:0:0:0:
320,192,103112,1,0,0:0:0:0:
192,192,103292,1,0,0:0:0:0:
64,192,103471,1,0,0:0:0:0:
192,192,103650,1,0,0:0:0:0:
320,192,103829,1,0,0:0:0:0:
448,192,104009,1,0,0:0:0:0:
320,192,104128,1,0,0:0:0:0:
192,192,104128,1,0,0:0:0:0:
64,192,104128,1,0,0:0:0:0:
64,192,104367,128,0,106459:0:0:0:0:
192,192,104427,1,0,0:0:0:0:
320,192,104606,1,0,0:0:0:0:
448,192,104786,1,0,0:0:0:0:
320,192,104965,1,0,0:0:0:0:
192,192,105144,1,0,0:0:0:0:
320,192,105323,1,0,0:0:0:0:
448,192,105503,1,0,0:0:0:0:
320,192,105682,1,0,0:0:0:0:
192,192,105861,1,0,0:0:0:0:
320,192,106041,1,0,0:0:0:0:
448,192,106220,1,0,0:0:0:0:
320,192,106339,1,0,0:0:0:0:
192,192,106519,1,0,0:0:0:0:
448,192,106758,128,0,108491:0:0:0:0:
64,192,106758,128,0,108491:0:0:0:0:
192,192,106758,1,0,0:0:0:0:
320,192,106937,1,0,0:0:0:0:
192,192,107116,1,0,0:0:0:0:
320,192,107295,1,0,0:0:0:0:
192,192,107475,1,0,0:0:0:0:
320,192,107654,1,0,0:0:0:0:
192,192,107833,1,0,0:0:0:0:
320,192,108013,1,0,0:0:0:0:
192,192,108192,1,0,0:0:0:0:
320,192,108371,1,0,0:0:0:0:
192,192,108550,1,0,0:0:0:0:
64,192,108790,1,0,0:0:0:0:
192,192,108969,1,0,0:0:0:0:
320,192,109148,1,0,0:0:0:0:
64,192,109268,1,0,0:0:0:0:
448,192,109327,1,0,0:0:0:0:
192,192,109447,1,0,0:0:0:0:
320,192,109626,1,0,0:0:0:0:
64,192,109626,1,0,0:0:0:0:
192,192,109805,1,0,0:0:0:0:
448,192,109865,1,0,0:0:0:0:
320,192,109985,1,0,0:0:0:0:
448,192,110164,1,0,0:0:0:0:
448,192,110343,1,0,0:0:0:0:
320,192,110523,1,0,0:0:0:0:
192,192,110702,1,0,0:0:0:0:
448,192,110702,1,0,0:0:0:0:
64,192,110881,1,0,0:0:0:0:
320,192,110881,1,0,0:0:0:0:
192,192,111060,1,0,0:0:0:0:
64,192,111240,1,0,0:0:0:0:
64,192,111479,1,0,0:0:0:0:
448,192,111479,1,0,0:0:0:0:
192,192,111658,1,0,0:0:0:0:
320,192,111837,1,0,0:0:0:0:
64,192,111957,1,0,0:0:0:0:
448,192,112136,1,0,0:0:0:0:
64,192,112256,1,0,0:0:0:0:
320,192,112256,1,0,0:0:0:0:
320,192,112554,1,0,0:0:0:0:
192,192,112674,1,0,0:0:0:0:
64,192,112853,1,0,0:0:0:0:
320,192,112913,1,0,0:0:0:0:
448,192,113212,128,0,114945:0:0:0:0:
64,192,115005,128,0,116499:0:0:0:0:
320,192,116618,128,0,118112:0:0:0:0:
192,192,117096,1,0,0:0:0:0:
192,192,117634,1,0,0:0:0:0:
64,192,117873,1,0,0:0:0:0:
192,192,118112,1,0,0:0:0:0:
448,192,118411,1,0,0:0:0:0:
64,192,118531,1,0,0:0:0:0:
64,192,118829,1,0,0:0:0:0:
448,192,120204,1,0,0:0:0:0:
448,192,121100,1,0,0:0:0:0:
448,192,122116,128,0,123790:0:0:0:0:
320,192,123371,1,0,0:0:0:0:
320,192,123790,1,0,0:0:0:0:
64,192,123969,128,0,125463:0:0:0:0:
192,192,125044,1,0,0:0:0:0:
192,192,125463,1,0,0:0:0:0:
192,192,125821,1,0,0:0:0:0:
448,192,126001,128,0,127554:0:0:0:0:
320,192,126001,1,0,0:0:0:0:
64,192,126419,1,0,0:0:0:0:
64,192,126897,1,0,0:0:0:0:
192,192,127554,1,0,0:0:0:0:
448,192,128511,1,0,0:0:0:0:
448,192,128750,1,0,0:0:0:0:
64,192,129407,128,0,131021:0:0:0:0:
192,192,130423,1,0,0:0:0:0:
192,192,131021,1,0,0:0:0:0:
448,192,131140,128,0,132694:0:0:0:0:
320,192,132216,1,0,0:0:0:0:
320,192,132694,1,0,0:0:0:0:
448,192,132933,1,0,0:0:0:0:
320,192,132933,1,0,0:0:0:0:
192,192,132933,1,0,0:0:0:0:
448,192,133411,1,0,0:0:0:0:
64,192,133531,1,0,0:0:0:0:
64,192,134009,1,0,0:0:0:0:
320,192,134009,1,0,0:0:0:0:
192,192,134307,1,0,0:0:0:0:
320,192,134606,1,0,0:0:0:0:
448,192,134905,1,0,0:0:0:0:
192,192,134905,1,0,0:0:0:0:
64,192,134905,1,0,0:0:0:0:
192,192,135323,1,0,0:0:0:0:
320,192,135742,1,0,0:0:0:0:
64,192,135921,1,0,0:0:0:0:
192,192,136220,1,0,0:0:0:0:
320,192,136459,1,0,0:0:0:0:
192,192,136758,1,0,0:0:0:0:
320,192,136877,1,0,0:0:0:0:
448,192,136997,1,0,0:0:0:0:
448,192,137236,1,0,0:0:0:0:
64,192,137236,1,0,0:0:0:0:
192,192,137594,1,0,0:0:0:0:
448,192,138013,1,0,0:0:0:0:
64,192,138013,1,0,0:0:0:0:
320,192,138192,1,0,0:0:0:0:
64,192,138431,1,0,0:0:0:0:
448,192,138431,1,0,0:0:0:0:
64,192,138730,1,0,0:0:0:0:
64,192,138909,1,0,0:0:0:0:
192,192,139387,1,0,0:0:0:0:
320,192,139686,1,0,0:0:0:0:
192,192,139865,1,0,0:0:0:0:
192,192,140284,128,0,141180:0:0:0:0:
320,192,140881,1,0,0:0:0:0:
320,192,141180,1,0,0:0:0:0:
64,192,141419,128,0,142853:0:0:0:0:
448,192,141479,128,0,142853:0:0:0:0:
320,192,142495,1,0,0:0:0:0:
192,192,142853,1,0,0:0:0:0:
64,192,143212,1,0,0:0:0:0:
192,192,143212,1,0,0:0:0:0:
320,192,143212,1,0,0:0:0:0:
448,192,143331,1,0,0:0:0:0:
64,192,143630,128,0,144825:0:0:0:0:
192,192,144825,1,0,0:0:0:0:
192,192,145244,1,0,0:0:0:0:
448,192,145483,1,0,0:0:0:0:
320,192,145662,1,0,0:0:0:0:
192,192,145841,1,0,0:0:0:0:
64,192,146021,1,0,0:0:0:0:
192,192,146200,1,0,0:0:0:0:
320,192,146379,1,0,0:0:0:0:
448,192,146558,1,0,0:0:0:0:
320,192,146738,1,0,0:0:0:0:
192,192,146917,1,0,0:0:0:0:
64,192,147096,1,0,0:0:0:0:
192,192,147276,1,0,0:0:0:0:
320,192,147455,1,0,0:0:0:0:
448,192,147574,1,0,0:0:0:0:
64,192,147813,1,0,0:0:0:0:
192,192,147993,1,0,0:0:0:0:
320,192,148172,1,0,0:0:0:0:
448,192,148351,1,0,0:0:0:0:
320,192,148531,1,0,0:0:0:0:
192,192,148710,1,0,0:0:0:0:
64,192,148889,1,0,0:0:0:0:
64,192,149128,1,0,0:0:0:0:
192,192,149307,1,0,0:0:0:0:
320,192,149487,1,0,0:0:0:0:
448,192,149666,1,0,0:0:0:0:
320,192,149845,1,0,0:0:0:0:
192,192,150025,1,0,0:0:0:0:
64,192,150204,1,0,0:0:0:0:
448,192,150383,1,0,0:0:0:0:
320,192,150562,1,0,0:0:0:0:
192,192,150742,1,0,0:0:0:0:
448,192,150861,1,0,0:0:0:0:
64,192,150981,1,0,0:0:0:0:
320,192,151100,1,0,0:0:0:0:
192,192,151280,1,0,0:0:0:0:
448,192,151339,1,0,0:0:0:0:
64,192,151459,1,0,0:0:0:0:
320,192,151519,1,0,0:0:0:0:
192,192,151698,1,0,0:0:0:0:
64,192,151877,1,0,0:0:0:0:
64,192,152056,1,0,0:0:0:0:
192,192,152295,1,0,0:0:0:0:
320,192,152535,1,0,0:0:0:0:
448,192,152714,1,0,0:0:0:0:
320,192,152893,1,0,0:0:0:0:
192,192,153072,1,0,0:0:0:0:
64,192,153252,1,0,0:0:0:0:
64,192,153491,1,0,0:0:0:0:
448,192,153550,1,0,0:0:0:0:
320,192,153550,1,0,0:0:0:0:
192,192,153730,1,0,0:0:0:0:
448,192,153790,1,0,0:0:0:0:
64,192,153849,1,0,0:0:0:0:
320,192,154088,1,0,0:0:0:0:
448,192,154268,1,0,0:0:0:0:
192,192,154387,1,0,0:0:0:0:
64,192,154387,1,0,0:0:0:0:
320,192,154566,1,0,0:0:0:0:
448,192,154746,1,0,0:0:0:0:
64,192,154865,1,0,0:0:0:0:
320,192,154985,1,0,0:0:0:0:
64,192,155164,1,0,0:0:0:0:
448,192,155164,1,0,0:0:0:0:
192,192,155284,1,0,0:0:0:0:
320,192,155284,1,0,0:0:0:0:
64,192,155523,1,0,0:0:0:0:
192,192,155642,1,0,0:0:0:0:
320,192,155762,1,0,0:0:0:0:
448,192,155881,1,0,0:0:0:0:
320,192,156001,1,0,0:0:0:0:
192,192,156120,1,0,0:0:0:0:
64,192,156240,1,0,0:0:0:0:
192,192,156359,1,0,0:0:0:0:
320,192,156479,1,0,0:0:0:0:
448,192,156598,1,0,0:0:0:0:
320,192,156718,1,0,0:0:0:0:
192,192,156837,1,0,0:0:0:0:
64,192,156957,1,0,0:0:0:0:
192,192,157076,1,0,0:0:0:0:
320,192,157196,1,0,0:0:0:0:
448,192,157315,1,0,0:0:0:0:
320,192,157435,1,0,0:0:0:0:
192,192,157554,1,0,0:0:0:0:
64,192,157674,1,0,0:0:0:0:
192,192,157793,1,0,0:0:0:0:
320,192,157913,1,0,0:0:0:0:
448,192,158033,1,0,0:0:0:0:
320,192,158152,1,0,0:0:0:0:
192,192,158272,1,0,0:0:0:0:
64,192,158391,1,0,0:0:0:0:
448,192,158511,1,0,0:0:0:0:
320,192,158630,1,0,0:0:0:0:
192,192,158809,1,0,0:0:0:0:
64,192,158989,1,0,0:0:0:0:
192,192,159168,1,0,0:0:0:0:
320,192,159347,1,0,0:0:0:0:
448,192,159586,1,0,0:0:0:0:
320,192,159766,1,0,0:0:0:0:
192,192,159945,1,0,0:0:0:0:
64,192,160184,1,0,0:0:0:0:
192,192,160363,1,0,0:0:0:0:
320,192,160542,1,0,0:0:0:0:
448,192,160722,1,0,0:0:0:0:
448,192,160901,1,0,0:0:0:0:
320,192,160901,1,0,0:0:0:0:
192,192,160901,1,0,0:0:0:0:
64,192,161080,1,0,0:0:0:0:
192,192,161260,1,0,0:0:0:0:
448,192,163052,128,0,164427:0:0:0:0:
320,192,164068,1,0,0:0:0:0:
320,192,164427,1,0,0:0:0:0:
64,192,164666,128,0,166100:0:0:0:0:
192,192,166220,1,0,0:0:0:0:
192,192,166459,1,0,0:0:0:0:
448,192,166698,128,0,168192:0:0:0:0:
192,192,168252,1,0,0:0:0:0:
320,192,168491,1,0,0:0:0:0:
448,192,168730,1,0,0:0:0:0:
448,192,169208,1,0,0:0:0:0:
448,192,169447,1,0,0:0:0:0:
