osu file format v7

[General]
AudioFilename: Nightcore - You Got Me Dancing.mp3
AudioLeadIn: 1996
PreviewTime: 58136
Countdown: 0
SampleSet: Soft
StackLeniency: 0.3
Mode: 0
LetterboxInBreaks: 1

[Editor]
DistanceSpacing: 1
BeatDivisor: 4
GridSize: 8

[Metadata]
Title:You Got Me Dancing
Artist:Nightcore
Creator:osuplayer111
Version:Insane
Source:Nightcore III
Tags:Techno Trance

[Difficulty]
HPDrainRate:7
CircleSize:5
OverallDifficulty:8
SliderMultiplier:1.5
SliderTickRate:1

[Events]
//Background and Video events
0,0,"Hard.jpg"
//Break Periods
2,70208,88528
//Storyboard Layer 0 (Background)
//Storyboard Layer 1 (Fail)
//Storyboard Layer 2 (Pass)
//Storyboard Layer 3 (Foreground)
//Storyboard Sound Samples
//Background Colour Transformations
3,100,0,255,255

[TimingPoints]
1185,344.115622849277,4,2,1,60,1,0
1185,-100,4,2,1,80,0,0
9959,-100,4,2,1,70,0,0
10648,-100,4,2,1,60,0,0
12196,-100,4,2,1,80,0,0
13487,-100,4,1,1,100,0,0
13659,-100,4,2,1,80,0,0
24498,-100,4,1,1,100,0,0
24670,-100,4,2,1,80,0,0
34478,-100,4,1,1,60,0,0
35424,-100,4,2,1,80,0,0
44973,-200,4,2,1,80,0,0
45317,-100,4,2,1,0,0,0
45489,-100,4,2,1,80,0,0
58996,-100,4,2,1,80,0,1
70008,-100,4,2,1,80,0,0
101408,-200,4,2,1,80,0,0
101924,-200,4,2,1,50,0,0
102096,-200,4,2,1,80,0,0
102613,-100,4,2,1,80,0,0
115431,-100,4,2,1,80,0,1
126357,-100,4,2,1,80,0,0
126443,-100,4,2,1,80,0,1
137454,-100,4,2,1,80,0,0

[Colours]
Combo1 : 0,255,0
Combo2 : 255,0,0
Combo3 : 253,216,2

[HitObjects]
256,40,324,1,0
216,104,496,1,0
296,104,668,1,0
256,168,840,1,0
256,168,1012,1,0
256,168,1185,6,0,B|256:320,2,150,2|0|0
216,104,2045,1,0
256,40,2217,1,0
296,104,2389,1,0
256,168,2561,1,0
256,320,2905,1,0
256,168,3077,6,0,B|208:96,1,75
256,168,3421,2,0,B|304:96,1,75
256,40,3765,1,0
256,40,3937,1,2
408,40,4282,1,0
488,168,4626,5,0
440,224,4798,1,0
488,280,4970,1,0
440,336,5142,1,0
368,336,5314,1,0
144,336,5830,6,0,B|96:360|64:312,1,75
64,256,6174,2,0,B|48:216|72:176,1,75
128,136,6518,1,0
128,136,6690,2,0,B|200:64|272:144,2,150,2|0|0
195,175,7551,1,0
160,240,7723,1,0
232,240,7895,1,0
232,240,8067,2,0,B|232:328|352:328,1,150
392,280,8583,5,0
432,344,8755,1,0
472,280,8927,2,0,B|472:200,1,75
472,205,9271,1,0
472,128,9443,5,2
344,48,9787,1,0
168,48,10132,5,2
40,128,10476,1,0
256,192,10820,5,2
256,352,11164,1,0
256,192,12712,5,0
256,192,12798,1,0
256,192,12884,1,2
208,248,13056,1,0
184,280,13143,1,8
160,312,13229,1,8
88,312,13401,1,8
48,248,13573,6,0,B|24:208|56:168,1,75,4|2
96,120,13917,1,8
120,96,14003,1,0
144,72,14089,1,0
200,24,14261,1,8
200,24,14433,1,2
272,56,14605,1,8
304,72,14691,1,0
336,88,14777,1,0
400,48,14949,5,8
464,88,15121,1,2
464,160,15293,2,0,B|384:160,1,75,8|0
360,232,15637,2,0,B|448:232,1,75,8|0
496,280,15981,1,8
496,352,16154,1,0
432,320,16326,5,8
360,352,16498,2,0,B|256:352,1,75,2|8
285,352,16756,1,0
285,352,16842,1,0
256,280,17014,1,8
256,208,17186,1,2
184,184,17358,5,8
152,200,17444,1,0
120,216,17530,1,0
120,216,17702,1,8
48,216,17874,1,2
48,216,18218,5,2
48,144,18390,2,0,B|48:96|88:80,1,75,8|0
136,32,18734,2,0,B|216:32,1,75,8|0
256,88,19079,1,8
304,32,19251,1,2
376,32,19423,1,8
408,56,19509,1,0
440,80,19595,1,0
440,152,19767,1,8
440,152,19939,1,2
440,224,20111,5,8
400,224,20197,1,0
360,224,20283,1,0
328,288,20455,1,8
256,320,20627,1,0
184,288,20799,1,8
256,320,20971,2,0,B|256:240,1,75,0|8
256,168,21315,2,0,B|192:112,1,75,0|8
256,168,21659,2,0,B|320:112,1,75,0|8
256,64,22003,5,2
256,64,22176,1,8
256,64,22262,1,0
256,64,22348,1,0
200,120,22520,1,8
312,120,22692,1,2
312,120,22864,1,8
312,120,22950,1,0
312,120,23036,1,0
256,168,23208,2,0,B|256:248,1,75,8|2
256,243,23724,5,0
256,243,23810,1,0
256,243,23896,1,2
224,312,24068,1,0
256,336,24154,1,8
288,312,24240,1,8
360,312,24412,2,0,B|432:360,1,75,8|4
480,304,24756,1,2
440,240,24928,5,8
416,208,25015,1,0
392,176,25101,1,0
456,136,25273,1,8
456,64,25445,1,2
384,40,25617,1,8
344,40,25703,1,0
304,40,25789,1,0
256,96,25961,6,0,B|176:64,1,75,8|2
120,104,26305,1,8
72,40,26477,2,0,B|32:128,1,75,0|8
88,168,26821,1,0
64,240,26993,2,0,B|144:280,1,75,8|0
184,216,27337,5,8
216,152,27509,1,2
256,216,27681,1,8
256,216,27767,1,0
256,216,27853,1,0
296,152,28026,1,8
336,216,28198,1,2
256,216,28370,1,8
256,216,28456,1,0
256,216,28542,1,0
256,216,28714,1,8
256,216,28886,1,2
256,216,29230,6,0,B|256:304,1,75,2|8
136,352,29574,2,0,B|216:352,1,75,0|8
376,352,29918,2,0,B|296:352,1,75,0|8
256,291,30262,1,2
256,216,30434,5,8
256,216,30520,1,0
256,216,30606,1,0
216,152,30778,1,8
296,152,30951,1,2
256,80,31123,1,8
256,80,31209,1,0
256,80,31295,1,0
216,16,31467,2,0,B|128:16,1,75,8|0
296,16,31811,2,0,B|384:16,1,75,8|0
256,80,32155,6,0,B|256:176,1,75,8|0
328,192,32499,1,8
304,264,32671,1,0
256,328,32843,1,8
208,264,33015,1,2
184,192,33187,5,8
184,192,33273,1,0
184,192,33359,1,0
256,192,33531,1,8
256,192,33703,1,2
328,192,33875,1,8
328,192,33962,1,0
328,192,34048,1,0
304,264,34220,1,8
256,328,34392,1,2
208,264,34564,5,0
256,112,34908,1,0
304,264,35252,1,0
256,192,35596,1,4
256,112,35768,5,0
216,48,35940,2,0,B|192:16|136:16,1,75,2|0
296,48,36284,2,0,B|312:16|368:16,1,75
256,112,36628,1,0
256,112,36800,2,0,B|224:168|296:208|256:264,1,150,2|0
208,312,37317,1,0
256,368,37489,1,0
304,312,37661,1,2
256,368,37833,1,0
256,72,38521,6,0,B|256:160,1,75,0|2
256,312,38865,2,0,B|256:232,1,75
192,192,39209,1,0
320,192,39381,1,0
256,312,39553,1,2
120,192,41274,6,0,B|200:192,1,75,0|2
392,192,41618,2,0,B|312:192,1,75
256,240,41962,1,0
256,144,42134,1,0
392,192,42306,1,2
256,240,42650,5,0
312,296,42822,1,2
256,344,42995,1,0
200,296,43167,1,0
256,240,43339,1,2
256,32,44199,6,0,B|256:120,1,75,2|0
328,136,44543,1,0
376,192,44715,1,0
328,248,44887,1,0
256,360,45059,2,2,B|256:272,1,75,2|0
256,192,45575,1,2
184,248,45747,1,0
136,192,45920,1,0
184,136,46092,1,0
328,248,46264,5,8
184,248,46436,1,0
256,192,46608,1,4
328,136,46780,1,2
184,136,46952,1,0
256,272,47124,2,0,B|256:360,1,75
256,112,47468,2,0,B|256:24,1,75
256,192,47812,1,2
112,192,48156,5,0
184,192,48328,1,0
256,192,48500,1,0
328,192,48672,1,0
400,192,48845,1,2
256,192,49533,5,0
184,192,49705,2,0,B|184:288,1,75,2|0
328,192,50049,2,0,B|328:112,1,75
256,264,50393,1,0
256,120,50565,1,2
256,192,51597,5,2
256,192,51683,1,0
256,192,51942,2,0,B|256:240,4,37.5,0|0|2|0|0
184,168,52458,1,0
208,96,52630,1,0
256,32,52802,1,2
304,96,52974,1,0
328,168,53146,1,0
256,192,53318,6,0,B|256:248,2,37.5
328,168,53662,1,0
304,96,53834,1,2
256,32,54006,1,0
208,96,54178,1,0
184,168,54350,1,0
256,192,54522,1,0
256,192,54694,6,0,B|256:272,2,75,2|0|0
184,168,55211,1,0
328,168,55383,1,0
208,96,55555,1,2
304,96,55727,1,0
256,32,55899,1,0
256,192,56071,5,2
256,352,56759,1,2
256,32,57447,1,2
256,32,57619,1,4
256,192,58136,5,0
256,192,58308,1,2
256,192,58480,2,0,B|256:136,2,37.5,0|0|8
216,256,58824,1,0
296,256,58996,1,4
432,192,59340,1,8
352,64,59684,5,2
293,15,59856,2,0,B|213:15,1,75,0|8
160,64,60200,1,0
96,104,60372,2,0,B|32:168|112:256,1,150,2|8
160,272,60889,5,0
160,344,61061,2,0,B|248:344,1,75,2|0
256,272,61405,1,8
352,344,61577,2,0,B|272:344,1,75,0|2
352,272,62093,1,8
256,160,62437,6,0,B|256:80,1,75,2|0
192,56,62781,1,8
256,16,62953,1,0
320,56,63125,1,2
256,160,63641,5,0
216,232,63814,2,0,B|128:232,1,75,2|0
296,280,64158,2,0,B|376:280,1,75,8|0
256,352,64502,1,2
256,160,64846,1,8
128,96,65190,5,2
184,48,65362,1,0
256,24,65534,1,8
328,48,65706,1,0
384,96,65878,1,2
256,160,66222,1,8
384,288,66394,5,0
328,336,66566,1,2
256,360,66738,1,0
184,336,66910,1,8
128,288,67082,1,0
256,224,67255,5,2
128,192,67599,1,8
256,160,67943,1,2
384,192,68287,1,8
256,288,68631,1,2
256,88,68975,1,8
256,192,69147,5,0
256,192,69233,1,0
256,192,69319,1,2
256,192,69491,1,0
256,192,69577,1,8
256,192,69664,1,8
256,192,69836,1,0
256,192,70008,1,4
256,192,89278,12,4,92031
256,32,92203,5,0
312,88,92375,1,2
368,144,92547,1,0
424,200,92719,2,0,B|488:256,2,75
368,256,93235,2,0,B|264:288|256:184,1,150,2|0
200,144,93752,1,0
152,88,93924,1,0
104,144,94096,1,0
152,88,94268,1,2
152,88,94956,5,0
200,24,95128,1,2
248,88,95300,1,0
200,144,95472,1,0
200,144,95644,2,0,B|264:208|336:136,1,150,0|2
464,312,97709,6,0,B|440:344|384:344,1,75,0|2
376,272,98053,1,0
320,320,98225,1,0
376,272,98397,2,0,B|400:240|456:240,1,75
320,320,98741,2,0,B|256:280|232:360|160:312,1,150,2|0
136,256,99257,1,0
88,312,99430,1,0
40,368,99602,1,0
88,312,99774,1,2
136,256,100634,5,2
184,192,100806,1,0
256,192,100978,1,0
328,192,101150,1,0
384,248,101322,1,0
256,192,101494,2,0,B|256:48,2,112.5,2|8|0
256,264,102699,5,8
256,336,102871,1,8
256,336,103043,1,4
256,336,103129,1,0
256,336,103215,1,0
184,336,103387,1,0
144,272,103559,1,0
184,208,103731,1,2
256,184,103903,1,0
328,208,104075,1,0
368,272,104247,1,2
328,336,104591,5,0
256,336,104763,1,2
257,259,104935,1,0
256,184,105107,1,0
256,184,105279,1,2
256,184,105968,6,0,B|160:184,1,75,0|2
256,112,106312,2,0,B|344:112,1,75
256,40,106656,2,0,B|176:40,2,75,0|0|2
256,40,108032,1,2
408,40,108377,5,2
464,88,108549,1,0
464,88,108635,1,2
464,88,108721,1,2
408,144,108893,1,0
464,192,109065,1,0
408,248,109237,1,2
464,296,109409,1,0
408,352,109581,1,0
331,351,109753,6,0,B|171:351,1,150,2|0
104,344,110269,1,0
48,296,110441,1,0
104,240,110613,1,2
48,192,110785,1,0
104,136,110957,1,0
48,88,111129,1,2
104,32,111301,1,0
176,32,111473,5,0
256,104,111646,1,0
336,32,111818,1,2
336,352,112162,1,0
256,280,112335,1,0
176,352,112507,5,2
40,192,113194,1,2
472,192,113882,1,2
472,192,114054,1,4
336,32,114571,5,0
304,104,114743,1,2
256,176,114915,2,0,B|256:240,2,37.5,0|0|8
216,104,115259,1,0
176,32,115431,1,4
256,176,115775,1,8
152,280,116119,5,2
184,352,116291,1,0
256,352,116463,1,8
328,352,116635,1,0
360,280,116807,1,2
256,176,117151,1,8
208,120,117324,6,0,B|176:88|208:40,1,75,0|2
304,120,117668,2,0,B|336:88|304:40,1,75,0|8
256,176,118012,1,0
256,248,118184,1,2
256,248,118528,1,8
360,280,118872,5,2
328,352,119044,1,0
256,352,119216,1,8
184,352,119388,1,0
152,280,119560,1,2
40,80,120076,5,0
112,56,120249,2,0,B|192:24,1,75,2|0
256,48,120593,1,8
256,120,120765,1,0
256,192,120937,1,2
256,192,121281,1,8
472,304,121625,5,2
400,328,121798,2,0,B|320:360,1,75,0|8
256,336,122142,1,0
256,264,122314,1,2
256,192,122486,1,0
256,192,122657,1,8
184,192,122829,5,0
256,120,123001,1,2
328,192,123173,1,0
256,264,123346,1,8
256,192,123518,1,0
256,192,123690,5,2
24,32,124034,1,8
488,32,124378,1,2
488,360,124722,1,8
24,360,125066,1,2
256,192,125410,1,8
256,192,125582,5,0
256,192,125754,1,2
256,192,125926,2,0,B|256:248,2,37.5,0|0|8
296,128,126270,1,0
216,128,126442,1,4
80,192,126786,1,8
160,320,127130,5,2
219,369,127302,2,0,B|299:369,1,75,0|8
352,320,127646,1,0
416,280,127818,2,0,B|480:216|400:128,1,150,2|8
352,112,128335,5,0
352,40,128507,2,0,B|264:40,1,75,2|0
256,112,128851,1,8
160,40,129023,2,0,B|240:40,1,75,0|2
160,112,129539,1,8
256,224,129883,6,0,B|256:304,1,75,2|0
320,328,130227,1,8
256,368,130399,1,0
192,328,130571,1,2
256,224,131087,5,0
296,152,131260,2,0,B|384:152,1,75,2|0
216,104,131604,2,0,B|136:104,1,75,8|0
256,32,131948,1,2
256,224,132292,1,8
384,288,132636,5,2
328,336,132808,1,0
256,360,132980,1,8
184,336,133152,1,0
128,288,133324,1,2
256,224,133668,1,8
128,96,133840,5,0
184,48,134012,1,2
256,24,134184,1,0
328,48,134356,1,8
384,96,134528,1,0
256,160,134701,5,2
384,192,135045,1,8
256,224,135389,1,2
128,192,135733,1,8
256,96,136077,1,2
256,296,136421,1,8
256,192,136593,5,0
256,192,136679,1,0
256,192,136765,1,2
256,192,136937,1,0
256,192,137023,1,8
256,192,137110,1,8
256,192,137282,1,0
256,192,137454,1,4
