osu file format v6

[General]
AudioFilename: Nightcore - Wriemia Agniej.mp3
AudioLeadIn: 0
PreviewTime: -1
Countdown: 1
SampleSet: None
StackLeniency: 0.7
Mode: 0
LetterboxInBreaks: 1

[Editor]
DistanceSpacing: 0.800000011920929
BeatDivisor: 4
GridSize: 64

[Metadata]
Title:Wriemia Agniej
Artist:Nightcore
Creator:Jouve
Version:Hard
Source:
Tags:

[Difficulty]
HPDrainRate:7
CircleSize:6
OverallDifficulty:6
SliderMultiplier:1.7
SliderTickRate:1

[Events]
//Background and Video events
0,0,"23766899.jpg"
//Break Periods
2,36199,44482
2,80687,90689
2,103017,111902
//Storyboard Layer 0 (Background)
//Storyboard Layer 1 (Fail)
//Storyboard Layer 2 (Pass)
//Storyboard Layer 3 (Foreground)
//Storyboard Sound Samples
//Background Colour Transformations
3,100,163,162,255

[TimingPoints]
-73.1002252552234,343.544231319782,4,0,0,100,1,0

[HitObjects]
96,64,1386,1,0
192,64,2074,1,0
256,64,2331,1,0
320,64,2589,1,0
448,64,3362,1,0
448,192,3705,1,0
448,288,4049,1,0
352,288,4650,5,0
256,288,4994,1,0
256,192,5337,1,0
352,192,5767,1,0
352,96,6454,1,0
256,96,6883,1,0
160,96,7570,6,0,B|160:224,3,85
160,256,8859,6,0,B|352:256,2,170
96,256,10233,1,0
160,192,10576,1,0
160,96,10920,1,0
224,32,11177,1,0
256,96,11607,1,0
352,96,11950,6,0,B|352:256,1,127.5
352,288,12981,6,0,B|192:288,3,127.5
160,288,14269,2,0,B|160:96,2,170
224,288,15729,2,0,B|416:288,1,170
416,224,16417,2,0,B|224:224,1,170
256,160,17104,2,0,B|448:160,1,170
448,96,17791,1,0
352,96,18392,6,0,B|96:96,2,212.5
352,160,19766,2,0,B|96:160,2,212.5
352,224,21140,1,0
352,288,21312,1,0
352,352,21656,1,0
288,352,21913,1,0
256,192,23287,5,0
256,192,23545,1,0
256,192,23803,1,0
320,192,24232,2,0,B|480:192,1,127.5
448,256,24747,1,0
448,256,25005,1,0
448,256,25263,1,0
384,256,25692,2,0,B|192:256,1,170
192,192,26293,2,0,B|384:192,2,170
128,192,27324,1,0
128,192,27668,1,0
128,192,28011,2,0,B|128:352,2,127.5
128,128,28784,5,0
128,64,29128,1,0
192,64,29385,1,0
256,64,29729,2,0,B|256:160,2,85
320,64,30502,1,0
352,64,30845,1,0
384,64,31103,2,0,B|384:288,1,212.5
320,320,31876,1,0
256,320,32220,1,0
192,320,32563,2,0,B|192:96,1,212.5
192,32,33422,2,0,B|448:32,1,212.5
256,192,34367,12,0,35999
64,32,45532,5,4
160,32,46563,1,4
224,32,46906,1,4
288,32,47164,1,4
352,32,47593,2,4,B|352:192,1,127.5
352,224,48194,1,4
288,224,48538,1,4
160,224,48881,6,4,B|160:32,1,170
224,32,49569,2,4,B|448:32,1,212.5
480,32,50256,2,4,B|480:288,1,212.5
480,320,51029,2,4,B|288:320,2,170
480,256,52059,5,4
480,192,52403,1,4
480,128,52746,1,4
480,64,53090,2,4,B|288:64,1,170
256,64,53691,2,0,B|256:288,1,212.5
192,288,54464,2,0,B|0:288,1,170
32,224,55151,2,0,B|32:0,1,212.5
96,32,55924,2,0,B|352:32,2,212.5
96,96,57212,1,0
96,160,57556,5,8
96,224,57814,1,8
96,288,58157,1,8
160,288,58501,1,8
224,288,58844,2,8,B|224:96,2,170
288,288,59875,1,8
352,288,60218,2,8,B|352:96,1,170
384,96,60906,2,8,B|192:96,1,170
160,96,61593,1,8
160,160,61936,1,8
160,192,62280,1,8
160,256,62623,1,8
160,320,63053,5,2
224,320,63310,1,2
288,320,63654,1,2
352,320,63912,2,2,B|512:320,2,127.5
352,256,64684,1,2
288,256,65028,1,2
224,256,65372,1,2
160,256,65715,2,2,B|160:64,1,170
160,86,66402,2,2,B|160:288,1,170
160,256,67089,1,2
160,320,67433,1,2
224,320,67776,1,2
288,320,68120,1,2
352,320,68463,1,2
416,320,69666,6,2,B|416:64,2,212.5
352,320,70954,1,8
288,320,71212,2,8,B|96:320,2,170
288,256,72242,1,8
224,256,72586,2,8,B|224:64,1,170
288,32,73187,2,8,B|512:32,1,212.5
512,96,73960,2,8,B|352:224,2,170
512,32,75077,1,8
448,32,75506,6,8,B|256:32,2,170
448,96,76537,1,8
448,160,76880,2,8,B|256:160,2,170
448,224,77911,1,8
448,288,78169,2,8,B|256:288,2,170
448,224,79285,2,8,B|448:0,1,212.5
384,32,80144,2,8,B|384:224,1,170
96,64,91739,5,12
160,64,92082,1,12
224,64,92426,1,12
288,64,92769,2,12,B|288:256,1,170
288,288,93456,1,12
224,288,93800,1,12
160,288,94143,1,12
96,288,94487,2,12,B|96:96,1,170
96,118,95174,2,12,B|96:320,1,170
96,288,95861,2,12,B|320:288,1,212.5
352,288,96720,1,14
416,288,97149,5,14
416,224,97493,1,14
416,160,97837,1,14
416,96,98180,1,14
352,96,98609,2,14,B|160:96,1,170
128,96,99297,2,14,B|128:288,1,170
128,266,99984,2,14,B|128:64,1,170
128,96,100671,2,14,B|352:96,1,212.5
416,96,101530,1,14
416,160,101873,1,14
416,224,102217,1,14
416,288,102560,2,14,B|256:288,1,127.5
256,192,112952,12,14,113640
160,192,113983,5,14
160,128,114327,1,14
160,64,114670,1,14
224,64,115014,1,14
288,64,115357,1,14
352,64,115701,1,14
416,64,116044,1,14
416,64,116388,2,14,B|416:256,1,170
416,234,117075,2,14,B|416:32,1,170
416,64,117848,1,14
416,64,118192,1,14
416,64,118535,2,14,B|288:64,2,85
416,128,119222,5,8
416,192,119566,1,8
416,256,119909,1,8
416,320,120253,2,8,B|224:320,1,170
246,320,120854,2,8,B|64:320,1,170
76,320,121541,2,8,B|256:320,1,170
246,320,122228,2,8,B|448:320,1,170
416,320,122915,6,8,B|416:192,2,85
416,320,123602,6,8,B|256:192,1,170
256,192,124289,1,8
256,192,124633,5,8
192,192,124976,1,8
128,192,125320,1,8
64,192,125664,2,8,B|64:0,1,170
64,22,126351,2,8,B|64:224,1,170
64,192,127038,2,8,B|64:384,1,170
64,352,127725,2,8,B|256:352,2,170
64,352,128755,1,8
64,352,129099,1,8
64,352,129443,2,8,B|64:256,2,85
64,352,130130,5,8
128,352,130473,1,8
192,352,130817,1,8
256,352,131160,2,8,B|448:352,1,170
426,352,131847,2,8,B|224:352,1,170
256,352,132534,2,8,B|256:160,1,170
256,128,133222,1,8
256,64,133565,1,8
256,64,133909,2,8,B|256:320,1,212.5
256,192,134596,12,8,137086
