osu file format v9

[General]
AudioFilename: Nightcore - Vamos A La Playa.mp3
AudioLeadIn: 0
PreviewTime: -1
Countdown: 1
SampleSet: Normal
StackLeniency: 0.7
Mode: 1
LetterboxInBreaks: 1

[Editor]
DistanceSpacing: 0.8
BeatDivisor: 6
GridSize: 8

[Metadata]
Title:Vamos A La Playa
Artist:Nightcore
Creator:Theridion
Version:Hard
Source:
Tags:Vamos a la playa, Theridion

[Difficulty]
HPDrainRate:7
CircleSize:5
OverallDifficulty:8
ApproachRate:8
SliderMultiplier:1.4
SliderTickRate:1

[Events]
//Background and Video events
0,0,"anime-beach-volleyball-3.jpg"
//Break Periods
2,39433,46077
//Storyboard Layer 0 (Background)
//Storyboard Layer 1 (Fail)
//Storyboard Layer 2 (Pass)
//Storyboard Layer 3 (Foreground)
//Storyboard Sound Samples
//Background Colour Transformations
3,100,163,162,255

[TimingPoints]
1908.34189834699,389.61038961039,4,1,0,100,1,0

[HitObjects]
416,72,1842,1,0
120,112,2248,1,0
120,112,2623,1,0
120,112,2998,1,0
120,112,3420,1,0
120,112,3795,1,0
120,112,4217,1,0
120,112,4592,1,0
120,112,5014,1,0
120,112,5389,1,0
120,112,5810,1,0
120,112,5904,1,0
120,112,5998,1,0
120,112,6185,1,0
216,120,6373,1,0
216,120,6514,1,0
296,128,6607,1,0
184,248,6654,1,0
184,248,7029,1,0
120,112,7310,1,0
120,112,7357,1,0
120,112,7451,1,0
120,112,7685,1,0
120,112,7873,1,0
320,248,8107,1,0
320,248,8295,1,0
320,248,8389,1,0
224,144,8670,1,0
120,112,9092,1,0
120,112,9467,1,0
120,112,9889,1,0
120,112,10217,1,0
120,112,10639,1,0
120,112,11060,1,0
120,112,11482,1,0
120,112,11810,1,0
120,112,12232,1,0
120,112,12326,1,0
120,112,12420,1,0
120,112,12561,1,0
120,112,12607,1,0
240,184,12936,1,0
272,256,13123,1,0
240,184,13311,1,0
240,184,13498,1,0
272,256,13732,1,0
336,304,13920,1,0
304,304,14107,1,0
304,304,14248,1,0
240,184,14342,1,0
120,112,14389,1,0
264,112,14529,1,0
328,160,14623,1,0
112,208,14764,1,0
120,112,17623,1,0
208,256,17670,1,0
120,112,17764,1,0
208,256,17904,1,0
208,256,17951,1,0
120,112,19451,1,0
120,112,19545,1,0
160,248,19686,1,0
208,168,19873,1,0
120,112,20061,1,0
352,312,22311,1,0
296,120,22732,1,0
208,120,23154,1,0
208,120,23576,1,0
336,120,23904,1,0
296,120,24326,1,0
208,120,24326,1,0
296,120,24420,1,0
336,120,24514,1,0
336,120,24608,1,0
384,280,24701,1,0
384,280,24842,1,0
168,256,24936,1,0
416,128,24983,1,0
416,128,25123,1,0
416,128,25217,1,0
416,128,25358,1,0
416,128,25404,1,0
208,120,25498,1,0
264,232,25592,1,0
112,152,25686,1,0
112,152,25826,1,0
336,280,26108,1,0
336,280,26201,1,0
112,152,26483,1,0
112,152,26623,1,0
112,152,26717,1,0
112,152,26764,1,0
232,72,26904,1,0
416,128,26998,1,0
384,144,27092,1,0
432,184,27186,1,0
288,280,27279,1,0
288,280,27420,1,0
288,280,27514,1,0
256,200,27608,1,0
256,200,27983,1,0
256,200,28404,1,0
280,272,28779,1,0
256,200,29201,1,0
256,200,29576,1,0
256,200,29998,1,0
256,200,30373,1,0
256,200,30795,1,0
256,200,31123,1,0
256,200,31545,1,0
256,200,31967,1,0
256,200,32342,1,0
256,200,32717,1,0
256,200,33139,1,0
256,200,33233,1,0
280,232,33326,1,0
280,232,33420,1,0
280,232,33561,1,0
280,232,33748,1,0
280,232,33936,1,0
280,232,34170,1,0
280,232,34358,1,0
256,200,34498,1,0
280,232,34733,1,0
280,232,34920,1,0
280,232,35155,1,0
256,200,35295,1,0
256,184,35530,1,0
280,232,35623,1,0
280,232,35717,1,0
216,224,35811,1,0
272,288,35951,1,0
320,336,36139,1,0
104,120,36326,2,0,B|304:120,1,192.5
280,232,37592,1,0
280,232,38014,1,0
280,232,38389,1,0
280,232,38811,1,0
280,232,39233,1,0
256,192,46827,5,0
256,192,47202,1,0
256,192,47623,1,0
256,192,48045,1,0
256,192,48186,1,0
256,192,48420,1,0
256,192,48608,1,0
256,192,48795,1,0
256,192,49030,1,0
256,192,49170,1,0
256,192,49405,1,0
272,248,49592,1,0
256,192,49686,1,0
272,248,49827,1,0
272,248,49873,1,0
272,248,49967,1,0
256,192,50108,1,0
272,248,50202,1,0
256,192,50295,1,0
256,192,50389,1,0
256,192,50483,1,0
256,192,50905,1,0
256,192,51280,1,0
256,192,51655,1,0
256,192,52077,1,0
256,192,52452,1,0
256,192,53248,1,0
256,192,53670,1,0
256,192,53858,1,0
256,192,54233,1,0
256,192,54467,1,0
256,192,54842,1,0
256,192,55264,1,0
256,192,55452,1,0
256,192,55827,1,0
256,192,56014,1,0
256,192,56436,1,0
256,192,56858,1,0
256,192,57045,1,0
256,192,57420,1,0
256,192,57608,1,0
376,224,58124,1,0
256,192,58217,1,0
256,192,58358,1,0
256,192,58405,1,0
384,96,58545,1,0
328,88,58639,1,0
272,136,58686,1,0
176,104,58827,1,0
40,40,59717,2,0,B|392:288,1,420
472,40,62858,2,0,B|128:280,1,420
56,56,66139,2,0,B|472:56|456:352|48:328,1,717.5
280,96,70217,1,0
288,136,70311,1,0
224,200,70405,1,0
160,96,70499,1,0
240,24,70592,1,0
344,48,70733,1,0
64,40,70780,1,0
72,120,70921,1,0
224,128,72561,1,0
224,128,72983,1,0
224,128,73405,1,0
224,128,73780,1,0
224,128,74155,1,0
224,128,74577,1,0
224,128,74952,1,0
224,128,75139,1,0
224,128,75374,1,0
224,128,75749,1,0
224,128,76171,1,0
224,128,76592,1,0
224,128,76733,1,0
224,128,76921,1,0
224,128,77342,1,0
224,128,77764,1,0
224,128,78139,1,0
224,128,78233,1,0
224,128,78327,1,0
224,128,78421,1,0
224,128,78514,1,0
272,208,78655,1,0
272,208,78702,1,0
272,208,78842,1,0
288,264,78936,1,0
288,264,79030,1,0
288,264,79452,1,0
224,128,79827,1,0
224,128,79967,1,0
224,128,80014,1,0
224,128,80108,1,0
224,128,80202,1,0
224,128,80624,1,0
224,128,81046,1,0
224,128,81374,1,0
224,128,81608,1,0
224,128,81796,1,0
224,128,82218,1,0
224,128,82593,1,0
224,128,83014,1,0
224,128,83296,1,0
224,128,83577,1,0
224,128,83811,1,0
224,128,84093,1,0
360,264,84327,1,0
360,264,84374,1,0
224,128,84468,1,0
208,80,84608,1,0
184,192,84655,1,0
184,192,84749,1,0
128,200,84983,1,0
224,128,85405,1,0
224,128,85686,1,0
224,128,86108,1,0
224,128,86249,1,0
224,128,86436,1,0
224,128,86858,1,0
224,128,87046,1,0
184,232,87280,1,0
328,256,87468,1,0
328,256,87514,1,0
224,128,87843,1,0
224,128,88030,1,0
224,128,88264,1,0
224,128,88639,1,0
224,128,89014,1,0
224,128,89436,1,0
224,128,89624,1,0
224,128,89858,1,0
224,128,90233,1,0
224,128,90608,1,0
224,128,91030,1,0
352,336,91124,1,0
224,128,91218,1,0
352,336,91311,1,0
224,128,91405,1,0
224,128,91827,1,0
224,128,92108,1,0
256,128,92390,1,0
224,128,92718,1,0
224,128,92811,1,0
224,128,92905,1,0
224,128,92999,1,0
304,328,93140,1,0
224,128,93468,1,0
224,128,93890,1,0
224,128,94311,1,0
224,128,94499,1,0
224,128,94686,1,0
224,128,95061,1,0
224,128,95483,1,0
224,128,95905,1,0
224,128,96186,1,0
224,128,96468,1,0
224,128,96702,1,0
224,128,97077,1,0
256,192,97171,12,0,98228
256,264,99608,5,0
296,248,100452,1,0
296,248,101202,1,0
296,248,102140,1,0
216,288,102515,1,0
248,200,102890,1,0
248,200,103312,1,0
248,200,103733,1,0
248,200,104062,1,0
248,200,104483,1,0
248,200,104905,1,0
248,200,105280,1,0
248,200,106077,1,0
248,200,106593,1,0
248,200,107062,1,0
248,200,107155,1,0
248,200,107671,1,0
248,200,108187,1,0
248,200,108655,1,0
248,200,108796,1,0
248,200,109265,1,0
248,200,109733,1,0
248,200,110249,1,0
248,200,110343,1,0
248,200,110437,1,0
248,200,110530,1,0
248,200,110624,1,0
248,200,110718,1,0
256,184,112546,1,0
248,208,115827,1,0
256,192,118968,1,0
256,192,120187,1,0
256,192,120374,1,0
256,192,120562,1,0
256,192,120749,1,0
256,192,120937,1,0
256,192,121171,1,0
256,192,121359,1,0
256,192,121546,1,0
256,192,121734,1,0
256,192,121968,1,0
256,192,122109,1,0
256,192,122343,1,0
256,192,122530,1,0
256,192,122718,1,0
128,152,122952,2,0,B|160:152,9,17.5
232,144,124405,1,0
256,248,124827,1,0
256,248,125202,1,0
256,248,125624,1,0
256,248,125999,1,0
256,248,126187,1,0
256,248,126421,1,0
288,240,126609,1,0
256,248,126843,1,0
256,248,126984,1,0
256,248,127171,1,0
256,248,127687,1,0
256,248,128109,1,0
256,248,128484,1,0
256,248,128624,1,0
256,248,128671,1,0
256,248,129281,1,0
256,248,129702,1,0
256,248,130031,1,0
256,248,130452,1,0
256,248,130874,1,0
256,248,131296,1,0
256,248,131624,1,0
232,168,132046,1,0
232,168,132234,1,0
232,168,132468,1,0
232,168,132656,1,0
232,168,132749,1,0
232,168,132843,1,0
232,168,132937,1,0
256,200,133031,1,0
256,248,133124,1,0
256,248,133265,1,0
256,248,133640,1,0
256,248,134062,1,0
264,288,134156,1,0
192,232,134202,1,0
296,256,134343,1,0
360,336,134437,1,0
256,248,134577,1,0
360,336,134624,1,0
256,248,134718,1,0
256,248,134906,1,0
256,248,135234,1,0
200,112,135327,1,0
256,248,135656,1,0
256,248,135702,1,0
200,112,135843,1,0
200,112,135937,1,0
256,248,135984,1,0
256,248,136124,1,0
224,88,136406,1,0
224,88,136499,1,0
200,112,136593,1,0
200,112,136687,1,0
200,112,136828,1,0
200,112,136921,1,0
176,216,137015,1,0
224,224,137296,1,0
224,224,137437,1,0
224,224,137578,1,0
224,224,137718,1,0
224,224,137906,1,0
224,224,137999,1,0
224,224,138093,1,0
248,256,138187,1,0
224,224,138421,1,0
328,208,138703,1,0
224,224,138796,1,0
272,200,139218,1,0
224,224,139265,1,0
224,224,139359,1,0
184,64,139687,1,0
184,64,139781,1,0
224,224,139874,1,0
224,224,139968,1,0
352,360,140109,1,0
352,360,140203,1,0
240,192,140484,1,0
240,192,140859,1,0
224,224,141281,1,0
224,224,141656,1,0
224,224,142078,1,0
224,112,142124,1,0
224,224,142265,1,0
224,224,142359,1,0
224,224,142453,1,0
224,224,142546,1,0
224,224,142640,1,0
224,112,142734,1,0
224,112,142874,1,0
248,168,143249,1,0
224,224,143718,1,0
200,104,143859,1,0
200,104,143953,1,0
200,104,144046,1,0
248,168,144140,1,0
248,168,144515,1,0
200,104,144937,1,0
248,168,145171,1,0
200,104,145312,1,0
248,168,145499,1,0
200,104,145734,1,0
216,200,146156,1,0
216,200,146531,1,0
256,200,146718,1,0
240,232,146906,1,0
256,200,147093,1,0
240,232,147328,1,0
272,240,147703,1,0
272,240,148078,1,0
272,240,148500,1,0
240,176,148593,1,0
240,176,148687,1,0
240,176,148781,1,0
240,176,148921,1,0
216,256,149015,1,0
216,256,149109,1,0
216,256,149203,1,0
272,240,149671,1,0
232,160,152390,1,0
232,160,152578,1,0
232,160,152765,1,0
232,160,152953,1,0
232,160,153140,1,0
232,160,153375,1,0
232,160,153750,1,0
232,160,153984,1,0
232,160,154171,1,0
232,160,154312,1,0
232,160,154546,1,0
232,160,154734,1,0
232,160,154968,1,0
232,160,155156,1,0
232,160,155343,1,0
232,160,155531,1,0
232,160,155765,1,0
232,160,155953,1,0
232,160,156140,1,0
232,160,156328,1,0
232,160,156515,1,0
232,160,156750,1,0
232,160,156937,1,0
232,160,157125,1,0
232,160,157312,1,0
232,160,157500,1,0
232,160,157734,1,0
232,160,157921,1,0
232,160,158109,1,0
232,160,159046,1,0
232,160,159187,1,0
232,160,159422,1,0
232,160,159609,1,0
232,160,159797,1,0
232,160,159984,1,0
232,160,160593,1,0
232,160,160781,1,0
232,160,160968,1,0
232,160,161203,1,0
232,160,161390,1,0
232,160,161625,1,0
232,160,162187,1,0
264,160,162375,1,0
264,160,162562,1,0
264,160,162797,1,0
264,160,162984,1,0
264,160,163172,1,0
264,160,164812,1,0
264,160,165047,1,0
264,160,165234,1,0
264,160,165468,1,0
264,160,166406,1,0
264,160,166640,1,0
264,160,166828,1,0
264,160,167015,1,0
264,160,168703,1,0
264,160,170297,1,0
264,168,171797,1,0
264,168,173484,1,0
264,168,174281,1,0
264,168,175078,1,0
264,168,175172,1,0
264,168,175265,1,0
264,168,175359,1,0
264,168,175453,1,0
160,184,175547,1,0
160,184,175640,1,0
160,184,175781,1,0
264,168,175828,1,0
264,168,175969,1,0
264,168,176062,1,0
264,168,176156,1,0
264,168,176250,1,0
264,168,176344,1,0
264,168,176437,1,0
264,168,176578,1,0
264,168,176672,1,0
264,168,176719,1,0
264,168,176859,1,0
264,168,176953,1,0
264,168,177047,1,0
264,168,177140,1,0
264,168,177234,1,0
264,168,177328,1,0
264,168,177422,1,0
264,168,177515,1,0
264,168,177656,1,0
264,168,177750,1,0
264,168,177844,1,0
264,168,177937,1,0
264,168,178359,1,0
264,168,178640,1,0
264,168,178922,1,0
264,168,179109,1,0
264,168,179344,1,0
264,168,179531,1,0
264,168,179719,1,0
264,168,179953,1,0
264,168,180234,1,0
264,168,180515,1,0
264,168,180703,1,0
264,168,180797,1,0
264,168,180937,1,0
264,168,181031,1,0
264,168,181125,1,0
264,168,181312,1,0
264,168,181500,1,0
264,168,181734,1,0
264,168,181875,1,0
264,168,182109,1,0
264,168,182297,1,0
264,168,182484,1,0
264,168,182719,1,0
264,168,182812,1,0
264,168,182859,1,0
264,168,183000,1,0
264,168,183094,1,0
264,168,183375,1,0
264,168,183891,1,0
264,168,184078,1,0
264,168,184312,1,0
264,168,184453,1,0
264,168,184641,1,0
