osu file format v7

[General]
AudioFilename: Nightcore - Superstar.mp3
AudioLeadIn: 1500
PreviewTime: 39051
Countdown: 1
SampleSet: Soft
StackLeniency: 0.4
Mode: 0
LetterboxInBreaks: 1

[Editor]
DistanceSpacing: 1.60000002384186
BeatDivisor: 4
GridSize: 8

[Metadata]
Title:Superstar
Artist:Nightcore
Creator:osuplayer111
Version:Insane
Source:
Tags:Techno xxheroxx

[Difficulty]
HPDrainRate:8
CircleSize:5
OverallDifficulty:8
SliderMultiplier:1.4
SliderTickRate:1

[Events]
//Background and Video events
0,0,"BG.jpg"
//Break Periods
2,61290,68604
2,116386,126484
//Storyboard Layer 0 (Background)
//Storyboard Layer 1 (Fail)
//Storyboard Layer 2 (Pass)
//Storyboard Layer 3 (Foreground)
//Storyboard Sound Samples
//Background Colour Transformations
3,100,163,162,255

[TimingPoints]
484,344.35261707989,4,2,1,50,1,0
3066,-100,4,2,1,65,0,0
4960,-100,4,2,1,80,0,0
5649,-100,4,2,1,100,0,0
5993,-100,4,1,1,80,0,0
16238,-100,4,1,1,50,0,0
16410,-100,4,1,1,66,0,0
16582,-100,4,1,1,50,0,0
16754,-100,4,1,1,66,0,0
16926,-100,4,2,1,100,0,0
39051,-100,4,2,1,100,0,1
49382,-100,4,2,1,100,0,0
50070,-100,4,2,1,100,0,1
60401,-100,4,2,1,100,0,0
85797,-200,4,2,1,100,0,0
86744,-100,4,2,1,100,0,0
94147,-100,4,2,1,100,0,1
104478,-100,4,2,1,100,0,0
105167,-100,4,2,1,100,0,1
115497,-100,4,2,1,100,0,0
127234,344.35261707989,4,2,1,50,1,0
127406,-100,4,2,1,10,0,0
137392,-100,4,2,1,75,0,0
138253,-100,4,2,1,100,0,1
148583,-100,4,2,1,100,0,0
149272,-100,4,1,1,100,0,1
153576,-100,4,2,1,100,0,1
160291,-100,4,2,1,0,0,0

[Colours]
Combo1 : 128,255,128
Combo2 : 255,255,128

[HitObjects]
64,192,484,1,0
112,264,656,1,0
176,320,828,1,0
256,352,1000,1,0
256,352,1172,1,0
256,352,1344,1,0
336,320,1517,1,0
408,264,1689,1,0
464,192,1861,1,0
328,88,2205,5,2
256,240,2550,1,0
192,88,2894,1,0
256,240,3238,2,0,B|192:312,1,70
256,240,3583,2,0,B|312:304,1,70
256,360,3927,1,0
303,294,4099,2,0,B|383:294,1,70,0|2
206,295,4444,2,0,B|133:295,1,70
256,240,4788,5,0
208,176,4960,1,0
184,96,5132,1,0
208,16,5304,1,0
304,16,5477,1,0
336,96,5649,1,2
312,176,5821,1,0
256,240,5993,5,2
152,368,6337,1,2
368,368,6682,1,2
256,240,7026,2,0,B|256:144,1,70,8|0
256,88,7371,1,0
120,192,7715,1,8
392,192,8059,5,2
291,343,8404,2,0,B|259:343|219:343,1,70,10|0
136,344,8748,2,0,B|66:277|144:216,1,140,2|10
136,56,9437,2,0,B|203:-14|264:64,1,140,2|8
376,96,10039,2,0,B|416:120,1,35
480,152,10298,2,0,B|480:232,1,70,0|8
480,304,10642,1,0
480,304,10814,6,0,B|408:352|344:296,1,140,2|10
256,192,11503,1,2
32,80,11847,2,0,B|104:32|168:88,1,140,10|2
216,24,12364,1,0
256,96,12536,1,8
296,24,12708,1,0
256,96,12880,6,0,B|224:144|280:192|248:240,1,140,2|10
208,368,13569,1,2
304,368,13741,1,0
256,288,13913,1,8
256,288,14085,1,0
256,288,14258,6,0,B|288:240|232:192|264:144,1,140,2|10
88,144,14946,1,0
120,64,15118,1,0
184,8,15291,1,8
256,48,15463,1,0
424,240,15635,5,0
392,320,15807,1,0
328,376,15979,1,8
256,336,16152,1,0
176,192,16324,5,2
256,264,16496,1,2
336,192,16668,1,2
256,120,16840,1,2
256,192,17012,5,2
176,40,17357,1,8
336,40,17701,1,2
256,192,18045,1,8
216,264,18218,1,0
296,264,18390,1,0
464,256,18734,6,0,B|504:192|456:112,1,140,8|2
416,56,19251,1,0
360,120,19423,1,8
328,40,19595,1,0
272,104,19767,2,0,B|192:104,1,70,2|0
128,56,20112,2,0,B|48:96|64:184,1,140,8|2
24,240,20628,1,0
104,240,20800,1,8
64,312,20972,1,0
144,344,21145,2,0,B|216:368|288:344,1,140,0|8
416,192,21833,6,0,B|520:192,2,70,2|0|2
256,192,22522,2,0,B|96:192,1,140,2|8
8,192,23211,1,0
40,272,23383,1,0
8,192,23555,1,8
40,112,23727,1,0
120,192,23899,2,0,B|264:192,1,140,0|10
416,128,24588,5,2
472,192,24760,1,0
416,256,24933,1,8
360,192,25105,2,0,B|288:192,1,70
184,320,25621,2,0,B|336:320,1,140,8|2
408,320,26138,1,0
464,256,26310,1,8
416,192,26482,1,0
464,120,26654,6,0,B|464:48,1,70
216,32,26999,2,0,B|144:64,1,70,8|0
72,304,27343,2,0,B|136:352,1,70,2|2
424,312,27687,2,0,B|472:248,1,70,10|2
256,192,28032,5,4
400,112,28376,1,8
256,32,28720,2,0,B|176:32|136:112,1,140,0|8
168,184,29237,1,0
88,184,29409,2,0,B|24:224|32:320,1,140,0|8
104,344,29926,1,0
168,184,30098,5,2
232,240,30270,1,0
296,184,30442,1,8
360,240,30614,1,0
424,184,30787,2,0,B|480:40,1,140,2|8
304,32,31475,2,0,B|216:32,1,70
152,64,31820,1,8
72,32,31992,1,0
8,88,32164,1,0
88,112,32336,5,0
88,112,32508,2,0,B|128:272,1,140,8|2
72,320,33025,1,0
152,344,33197,2,0,B|227:299|293:347,1,140,2|2
432,264,33886,2,0,B|387:189|435:123,1,140,8|0
384,56,34402,1,0
384,56,34574,2,0,B|328:16|288:104|224:32,1,140,8|0
80,56,35263,1,8
168,192,35435,6,0,B|120:256,1,70,2|0
168,320,35780,1,0
224,256,35952,2,0,B|272:192,1,70,8|0
224,256,36296,1,2
392,264,36641,5,8
336,104,36985,1,2
176,104,37329,1,8
112,264,37674,1,2
256,192,38018,1,0
256,360,38362,1,2
256,280,38534,1,0
256,192,38707,1,0
256,192,38793,1,0
256,192,38879,1,0
256,192,38965,1,0
256,192,39051,5,4
80,192,39395,1,8
80,24,39740,2,0,B|232:24,1,140,0|8
220,24,40256,1,0
220,24,40428,1,0
392,24,40773,6,0,B|456:56|496:128,1,140,8|2
120,360,41461,2,0,B|56:328|16:256,1,140,8|2
176,192,42150,1,8
256,192,42322,1,0
344,192,42495,1,0
256,272,42839,1,8
256,192,43011,1,0
256,104,43183,1,0
128,320,43528,5,10
64,264,43700,1,0
16,192,43872,1,0
64,120,44044,1,0
128,64,44216,1,8
256,192,44388,5,0
256,192,44561,1,2
384,64,44905,5,10
448,120,45077,1,0
496,192,45249,1,0
448,264,45422,1,0
384,320,45594,1,8
256,192,45766,5,0
256,192,45938,1,2
256,104,46282,6,0,B|256:32,1,70,10|0
168,192,46627,2,0,B|88:192,1,70
344,192,46971,2,0,B|416:192,1,70,8|0
256,272,47315,2,0,B|256:344,1,70,2|0
256,192,47660,1,10
192,136,47832,1,0
320,136,48004,1,0
256,192,48349,5,10
192,248,48521,1,0
320,248,48693,1,0
144,312,48865,1,0
368,312,49037,1,10
256,192,49382,1,2
208,120,49554,1,2
256,48,49726,1,2
304,120,49898,1,2
256,192,50070,6,0,B|256:336,1,140,4|8
176,336,50587,1,0
336,336,50759,1,0
216,264,50931,1,0
296,264,51103,1,8
256,192,51276,1,0
256,192,51448,2,0,B|288:144|232:104|264:48,2,140,0|10|0
256,360,52481,1,8
112,280,52825,1,0
112,112,53169,6,0,B|144:48,1,70,8|0
224,32,53514,2,0,B|304:32,1,70,2|0
376,48,53858,2,0,B|416:128,1,70,8|0
256,144,54203,1,0
384,248,54547,5,10
328,312,54719,1,0
256,360,54891,1,0
184,312,55063,1,0
128,248,55236,1,8
256,192,55408,5,0
256,192,55580,1,2
128,144,55924,5,10
184,80,56096,1,0
256,32,56269,1,0
328,80,56441,1,0
384,144,56613,1,8
256,192,56785,5,0
256,192,56957,1,2
256,280,57302,6,0,B|256:352,1,70,10|0
344,192,57646,2,0,B|424:192,1,70
168,192,57990,2,0,B|96:192,1,70,8|0
256,112,58335,2,0,B|256:40,1,70,2|0
256,192,58679,1,10
320,248,58851,1,0
192,248,59023,1,0
256,192,59368,5,10
320,136,59540,1,0
192,136,59712,1,0
368,72,59884,1,0
144,72,60057,1,10
256,192,60401,1,2
256,192,60487,1,0
256,192,60573,1,0
256,192,60659,1,0
256,192,60745,1,0
256,192,60831,1,0
256,192,60917,1,0
256,192,61003,1,0
256,192,61090,1,4
256,192,69354,12,4,72109
256,344,72453,5,8
152,208,72798,1,2
200,136,72970,1,0
256,72,73142,1,8
312,136,73314,1,0
360,208,73486,1,0
256,344,73831,1,8
256,176,74175,6,0,B|192:128,1,70,2|0
256,176,74519,2,0,B|320:128,1,70,8|0
256,72,74864,1,2
256,256,75208,1,8
88,328,75552,1,2
40,264,75725,1,0
88,192,75897,1,8
40,120,76069,1,0
88,56,76241,1,0
40,120,76413,1,0
88,192,76585,6,0,B|232:192,1,140,8|2
424,192,77274,2,0,B|272:192,1,140,2|2
256,24,77963,1,8
256,360,78307,1,2
216,192,78652,5,8
256,264,78824,2,0,B|256:344,1,70
296,192,79168,1,0
256,112,79340,2,0,B|256:32,1,70,8|0
216,192,79685,5,2
296,192,79857,1,0
144,192,80029,1,8
368,192,80201,1,0
256,112,80373,1,2
256,264,80718,1,8
256,112,81062,1,2
48,192,81406,5,8
48,192,81579,1,0
48,192,81751,1,0
464,192,82095,1,8
464,328,82267,1,0
464,192,82439,1,2
328,192,82612,1,2
464,192,82784,1,2
464,56,82956,1,2
464,192,83128,6,0,B|320:192,1,140,4|8
200,304,83817,1,2
120,272,83989,1,0
40,240,84161,1,8
48,88,84333,1,0
128,120,84506,1,0
128,120,84678,1,0
208,144,84850,1,8
352,64,85194,6,0,B|440:64,1,70,2|0
480,152,85539,2,0,B|400:152,1,70,8|0
352,240,85883,2,0,B|424:240,2,70,2|8|2
256,376,86916,1,8
256,376,87088,1,0
256,376,87260,1,0
256,8,87605,1,8
256,8,87777,1,0
256,8,87949,6,0,B|256:104,1,70,2|0
256,376,88293,2,0,B|256:272,1,70,2|0
184,192,88638,1,2
328,192,88982,1,8
184,272,89326,1,2
256,320,89499,2,0,B|256:368,2,35,0|0|8
328,272,89843,1,0
256,232,90015,1,0
256,152,90187,2,0,B|256:72,2,70,0|8|0
184,192,90704,5,2
184,272,90876,1,0
256,320,91048,1,8
328,272,91220,1,0
328,192,91393,1,2
256,16,91737,2,0,B|256:168,1,140,8|2
184,272,92426,5,8
184,272,92598,1,0
328,272,92770,1,0
328,272,92942,1,0
256,320,93114,1,8
256,320,93287,1,0
256,232,93459,1,0
256,232,93631,1,0
184,192,93803,1,8
328,192,93975,1,0
256,232,94147,5,4
256,64,94492,1,8
88,64,94836,1,0
88,232,95180,1,8
24,288,95353,1,0
88,344,95525,2,0,B|232:344,1,140,0|8
424,344,96214,2,0,B|280:344,1,140,0|8
256,192,96902,5,2
200,32,97247,1,8
256,96,97419,1,0
312,32,97591,1,2
200,360,97935,1,8
256,296,98107,1,0
312,360,98280,1,0
112,192,98624,5,10
184,232,98796,1,0
256,192,98968,1,0
328,232,99141,1,0
400,192,99313,1,8
256,192,99485,5,0
256,192,99657,1,2
400,192,100001,5,10
328,152,100174,1,0
256,192,100346,1,0
184,152,100518,1,0
112,192,100690,1,8
256,192,100862,5,0
256,192,101034,1,2
224,352,101379,6,0,B|144:352,1,70,8|0
288,280,101723,2,0,B|360:280,1,70,2|0
256,192,102068,2,0,B|256:112,1,70,8|0
256,40,102412,1,2
96,192,102756,6,0,B|16:192,2,70,8|0|2
416,192,103445,2,0,B|488:192,2,70,8|0|2
336,224,103961,1,0
256,192,104134,1,8
112,280,104478,1,2
184,320,104650,1,2
256,280,104822,1,2
256,192,104995,1,2
256,104,105167,5,4
256,280,105511,1,8
112,192,105855,1,0
400,192,106200,1,8
328,240,106372,1,0
256,192,106544,1,0
112,192,106888,6,0,B|48:128|120:64,1,140,8|2
400,192,107577,2,0,B|464:256|392:320,1,140,8|2
184,240,108266,1,8
256,192,108438,1,0
328,240,108610,1,0
256,192,108782,1,0
256,192,108955,2,0,B|256:48,1,140,8|2
256,48,109643,5,10
216,120,109815,1,0
256,192,109988,1,0
216,264,110160,1,0
256,336,110332,1,8
256,192,110504,5,0
256,192,110676,1,2
256,336,111021,5,10
296,264,111193,1,0
256,192,111365,1,0
296,120,111537,1,0
256,48,111709,1,8
256,192,111882,5,0
256,192,112054,1,2
224,352,112398,6,0,B|144:352,1,70,8|0
288,280,112742,2,0,B|360:280,1,70,2|0
256,192,113087,2,0,B|256:112,1,70,8|0
256,40,113431,1,2
96,192,113776,6,0,B|16:192,2,70,8|0|2
416,192,114464,2,0,B|488:192,2,70,8|0|2
336,224,114981,1,0
256,192,115153,1,8
256,344,115497,1,2
256,344,115583,1,0
256,344,115669,1,0
256,344,115756,1,0
256,344,115842,1,0
256,344,115928,1,0
256,344,116014,1,0
256,344,116100,1,0
256,344,116186,1,4
216,352,127234,5,4
296,352,127578,1,0
192,288,127922,1,0
320,288,128267,1,0
168,224,128611,1,0
344,224,128955,1,0
296,32,129300,5,0
216,32,129644,1,0
320,96,129988,1,0
192,96,130333,1,0
344,160,130677,1,0
168,160,131021,1,0
40,120,131366,6,0,B|40:264,1,140
474,258,132054,2,0,B|474:114,1,140
192,48,132743,2,0,B|256:0|336:56,1,140
320,336,133432,2,0,B|256:384|176:328,1,140
256,192,134121,5,0
192,48,134465,1,0
320,336,134809,1,0
320,48,135154,1,0
192,336,135498,1,0
256,192,135842,1,0
144,192,136187,6,0,B|-8:192,1,140
368,192,136875,2,0,B|520:192,1,140
256,360,137564,1,2
256,280,137736,1,2
256,192,137908,1,2
256,104,138081,1,2
256,24,138253,5,4
256,360,138597,1,8
256,192,138941,1,0
88,192,139286,2,0,B|8:192,2,70,8|0|0
256,192,139975,1,8
488,192,140319,1,2
324,23,140663,2,0,B|172:23,1,140,8|2
256,192,141352,1,8
256,192,141524,1,0
256,192,141696,2,0,B|256:344,2,140,2|8|0
136,192,142729,5,10
176,88,142902,1,0
256,16,143074,1,0
344,88,143246,1,0
384,192,143418,1,8
256,192,143590,5,0
256,192,143762,1,2
384,192,144107,5,10
344,296,144280,1,0
256,368,144452,1,0
176,296,144623,1,0
136,192,144796,1,8
256,192,144968,5,0
256,192,145140,1,2
136,192,145484,6,0,B|48:192,1,70,10|0
384,192,145829,2,0,B|472:192,1,70
256,296,146173,2,0,B|256:376,1,70,8|0
256,192,146517,1,2
200,112,146862,5,8
312,112,147034,1,0
256,16,147206,1,2
256,368,147550,1,8
200,272,147722,1,0
312,272,147895,1,2
256,368,148067,1,0
256,368,148239,1,8
32,192,148583,5,2
144,192,148756,1,2
256,192,148928,1,2
368,192,149100,1,2
480,192,149272,5,2
32,192,149616,1,2
256,192,149961,1,2
152,48,150305,1,8
256,88,150477,1,0
360,48,150649,1,0
256,296,150994,1,8
32,192,151338,5,2
480,192,151683,1,2
256,192,152027,1,2
480,192,152371,1,2
256,192,152716,1,2
360,336,153060,1,8
256,296,153232,1,0
152,336,153404,1,0
256,72,153749,5,10
360,112,153922,1,0
432,192,154094,1,0
360,280,154266,1,0
256,320,154438,1,8
256,192,154610,5,0
256,192,154782,1,2
256,320,155126,5,10
152,280,155299,1,0
80,192,155471,1,0
152,112,155643,1,0
256,72,155815,1,8
256,192,155987,5,0
256,192,156159,1,2
376,192,156503,6,0,B|464:192,1,70,10|0
128,192,156848,2,0,B|40:192,1,70
256,88,157192,2,0,B|256:8,1,70,8|0
256,192,157536,1,2
312,272,157881,5,8
200,272,158053,1,0
256,368,158225,1,2
256,16,158569,1,8
312,112,158741,1,0
200,112,158914,1,2
256,16,159086,1,0
256,16,159258,1,8
424,192,159602,5,2
312,192,159775,1,2
200,192,159947,1,2
88,192,160119,1,2
256,192,160291,12,0,163735
